Subcategories
Tags
Language
Tags

The Frank Capp Juggernaut - In A Hefti Bag (1995)

Posted By: Domestos
The Frank Capp Juggernaut - In A Hefti Bag (1995)

The Frank Capp Juggernaut - In A Hefti Bag (1995)
EAC Rip | FLAC (tracks+.cue, log) ~ 334.63 Mb + 19.72 Mb (Scans) | 00:56:09
Swing, Big Band | Label: Concord Jazz, Inc. (CCD-4655)

The Frank Capp Juggernaut's interpretations of 16 Neal Hefti compositions (which were originally written and arranged for the 1950s-era Count Basie Orchestra) bring new life to the highly appealing music without directly copying the earlier recordings. Capp and his 16-piece orchestra are in typically swinging form on obvious classics such as "Cute," "Whirlybird," and "Li'l Darlin'"; several songs whose ensembles are more familiar than their titles (such as "Flight of the Foo Birds," "Scoot," and "Bag-A-Bones"); and some high-quality obscurities.

Many soloists are featured, including the late altoist Marshall Royal (who takes his last recorded solo on "It's Awf'lly Nice to Be with You"); tenors Rickey Woodard and Pete Christlieb; altoist Lanny Morgan; trumpeters Conte Candoli, Bob Summers, and Snooky Young; and trombonists Thurman Green, Alan Kaplan, and Andy Martin. Special mention should be made of the work of Gerry Wiggins, who is former co-leader Nat Pierce's permanent replacement and fits right into the Count Basie chair with enthusiasm and obvious skill. As for Frank Capp, he gets his share of drum breaks (including on "Cute" and "Whirlybird") while thoroughly enjoying himself driving the ensembles. Fans of swinging big bands cannot do much better than picking up this highly recommended release. ~ AllMusic Review by Scott Yanow

The Juggernaut is -
Frank Capp Drums with
Saxophones - MARSHALL ROYAL alto, LANNY MORGAN alto, DANNY HOUSE: alto (Tracks 6, 8, 12 & 15), RICKEY WOODARD tenor, 1ЧМ CHRISTLIEB tenor, BILL GREEN baritone & flute, JACK NIMITZ baritone (Tracks 1-9 & 11)
Trombones - ANDY MARTIN, THURMAN GREEN, ALAN KAPLAN
Trumpets - FRANK ZSABO, BOB SUMMERS (Tracks 5, 7, 9, 11 & 16), SNOOKY YOUNG, CONTE CANDOLI, BILL BERRY (Tracks 1-4, 6, 8, 10,12-15)
Guitars - DENNIS BUDIMIR (Tracks 1-11. 16), JOHN PISANO (Tracks 12-15)
Piano - GERRY WIGGINS
Bass - CHUCK BERGHOFER

Recorded at Sage & Sound Recorders, Hollywood. CA November 3, 1994; March 7 & March 21, 1995

Track List:
1. I'M SHOUTIN' AGAIN (2:58)
Featuring: Pete Chrlistlieb - tenor: Frank Capp - drums

2. CHERRY POINT (3:22)
Featuring: Gerry Wiggins - piano

3. FLIGHT OF THE FOO BIRDS (2:44)
featuring: Lanny Morgan - alto; Conte Candoli - trumpet; Pete Chrlistlieb - tenor

4. LATE DATE (4:45)
featuring: Lanny Morgan - alto; Gerry Wiggins - piano

5. SCOOT (2:58)
Featuring: Rickey Woodard - tenor; Andy Martin - trombone

6. TEDDY THE TOAD (3:11)
featuring: Gerry Wiggins - piano

7. DINNER WITH MY FRIENDS (2:30)
Featuring: Bob Summers - trumpet; Pete Christlieb & Rickey Woodard - tenors

8. MIDNITE BLUE (5:09)
featuring: Gerry Wiggins - piano

9. BAG-A-BONES (3:35)
featuring: Thurman Green, Alan Kaplan & Andy Martin -trombones

10. IT'S AWF'LLY NICE TO BE WITH YOU (3:26)
featuring: Marshal Royal - alto

11. CUTE (3:20)
Featuring: Frank Capp - brushes; Bill Green - flute

12. WHIRLY BIRD (3:57)
Featuring: Gerry Wiggins - piano: Rickey Woodard & Pete Christlieb - tenors; Frank Zsabo - lead trumpet

13. DUET (3:06)
Featuring: Snooky Young & Conte Candoli - trumpets

14. LI'L DARLIN' (4:33)
Featuring: Snooky Young - trumpet

15. FANTAIL (3:25)
Featuring: Gerry Wiggins - piano; Danny House & Marshal Royal - altos: Frank Capp - drums

16. THE KID FROM RED RANK (2:25)
featuring: Gerry Wiggins - piano

The Frank Capp Juggernaut - In A Hefti Bag (1995)

Exact Audio Copy V0.99 prebeta 4 from 23. January 2008

EAC extraction logfile from 16. November 2009, 14:52

The Frank Capp Juggernaut / In A Hefti Bag

Used drive : HL-DT-STDVD-RAM GH22NP20 Adapter: 0 ID: 0

Read mode : Secure
Utilize accurate stream : Yes
Defeat audio cache : Yes
Make use of C2 pointers : No

Read offset correction : 102
Overread into Lead-In and Lead-Out : No
Fill up missing offset samples with silence : Yes
Delete leading and trailing silent blocks : No
Null samples used in CRC calculations : Yes
Used interface : Installed external ASPI interface
Gap handling : Appended to previous track

Used output format : User Defined Encoder
Selected bitrate : 320 kBit/s
Quality : High
Add ID3 tag : No
Command line compressor : C:\Program Files\Exact Audio Copy\Flac\flac.exe
Additional command line options : -V -8 -T "artist=%a" -T "title=%t" -T "album=%g" -T "date=%y" -T "tracknumber=%n" -T "genre=%m" %s

TOC of the extracted CD

Track | Start | Length | Start sector | End sector
––––––––––––––––––––––––––––-
1 | 0:00.00 | 3:01.10 | 0 | 13584
2 | 3:01.10 | 3:25.02 | 13585 | 28961
3 | 6:26.12 | 2:46.70 | 28962 | 41481
4 | 9:13.07 | 4:49.03 | 41482 | 63159
5 | 14:02.10 | 3:01.02 | 63160 | 76736
6 | 17:03.12 | 3:13.68 | 76737 | 91279
7 | 20:17.05 | 2:33.07 | 91280 | 102761
8 | 22:50.12 | 5:12.03 | 102762 | 126164
9 | 28:02.15 | 3:37.00 | 126165 | 142439
10 | 31:39.15 | 3:28.65 | 142440 | 158104
11 | 35:08.05 | 3:22.10 | 158105 | 173264
12 | 38:30.15 | 4:00.00 | 173265 | 191264
13 | 42:30.15 | 3:09.00 | 191265 | 205439
14 | 45:39.15 | 4:36.00 | 205440 | 226139
15 | 50:15.15 | 3:27.72 | 226140 | 241736
16 | 53:43.12 | 2:26.48 | 241737 | 252734

Track 1

Filename D:\music\Musicgate's rips\The Frank Capp Juggernaut - In A Hefti Bag (1995, Concord)\01 - I'm Shoutin' Again.wav

Pre-gap length 0:00:02.00

Peak level 100.0 %
Track quality 100.0 %
Test CRC 59D35870
Copy CRC 59D35870
Cannot be verified as accurate (confidence 1) [1CAF399D], AccurateRip returned [0F2E711A]
Copy OK

Track 2

Filename D:\music\Musicgate's rips\The Frank Capp Juggernaut - In A Hefti Bag (1995, Concord)\02 - Cherry Point.wav

Pre-gap length 0:00:01.64

Peak level 100.0 %
Track quality 100.0 %
Test CRC D6493835
Copy CRC D6493835
Cannot be verified as accurate (confidence 1) [83E33E7A], AccurateRip returned [71E9AEC7]
Copy OK

Track 3

Filename D:\music\Musicgate's rips\The Frank Capp Juggernaut - In A Hefti Bag (1995, Concord)\03 - Flight Of The Foo Birds.wav

Pre-gap length 0:00:01.16

Peak level 100.0 %
Track quality 100.0 %
Test CRC 1B07B30B
Copy CRC 1B07B30B
Cannot be verified as accurate (confidence 1) [8DF517E2], AccurateRip returned [16CA3C67]
Copy OK

Track 4

Filename D:\music\Musicgate's rips\The Frank Capp Juggernaut - In A Hefti Bag (1995, Concord)\04 - Late Date.wav

Pre-gap length 0:00:00.56

Peak level 80.8 %
Track quality 100.0 %
Test CRC AB2832DF
Copy CRC AB2832DF
Cannot be verified as accurate (confidence 1) [6B4FB20B], AccurateRip returned [0DBAAB0F]
Copy OK

Track 5

Filename D:\music\Musicgate's rips\The Frank Capp Juggernaut - In A Hefti Bag (1995, Concord)\05 - Scoot.wav

Pre-gap length 0:00:00.80

Peak level 100.0 %
Track quality 100.0 %
Test CRC D4E5E0D6
Copy CRC D4E5E0D6
Cannot be verified as accurate (confidence 1) [680C0E42], AccurateRip returned [5DD867C0]
Copy OK

Track 6

Filename D:\music\Musicgate's rips\The Frank Capp Juggernaut - In A Hefti Bag (1995, Concord)\06 - Teddy The Toad.wav

Pre-gap length 0:00:00.80

Peak level 100.0 %
Track quality 99.9 %
Test CRC F1CA273A
Copy CRC F1CA273A
Cannot be verified as accurate (confidence 1) [44DB3C67], AccurateRip returned [93C23457]
Copy OK

Track 7

Filename D:\music\Musicgate's rips\The Frank Capp Juggernaut - In A Hefti Bag (1995, Concord)\07 - Dinner With My Friends.wav

Pre-gap length 0:00:01.00

Peak level 100.0 %
Track quality 99.9 %
Test CRC AAE3471D
Copy CRC AAE3471D
Cannot be verified as accurate (confidence 1) [2057345D], AccurateRip returned [5205A8CD]
Copy OK

Track 8

Filename D:\music\Musicgate's rips\The Frank Capp Juggernaut - In A Hefti Bag (1995, Concord)\08 - Midnite Blue.wav

Pre-gap length 0:00:00.62

Peak level 100.0 %
Track quality 100.0 %
Test CRC 5AB2BAF5
Copy CRC 5AB2BAF5
Cannot be verified as accurate (confidence 1) [A9F10B6E], AccurateRip returned [8911FC60]
Copy OK

Track 9

Filename D:\music\Musicgate's rips\The Frank Capp Juggernaut - In A Hefti Bag (1995, Concord)\09 - Bag-A-Bones.wav

Pre-gap length 0:00:00.57

Peak level 100.0 %
Track quality 100.0 %
Test CRC 4826BC5E
Copy CRC 4826BC5E
Cannot be verified as accurate (confidence 1) [4D85CAD9], AccurateRip returned [C7CCEE34]
Copy OK

Track 10

Filename D:\music\Musicgate's rips\The Frank Capp Juggernaut - In A Hefti Bag (1995, Concord)\10 - It's Awf'lly Nice To Be With You.wav

Pre-gap length 0:00:00.70

Peak level 100.0 %
Track quality 99.9 %
Test CRC C7B3FFF0
Copy CRC C7B3FFF0
Cannot be verified as accurate (confidence 1) [6EEC53A0], AccurateRip returned [AFE1C3B4]
Copy OK

Track 11

Filename D:\music\Musicgate's rips\The Frank Capp Juggernaut - In A Hefti Bag (1995, Concord)\11 - Cute.wav

Pre-gap length 0:00:01.30

Peak level 99.9 %
Track quality 100.0 %
Test CRC C846D44D
Copy CRC C846D44D
Cannot be verified as accurate (confidence 1) [7763C3E7], AccurateRip returned [303847E2]
Copy OK

Track 12

Filename D:\music\Musicgate's rips\The Frank Capp Juggernaut - In A Hefti Bag (1995, Concord)\12 - Whirly Bird.wav

Pre-gap length 0:00:00.26

Peak level 100.0 %
Track quality 100.0 %
Test CRC 9AA5E84E
Copy CRC 9AA5E84E
Cannot be verified as accurate (confidence 1) [D7A73DB9], AccurateRip returned [D4073CDC]
Copy OK

Track 13

Filename D:\music\Musicgate's rips\The Frank Capp Juggernaut - In A Hefti Bag (1995, Concord)\13 - Duet.wav

Pre-gap length 0:00:00.66

Peak level 100.0 %
Track quality 100.0 %
Test CRC 33BBBA7F
Copy CRC 33BBBA7F
Cannot be verified as accurate (confidence 1) [A0BC4B5C], AccurateRip returned [7607AD09]
Copy OK

Track 14

Filename D:\music\Musicgate's rips\The Frank Capp Juggernaut - In A Hefti Bag (1995, Concord)\14 - Li'l Darlin'.wav

Pre-gap length 0:00:00.33

Peak level 88.0 %
Track quality 100.0 %
Test CRC 7A9E25B2
Copy CRC 7A9E25B2
Cannot be verified as accurate (confidence 1) [825B122D], AccurateRip returned [2DC6DA08]
Copy OK

Track 15

Filename D:\music\Musicgate's rips\The Frank Capp Juggernaut - In A Hefti Bag (1995, Concord)\15 - Fantail.wav

Pre-gap length 0:00:00.30

Peak level 100.0 %
Track quality 100.0 %
Test CRC AC020533
Copy CRC AC020533
Cannot be verified as accurate (confidence 1) [B4FBA4A2], AccurateRip returned [EB549287]
Copy OK

Track 16

Filename D:\music\Musicgate's rips\The Frank Capp Juggernaut - In A Hefti Bag (1995, Concord)\16 - The Kid from Red Bank.wav

Pre-gap length 0:00:01.02

Peak level 100.0 %
Track quality 100.0 %
Test CRC 77BB7C4A
Copy CRC 77BB7C4A
Cannot be verified as accurate (confidence 1) [2850D017], AccurateRip returned [360D425C]
Copy OK

No tracks could be verified as accurate
You may have a different pressing from the one(s) in the database

No errors occurred

End of status report

All thanks go to the Musicgate

More Music in My Blog
Follow My RSS Channel