Tags
Language
Tags

The Gloomies - Romance (2018)

Posted By: aasana
The Gloomies - Romance (2018)

The Gloomies - Romance (2018)
EAC Rip | FLAC (tracks+.cue) | 00:33:33 | 190,90 MB
alternative, rock | Label: Thrill Me Records

To put it simply, The Gloomies were created out of bits of dust … an infamous chthonian hellhole that should have been wiped of the map far before it reached the listeners ear. The Southern California duo understands the importance of feeling alive amongst the darkness of broken and vivid realities that encompass the dualities of human interaction. The Gloomies' Andy Craig creates a meteoric sound that instills both the hypnotic vibe of Southern California beach days and the grungy jazz that infiltrate the streets of New York City. The ominous, yet, catchy melodies provide a moody atmosphere for any listener. Their popularity began to rise in the end of 2015 with the single, “LSD”, and their release off the EP “Blackout” in 2016. Growth continued in 2017 with the release of their latest single “Space” featuring Madeline Follin of NYC indie-pop duo Cults.
Front man Andy Craig and drummer Chris Trombley began their music career together when they met in 2013 and played in the band SACCO. They have since created songs that exhibit a layer of fantastical and hypnotic themes. This in turn bolstered their popularity with their fan base in that they feature a darker, sultrier vibe than their previous work.
Fast-forward to the present… The Gloomies will release their long-awaited highly anticipated debut album Romance in Summer 2018 via Thrill Me.

Tracklist:
01. The Gloomies - DFIL
02. The Gloomies - Palms
03. The Gloomies - Tiger
04. The Gloomies - Loops
05. The Gloomies - Sundays
06. The Gloomies - Vampire
07. The Gloomies - Outside
08. The Gloomies - Lazy
09. The Gloomies - Space
10. The Gloomies - It's Ok

Exact Audio Copy V1.3 from 2. September 2016

EAC extraction logfile from 10. August 2018, 13:44

The Gloomies / Romance

Used drive : hp CDDVDW SH-216AL Adapter: 1 ID: 0

Read mode : Secure
Utilize accurate stream : Yes
Defeat audio cache : Yes
Make use of C2 pointers : No

Read offset correction : 6
Overread into Lead-In and Lead-Out : No
Fill up missing offset samples with silence : Yes
Delete leading and trailing silent blocks : No
Null samples used in CRC calculations : Yes
Used interface : Native Win32 interface for Win NT & 2000
Gap handling : Appended to previous track

Used output format : User Defined Encoder
Selected bitrate : 1024 kBit/s
Quality : High
Add ID3 tag : No
Command line compressor : C:\Program Files (x86)\Exact Audio Copy\Flac\flac.exe
Additional command line options : -8 -e -p -V -T "ARTIST=%artist%" -T "TITLE=%title%" -T "ALBUM=%albumtitle%" -T "DATE=%year%" -T "TRACKNUMBER=%tracknr%" -T "GENRE=%genre%" -T "PERFORMER=%albuminterpret%" -T "COMPOSER=%composer%" %haslyrics%–tag-from-file=LYRICS="%lyricsfile%"%haslyrics% -T "ALBUMARTIST=%albumartist%" -T "DISCNUMBER=%cdnumber%" -T "TOTALDISCS=%totalcds%" -T "TOTALTRACKS=%numtracks%" -T "COMMENT=%comment%" %source% -o %dest%


TOC of the extracted CD

Track | Start | Length | Start sector | End sector
––––––––––––––––––––––––––––-
1 | 0:00.00 | 3:24.21 | 0 | 15320
2 | 3:24.21 | 3:08.74 | 15321 | 29494
3 | 6:33.20 | 3:00.60 | 29495 | 43054
4 | 9:34.05 | 3:14.03 | 43055 | 57607
5 | 12:48.08 | 2:45.16 | 57608 | 69998
6 | 15:33.24 | 6:07.70 | 69999 | 97593
7 | 21:41.19 | 2:54.60 | 97594 | 110703
8 | 24:36.04 | 2:54.12 | 110704 | 123765
9 | 27:30.16 | 3:00.28 | 123766 | 137293
10 | 30:30.44 | 3:03.24 | 137294 | 151042


Track 1

Filename C:\Rips v4\The Gloomies 0 Romance {2018} [CD] (FLAC)\01 - Dfil.wav

Pre-gap length 0:00:02.00

Peak level 96.4 %
Extraction speed 4.7 X
Track quality 100.0 %
Test CRC 119435E9
Copy CRC 119435E9
Track not present in AccurateRip database
Copy OK

Track 2

Filename C:\Rips v4\The Gloomies 0 Romance {2018} [CD] (FLAC)\02 - Palms.wav

Peak level 96.4 %
Extraction speed 4.9 X
Track quality 100.0 %
Test CRC F8BE8D24
Copy CRC F8BE8D24
Track not present in AccurateRip database
Copy OK

Track 3

Filename C:\Rips v4\The Gloomies 0 Romance {2018} [CD] (FLAC)\03 - Tiger.wav

Peak level 96.4 %
Extraction speed 5.1 X
Track quality 100.0 %
Test CRC 14967D98
Copy CRC 14967D98
Track not present in AccurateRip database
Copy OK

Track 4

Filename C:\Rips v4\The Gloomies 0 Romance {2018} [CD] (FLAC)\04 - Loops.wav

Peak level 96.4 %
Extraction speed 5.5 X
Track quality 100.0 %
Test CRC FA3DF8DC
Copy CRC FA3DF8DC
Track not present in AccurateRip database
Copy OK

Track 5

Filename C:\Rips v4\The Gloomies 0 Romance {2018} [CD] (FLAC)\05 - Sundays.wav

Peak level 96.4 %
Extraction speed 5.6 X
Track quality 100.0 %
Test CRC 7CBD190D
Copy CRC 7CBD190D
Track not present in AccurateRip database
Copy OK

Track 6

Filename C:\Rips v4\The Gloomies 0 Romance {2018} [CD] (FLAC)\06 - Vampire.wav

Peak level 96.4 %
Extraction speed 6.6 X
Track quality 100.0 %
Test CRC A1A656F4
Copy CRC A1A656F4
Track not present in AccurateRip database
Copy OK

Track 7

Filename C:\Rips v4\The Gloomies 0 Romance {2018} [CD] (FLAC)\07 - Outside.wav

Peak level 96.4 %
Extraction speed 6.3 X
Track quality 100.0 %
Test CRC 40024BC2
Copy CRC 40024BC2
Track not present in AccurateRip database
Copy OK

Track 8

Filename C:\Rips v4\The Gloomies 0 Romance {2018} [CD] (FLAC)\08 - Lazy.wav

Peak level 96.4 %
Extraction speed 6.4 X
Track quality 100.0 %
Test CRC 9C07774A
Copy CRC 9C07774A
Track not present in AccurateRip database
Copy OK

Track 9

Filename C:\Rips v4\The Gloomies 0 Romance {2018} [CD] (FLAC)\09 - Space.wav

Peak level 96.4 %
Extraction speed 6.7 X
Track quality 100.0 %
Test CRC D404E2E5
Copy CRC D404E2E5
Track not present in AccurateRip database
Copy OK

Track 10

Filename C:\Rips v4\The Gloomies 0 Romance {2018} [CD] (FLAC)\10 - It's Ok.wav

Peak level 78.5 %
Extraction speed 6.9 X
Track quality 100.0 %
Test CRC 2A664A37
Copy CRC 2A664A37
Track not present in AccurateRip database
Copy OK


None of the tracks are present in the AccurateRip database

No errors occurred

End of status report

–– CUETools DB Plugin V2.1.6

[CTDB TOCID: Va_ILZ4cEcQJmqE.Z1JjPW9bs2U-] disk not present in database
Submit result: Va_ILZ4cEcQJmqE.Z1JjPW9bs2U- has been uploaded


==== Log checksum 4A5C17DE0CD44280065677C968DC914D3ED90599FEA8DB03FA4E8DD1A0B752D5 ====