Subcategories
Tags
Language
Tags

The Hot Tomatoes Dance Orchestra - Ow! (1997)

Posted By: Domestos
The Hot Tomatoes Dance Orchestra - Ow! (1997)

The Hot Tomatoes Dance Orchestra - Ow! (1997)
EAC Rip | FLAC (tracks+.cue, log) ~ 372.71 Mb | 1:05:17 | Cover
Swing | Country: USA | Label: The Hot Tomatoes Dance Orchestra

The Hot Tomatoes is one of the most sought-after swing bands in the Front Range community. With a legion of fans, the band performs an active schedule of concerts, dances, and private events throughout the year, delighting listeners with a diverse array of musical styles from music of the Great Jazz Age to those fabulous big band jazz and swing bands like Duke Ellington, Count Basie, Benny Goodman, Harry James, and Glenn Miller, just to name a few. The band is at home with music for dancers and listeners including such diverse styles as R&B and Frank Sinatra.

Track List:
1. Roll Em! (4:06)
2. Ow! (3:13)
3. South Of The Border (4:02)
4. Apple Honey (4:44)
5. Contrasts (2:54)
6. Sweet Lorraine (4:20)
7. Swingin' The Blues (3:50)
8. Red Roses For A Blue Lady (3:06)
9. Jig Walk (2:27)
10. I'll Never Smile Again (4:47)
11. Sweet Georgia Brown (4:20)
12. East St. Louis Toodle-oo (4:10)
13. Almost Like Being In Love (2:37)
14. Stardust (4:57)
15. Choo Choo Ch' Boogie (3:25)
16. Mack The Knife (3:58)
17. Smoke Rings (4:11)

The Hot Tomatoes Dance Orchestra - Ow! (1997)

Exact Audio Copy V0.99 prebeta 4 from 23. January 2008

EAC extraction logfile from 19. July 2009, 16:08

The Hot Tomatoes Dance Orchestra / OW!

Used drive : TSSTcorpCD/DVDW TS-H552L Adapter: 5 ID: 0

Read mode : Secure
Utilize accurate stream : Yes
Defeat audio cache : Yes
Make use of C2 pointers : No

Read offset correction : 6
Overread into Lead-In and Lead-Out : No
Fill up missing offset samples with silence : Yes
Delete leading and trailing silent blocks : No
Null samples used in CRC calculations : Yes
Used interface : Native Win32 interface for Win NT & 2000
Gap handling : Appended to previous track

Used output format : User Defined Encoder
Selected bitrate : 128 kBit/s
Quality : High
Add ID3 tag : No
Command line compressor : C:\Program Files\Exact Audio Copy\FLAC\FLAC.EXE
Additional command line options : –best -T "ARTIST=%a" -T "TITLE=%t" -T "ALBUM=%g" -T "DATE=%y" -T "TRACKNUMBER=%n" -T "GENRE=%m" %s

TOC of the extracted CD

Track | Start | Length | Start sector | End sector
––––––––––––––––––––––––––––-
1 | 0:00.00 | 4:06.68 | 0 | 18517
2 | 4:06.68 | 3:13.61 | 18518 | 33053
3 | 7:20.54 | 4:02.65 | 33054 | 51268
4 | 11:23.44 | 4:44.35 | 51269 | 72603
5 | 16:08.04 | 2:54.46 | 72604 | 85699
6 | 19:02.50 | 4:20.25 | 85700 | 105224
7 | 23:23.00 | 3:50.27 | 105225 | 122501
8 | 27:13.27 | 3:06.54 | 122502 | 136505
9 | 30:20.06 | 2:27.69 | 136506 | 147599
10 | 32:48.00 | 4:47.55 | 147600 | 169179
11 | 37:35.55 | 4:20.53 | 169180 | 188732
12 | 41:56.33 | 4:10.02 | 188733 | 207484
13 | 46:06.35 | 2:37.30 | 207485 | 219289
14 | 48:43.65 | 4:57.47 | 219290 | 241611
15 | 53:41.37 | 3:25.43 | 241612 | 257029
16 | 57:07.05 | 3:58.17 | 257030 | 274896
17 | 61:05.22 | 4:11.70 | 274897 | 293791

Track 1

Filename C:\RIP\Jazz\The Hot Tomatoes Dance Orchestra\OW!\01-Roll Em!.wav

Pre-gap length 0:00:02.00

Peak level 97.7 %
Track quality 100.0 %
Test CRC 0D15937C
Copy CRC 0D15937C
Track not present in AccurateRip database
Copy OK

Track 2

Filename C:\RIP\Jazz\The Hot Tomatoes Dance Orchestra\OW!\02-OW!.wav

Pre-gap length 0:00:01.60

Peak level 97.7 %
Track quality 100.0 %
Test CRC CE923DA2
Copy CRC CE923DA2
Track not present in AccurateRip database
Copy OK

Track 3

Filename C:\RIP\Jazz\The Hot Tomatoes Dance Orchestra\OW!\03-South of the Border.wav

Pre-gap length 0:00:01.60

Peak level 97.7 %
Track quality 100.0 %
Test CRC 1CD54864
Copy CRC 1CD54864
Track not present in AccurateRip database
Copy OK

Track 4

Filename C:\RIP\Jazz\The Hot Tomatoes Dance Orchestra\OW!\04-Apple Honey.wav

Pre-gap length 0:00:01.60

Peak level 97.7 %
Track quality 100.0 %
Test CRC 70699BC4
Copy CRC 70699BC4
Track not present in AccurateRip database
Copy OK

Track 5

Filename C:\RIP\Jazz\The Hot Tomatoes Dance Orchestra\OW!\05-Contrasts.wav

Pre-gap length 0:00:01.60

Peak level 97.7 %
Track quality 100.0 %
Test CRC 4E72B5D1
Copy CRC 4E72B5D1
Track not present in AccurateRip database
Copy OK

Track 6

Filename C:\RIP\Jazz\The Hot Tomatoes Dance Orchestra\OW!\06-Sweet Lorraine.wav

Pre-gap length 0:00:01.60

Peak level 97.7 %
Track quality 99.9 %
Test CRC 758401A5
Copy CRC 758401A5
Track not present in AccurateRip database
Copy OK

Track 7

Filename C:\RIP\Jazz\The Hot Tomatoes Dance Orchestra\OW!\07-Swingin' the Blues.wav

Pre-gap length 0:00:02.02

Peak level 97.7 %
Track quality 100.0 %
Test CRC FDAF41C2
Copy CRC FDAF41C2
Track not present in AccurateRip database
Copy OK

Track 8

Filename C:\RIP\Jazz\The Hot Tomatoes Dance Orchestra\OW!\08-Red Roses for a Blue Lady.wav

Pre-gap length 0:00:01.60

Peak level 97.7 %
Track quality 100.0 %
Test CRC 4021AFA0
Copy CRC 4021AFA0
Track not present in AccurateRip database
Copy OK

Track 9

Filename C:\RIP\Jazz\The Hot Tomatoes Dance Orchestra\OW!\09-Jig Walk.wav

Pre-gap length 0:00:01.60

Peak level 97.7 %
Track quality 100.0 %
Test CRC DC4B2D62
Copy CRC DC4B2D62
Track not present in AccurateRip database
Copy OK

Track 10

Filename C:\RIP\Jazz\The Hot Tomatoes Dance Orchestra\OW!\10-I'll Never Smile Again.wav

Pre-gap length 0:00:02.12

Peak level 97.7 %
Track quality 100.0 %
Test CRC FEC14885
Copy CRC FEC14885
Track not present in AccurateRip database
Copy OK

Track 11

Filename C:\RIP\Jazz\The Hot Tomatoes Dance Orchestra\OW!\11-Sweet Georgia Brown.wav

Pre-gap length 0:00:02.08

Peak level 97.7 %
Track quality 100.0 %
Test CRC A61E70FD
Copy CRC A61E70FD
Track not present in AccurateRip database
Copy OK

Track 12

Filename C:\RIP\Jazz\The Hot Tomatoes Dance Orchestra\OW!\12-East St. Louis Toodle-oo.wav

Pre-gap length 0:00:01.60

Peak level 97.7 %
Track quality 99.9 %
Test CRC 18C760C0
Copy CRC 18C760C0
Track not present in AccurateRip database
Copy OK

Track 13

Filename C:\RIP\Jazz\The Hot Tomatoes Dance Orchestra\OW!\13-Almost Like Being In Love.wav

Pre-gap length 0:00:01.60

Peak level 97.7 %
Track quality 99.9 %
Test CRC CBA29402
Copy CRC CBA29402
Track not present in AccurateRip database
Copy OK

Track 14

Filename C:\RIP\Jazz\The Hot Tomatoes Dance Orchestra\OW!\14-Stardust.wav

Pre-gap length 0:00:01.60

Peak level 97.7 %
Track quality 100.0 %
Test CRC 3AAD8492
Copy CRC 3AAD8492
Track not present in AccurateRip database
Copy OK

Track 15

Filename C:\RIP\Jazz\The Hot Tomatoes Dance Orchestra\OW!\15-Choo Choo Ch' Boogie.wav

Pre-gap length 0:00:02.08

Peak level 97.7 %
Track quality 100.0 %
Test CRC 8CF8373C
Copy CRC 8CF8373C
Track not present in AccurateRip database
Copy OK

Track 16

Filename C:\RIP\Jazz\The Hot Tomatoes Dance Orchestra\OW!\16-Mack the Knife.wav

Pre-gap length 0:00:01.60

Peak level 97.7 %
Track quality 100.0 %
Test CRC 4D037C6A
Copy CRC 4D037C6A
Track not present in AccurateRip database
Copy OK

Track 17

Filename C:\RIP\Jazz\The Hot Tomatoes Dance Orchestra\OW!\17-Smoke Rings.wav

Pre-gap length 0:00:01.60

Peak level 97.7 %
Track quality 100.0 %
Test CRC 4ACB5727
Copy CRC 4ACB5727
Track not present in AccurateRip database
Copy OK

None of the tracks are present in the AccurateRip database

No errors occurred

End of status report

All thanks go to the Original ripper (unknown)

More Music in My Blog
Follow My RSS Channel