Tags
Language
Tags
January 2023
Su Mo Tu We Th Fr Sa
1 2 3 4 5 6 7
8 9 10 11 12 13 14
15 16 17 18 19 20 21
22 23 24 25 26 27 28
29 30 31 1 2 3 4

The Kooks - Listen (Deluxe Edition) (2014)

Posted By: Domestos
The Kooks - Listen (Deluxe Edition) (2014)

The Kooks - Listen (Deluxe Edition) (2014)
EAC Rip | FLAC (tracks+.cue, log) ~ 377.86 Mb | 54:56 | Cover
Indie Rock, Indie Pop | Country: UK | Label: Virgin

Listen is the fourth studio album by British rock band The Kooks. It was released on 8 September 2014 through Universal. It is the band's first album to feature new drummer Alexis Nunez who joined in 2012, replacing Paul Garred. The album was preceded by singles "Down", "Around Town", "Bad Habit" and "Forgive & Forget".

Stylistically, the album differs from the band's previous work as elements of jazz, gospel, and R&B were added into the music. This album also marks the first time Tony Hoffer did not produce the band's work. Instead production was handled by Inflo with the band's lead singer and main songwriter Luke Pritchard as co-producer.

Listen was the band's first album in three years, with Junk of the Heart being released in September 2011. The album was recorded in Los Angeles and London.

Upon its release, Listen debuted at No. 16 on the UK Albums Chart and failed to meet the commercial expectations set forth by the band's previous work.



Track List:
01. Around Town (04:11)
02. Forgive & Forget (03:57)
03. Westside (03:30)
04. See Me Now (03:01)
05. It Was London (03:13)
06. Bad Habit (03:40)
07. Down (02:44)
08. Dreams (03:00)
09. Are We Electric (04:06)
10. Sunrise (03:14)
11. Sweet Emotion (05:11)

Bonus Track
12. Murderer (03:44)
13. Icons (03:42)
14. Keep Your Head Up (03:29)
15. Backstabber (04:08)

Exact Audio Copy V1.3 from 2. September 2016

EAC extraction logfile from 6. March 2020, 3:25

The Kooks / Listen (Deluxe Edition)

Used drive : HL-DT-STDVDRAM GP65NB60 Adapter: 1 ID: 0

Read mode : Secure
Utilize accurate stream : Yes
Defeat audio cache : Yes
Make use of C2 pointers : No

Read offset correction : 6
Overread into Lead-In and Lead-Out : No
Fill up missing offset samples with silence : Yes
Delete leading and trailing silent blocks : No
Null samples used in CRC calculations : Yes
Used interface : Native Win32 interface for Win NT & 2000
Gap handling : Appended to previous track

Used output format : User Defined Encoder
Selected bitrate : 1024 kBit/s
Quality : High
Add ID3 tag : No
Command line compressor : C:\Program Files\FLAC\flac.exe
Additional command line options : -8 -V -T "ARTIST=%artist%" -T "TITLE=%title%" -T "ALBUM=%albumtitle%" -T "DATE=%year%" -T "TRACKNUMBER=%tracknr%" -T "GENRE=%genre%" -T "PERFORMER=%albuminterpret%" -T "COMPOSER=%composer%" %haslyrics%–tag-from-file=LYRICS="%lyricsfile%"%haslyrics% -T "ALBUMARTIST=%albumartist%" -T "DISCNUMBER=%cdnumber%" -T "TOTALDISCS=%totalcds%" -T "TOTALTRACKS=%numtracks%" -T "COMMENT=%comment%" %source% -o %dest%


TOC of the extracted CD

Track | Start | Length | Start sector | End sector
––––––––––––––––––––––––––––-
1 | 0:00.00 | 4:11.39 | 0 | 18863
2 | 4:11.39 | 3:57.19 | 18864 | 36657
3 | 8:08.58 | 3:30.14 | 36658 | 52421
4 | 11:38.72 | 3:01.02 | 52422 | 65998
5 | 14:39.74 | 3:13.22 | 65999 | 80495
6 | 17:53.21 | 3:40.44 | 80496 | 97039
7 | 21:33.65 | 2:44.42 | 97040 | 109381
8 | 24:18.32 | 3:00.58 | 109382 | 122939
9 | 27:19.15 | 4:06.08 | 122940 | 141397
10 | 31:25.23 | 3:14.46 | 141398 | 155993
11 | 34:39.69 | 5:11.40 | 155994 | 179358
12 | 39:51.34 | 3:44.47 | 179359 | 196205
13 | 43:36.06 | 3:42.63 | 196206 | 212918
14 | 47:18.69 | 3:29.08 | 212919 | 228601
15 | 50:48.02 | 4:08.54 | 228602 | 247255


Track 1

Filename C:\EAC Rips\The Kooks - Listen (Deluxe Edition) (2014) [FLAC] {00602537828975}\01 - Around Town.wav

Pre-gap length 0:00:02.00

Peak level 100.0 %
Extraction speed 1.2 X
Track quality 100.0 %
Test CRC 1DE32552
Copy CRC 1DE32552
Accurately ripped (confidence 20) [2716F4E9] (AR v2)
Copy OK

Track 2

Filename C:\EAC Rips\The Kooks - Listen (Deluxe Edition) (2014) [FLAC] {00602537828975}\02 - Forgive & Forget.wav

Pre-gap length 0:00:02.09

Peak level 99.7 %
Extraction speed 1.3 X
Track quality 100.0 %
Test CRC C724B0A6
Copy CRC C724B0A6
Accurately ripped (confidence 20) [BE36E53D] (AR v2)
Copy OK

Track 3

Filename C:\EAC Rips\The Kooks - Listen (Deluxe Edition) (2014) [FLAC] {00602537828975}\03 - Westside.wav

Pre-gap length 0:00:01.65

Peak level 100.0 %
Extraction speed 1.3 X
Track quality 100.0 %
Test CRC E1D47818
Copy CRC E1D47818
Accurately ripped (confidence 20) [6F18C07A] (AR v2)
Copy OK

Track 4

Filename C:\EAC Rips\The Kooks - Listen (Deluxe Edition) (2014) [FLAC] {00602537828975}\04 - See Me Now.wav

Pre-gap length 0:00:01.82

Peak level 99.4 %
Extraction speed 1.4 X
Track quality 100.0 %
Test CRC 761CEB7F
Copy CRC 761CEB7F
Accurately ripped (confidence 20) [230FA3AF] (AR v2)
Copy OK

Track 5

Filename C:\EAC Rips\The Kooks - Listen (Deluxe Edition) (2014) [FLAC] {00602537828975}\05 - It Was London.wav

Pre-gap length 0:00:00.81

Peak level 99.8 %
Extraction speed 1.5 X
Track quality 100.0 %
Test CRC 5B4F4EA0
Copy CRC 5B4F4EA0
Accurately ripped (confidence 20) [CCD4871E] (AR v2)
Copy OK

Track 6

Filename C:\EAC Rips\The Kooks - Listen (Deluxe Edition) (2014) [FLAC] {00602537828975}\06 - Bad Habit.wav

Pre-gap length 0:00:01.10

Peak level 100.0 %
Extraction speed 1.6 X
Track quality 100.0 %
Test CRC D189D9B0
Copy CRC D189D9B0
Accurately ripped (confidence 20) [530C1721] (AR v2)
Copy OK

Track 7

Filename C:\EAC Rips\The Kooks - Listen (Deluxe Edition) (2014) [FLAC] {00602537828975}\07 - Down.wav

Pre-gap length 0:00:01.26

Peak level 100.0 %
Extraction speed 1.6 X
Track quality 100.0 %
Test CRC 5DFE7D85
Copy CRC 5DFE7D85
Accurately ripped (confidence 20) [95C93B0C] (AR v2)
Copy OK

Track 8

Filename C:\EAC Rips\The Kooks - Listen (Deluxe Edition) (2014) [FLAC] {00602537828975}\08 - Dreams.wav

Pre-gap length 0:00:01.58

Peak level 98.9 %
Extraction speed 1.7 X
Track quality 100.0 %
Test CRC 82C3BA99
Copy CRC 82C3BA99
Accurately ripped (confidence 20) [9EAAD1CD] (AR v2)
Copy OK

Track 9

Filename C:\EAC Rips\The Kooks - Listen (Deluxe Edition) (2014) [FLAC] {00602537828975}\09 - Are We Electric.wav

Pre-gap length 0:00:01.30

Peak level 99.4 %
Extraction speed 1.9 X
Track quality 100.0 %
Test CRC DD5F24DB
Copy CRC DD5F24DB
Accurately ripped (confidence 20) [5B3B23AB] (AR v2)
Copy OK

Track 10

Filename C:\EAC Rips\The Kooks - Listen (Deluxe Edition) (2014) [FLAC] {00602537828975}\10 - Sunrise.wav

Peak level 100.0 %
Extraction speed 1.9 X
Track quality 100.0 %
Test CRC 604CAD9B
Copy CRC 604CAD9B
Accurately ripped (confidence 20) [01DC56B2] (AR v2)
Copy OK

Track 11

Filename C:\EAC Rips\The Kooks - Listen (Deluxe Edition) (2014) [FLAC] {00602537828975}\11 - Sweet Emotion.wav

Pre-gap length 0:00:01.09

Peak level 99.9 %
Extraction speed 2.1 X
Track quality 100.0 %
Test CRC 1409526C
Copy CRC 1409526C
Accurately ripped (confidence 19) [AE536066] (AR v2)
Copy OK

Track 12

Filename C:\EAC Rips\The Kooks - Listen (Deluxe Edition) (2014) [FLAC] {00602537828975}\12 - Murderer.wav

Pre-gap length 0:00:02.70

Peak level 100.0 %
Extraction speed 2.1 X
Track quality 100.0 %
Test CRC FEA0A5EE
Copy CRC FEA0A5EE
Accurately ripped (confidence 20) [BD25DE13] (AR v2)
Copy OK

Track 13

Filename C:\EAC Rips\The Kooks - Listen (Deluxe Edition) (2014) [FLAC] {00602537828975}\13 - Icons.wav

Pre-gap length 0:00:03.37

Peak level 100.0 %
Extraction speed 2.1 X
Track quality 100.0 %
Test CRC 3C6338D0
Copy CRC 3C6338D0
Accurately ripped (confidence 20) [AD312A90] (AR v2)
Copy OK

Track 14

Filename C:\EAC Rips\The Kooks - Listen (Deluxe Edition) (2014) [FLAC] {00602537828975}\14 - Keep Your Head Up.wav

Pre-gap length 0:00:02.81

Peak level 99.5 %
Extraction speed 2.2 X
Track quality 100.0 %
Test CRC 40563B84
Copy CRC 40563B84
Accurately ripped (confidence 20) [E70B4F22] (AR v2)
Copy OK

Track 15

Filename C:\EAC Rips\The Kooks - Listen (Deluxe Edition) (2014) [FLAC] {00602537828975}\15 - Backstabber.wav

Pre-gap length 0:00:02.54

Peak level 99.7 %
Extraction speed 2.3 X
Track quality 100.0 %
Test CRC 92DE2471
Copy CRC 92DE2471
Accurately ripped (confidence 20) [1DC8C3B5] (AR v2)
Copy OK


All tracks accurately ripped

No errors occurred

End of status report

–– CUETools DB Plugin V2.1.6

[CTDB TOCID: RX4dgUrfc6sveWRw3vF78Ni0jds-] found
Submit result: already submitted
Track | CTDB Status
1 | (53/54) Accurately ripped
2 | (53/54) Accurately ripped
3 | (53/54) Accurately ripped
4 | (53/54) Accurately ripped
5 | (53/54) Accurately ripped
6 | (53/54) Accurately ripped
7 | (53/54) Accurately ripped
8 | (53/54) Accurately ripped
9 | (53/54) Accurately ripped
10 | (52/54) Accurately ripped
11 | (52/54) Accurately ripped
12 | (52/54) Accurately ripped
13 | (52/54) Accurately ripped
14 | (52/54) Accurately ripped
15 | (51/54) Accurately ripped


==== Log checksum D51E1D5D426B14109AD4F7725C375969338B51E8168A72EB76B9AB4448BF1D65 ====

All thanks go to the Original ripper (unknown)

More Music in My Blog
Follow My RSS Channel