Subcategories
Tags
Language
Tags

The Original Blues Brothers Band - The Last Shade of Blue Before Black (2017)

Posted By: Domestos
The Original Blues Brothers Band - The Last Shade of Blue Before Black (2017)

The Original Blues Brothers Band - The Last Shade of Blue Before Black (2017)
EAC Rip | FLAC (image+.cue, log) ~ 408.00 Mb + 91.65 Mb (Scans) | 61:33
Modern Electric Blues | Country: USA | Label: Time Blues

Severn Records announces an October 6 release date for The Last Shade of Blue Before Black, the new album from the legendary Original Blues Brothers Band, featuring guitarist Steve Cropper and sax player “Blue Lou” Marini, with special guests Eddie Floyd, Joe Louis Walker, Paul Shaffer, Dr. John, Matt “Guitar” Murphy and Joe Morton. “Had anyone told me in 1978 that in 2017 I would still be traveling around the world and playing with the Blues Brothers’ Band, I would have said they were out of their minds,” says “Blue Lou” Marini. “But, amazingly here we are with a new CD and still playing all over the world. This album is a true labor of love and I’m so proud of the organic way it came about. We really wanted to honor our history and to include some of our favorite musicians that we’ve worked with and loved over the years. We have the legends, Eddie Floyd and Dr. John, plus our original band leader, Paul Shaffer and the great bluesman Joe Louis Walker.

“We also have Tom ‘Bones’ Malone playing and arranging, and cameos from Matt ‘Guitar’ Murphy and Joe Morton, a star from our second movie. We are also thrilled to have former members David Spinozza on guitar, Birch Johnson on trombone, and my steady sub, Baron Raymonde on alto sax.”

The Last Shade of Blue Before Black was produced by Lou Marini, Steve Cropper and The Original Blues Brothers Band and recorded at IWII Studios in Hoboken, NJ, by Jay Messina.

“We wanted to present some new original material and do some tunes that hearkened to our past,” declares Marini. “This is a live CD, with everyone recording at once, mostly first or second takes and live vocals and solos. The only overdubs were some baritone sax parts and a few minor fixes. We were blessed with a fantastic studio that suited us so well, IIWII in Hoboken, New Jersey, and the world’s greatest engineer and friend to all, Jay Messina.

Essentially begun as a one-time musical skit that debuted on NBC-TV’s Saturday Night Live” in 1978 and fronted by John Belushi and Dan Aykroyd as Jake and Elwood Blues, the band became an overnight sensation, spawning numerous TV appearances, hit albums, two blockbuster movies and global touring.

“I think the power and joy of this great band that has been playing together for so many years is evident,” states Marini. “We love each other and love making music together. Everyone played their asses off on this CD and none more so than our wonderful bassist, Eric Udel. Eric died tragically in September from a fall here in NYC. He was a great musician and a sunny, funny man whom we all loved. We dedicate this album to him as well as our other fallen and still greatly missed brothers, Donald ‘Duck’ Dunn” and Alan ‘Mr. Fabulous’ Rubin.

“I’ve often said that the OBBB is the world’s greatest part-time job because of you, our fans. We’ve gotten to see the world and enjoy it in your company. We’ve eaten and drank with you, especially the latter, and you have treated us like kings. Enjoy this music and for God’s sake, PLAY IT LOUD!”

Steve "The Colonel" Cropper - guitar
"Blue Lou" Marini - saxophones
"Smokin'" John Tropea - guitar
Eric "The Red" Udel - bass
Lee "Funkytime" Finkelstein - drums
Leon "The Lion" Pendarvis - Hammond B3
Rusty Cloud - keyboards
Steve "Catfish" Howard - trumpet
Larry "Trombonius" Farrell - trombone
Tommy "Blues Pipes" McDonnell - vocals, harmonica
Rob "The Honeydripper" Paparozzi - vocals, harmonica
Bobby "Sweet Soul" Harden - vocals

Track List:
01. Baby What You Want Me To Do [0:05:15.37]
02. Cherry Street [0:03:53.24]
03. On a Saturday Night [0:03:07.32]
04. Itch and Scratch [0:03:32.36]
05. Don't Go No Further [0:05:04.08]
06. You Left The Water Running [0:04:36.70]
07. Don't Forget About James Brown [0:02:55.25]
08. Sex Machine [0:03:36.69]
09. Your Feet's Too Big [0:04:09.53]
10. 21st Century Baby [0:03:54.05]
11. Blues In My Feet [0:03:40.30]
12. Qualified [0:06:15.35]
13. I Got My Mojo Working [0:04:19.13]
14. The Last Shade of Blue Before Black [0:07:10.40]

The Original Blues Brothers Band - The Last Shade of Blue Before Black (2017)

Exact Audio Copy V1.3 from 2. September 2016

Отчёт EAC об извлечении, выполненном 7. ноября 2017, 23:50

The Original Blues Brothers Band / The Last Shade of Blue Before Black

Дисковод: PLEXTOR DVDR PX-891SA Adapter: 1 ID: 2

Режим чтения : Достоверность
Использование точного потока : Да
Отключение кэша аудио : Да
Использование указателей C2 : Нет

Коррекция смещения при чтении : 6
Способность читать области Lead-in и Lead-out : Нет
Заполнение пропущенных сэмплов тишиной : Да
Удаление блоков с тишиной в начале и конце : Нет
При вычислениях CRC использовались нулевые сэмплы : Да
Интерфейс : Встроенный Win32-интерфейс для Win NT/2000

Выходной формат : Пользовательский кодировщик
Выбранный битрейт : 768 kBit/s
Качество : Высокий
Добавление ID3-тега : Нет
Утилита сжатия : C:\Program Files (x86)\Exact Audio Copy\FLAC\FLAC.EXE
Дополнительные параметры : -6 -V -T "ARTIST=%artist%" -T "TITLE=%title%" -T "ALBUM=%albumtitle%" -T "DATE=%year%" -T "TRACKNUMBER=%tracknr%" -T "GENRE=%genre%" -T "COMMENT=%comment%" -T "BAND=%albuminterpret%" -T "ALBUMARTIST=%albuminterpret%" -T "COMPOSER=%composer%" %haslyrics%–tag-from-file=LYRICS="%lyricsfile%"%haslyrics% -T "DISCNUMBER=%cdnumber%" -T "TOTALDISCS=%totalcds%" -T "TOTALTRACKS=%numtracks%" %hascover%–picture="%coverfile%"%hascover% %source% -o %dest%

TOC извлечённого CD

Трек | Старт | Длительность | Начальный сектор | Конечный сектор
––––––––––––––––––––––––––––––––––-
1 | 0:00.00 | 5:15.37 | 0 | 23661
2 | 5:15.37 | 3:53.24 | 23662 | 41160
3 | 9:08.61 | 3:07.32 | 41161 | 55217
4 | 12:16.18 | 3:32.36 | 55218 | 71153
5 | 15:48.54 | 5:04.08 | 71154 | 93961
6 | 20:52.62 | 4:36.70 | 93962 | 114731
7 | 25:29.57 | 2:55.25 | 114732 | 127881
8 | 28:25.07 | 3:36.69 | 127882 | 144150
9 | 32:02.01 | 4:09.53 | 144151 | 162878
10 | 36:11.54 | 3:54.05 | 162879 | 180433
11 | 40:05.59 | 3:40.30 | 180434 | 196963
12 | 43:46.14 | 6:15.35 | 196964 | 225123
13 | 50:01.49 | 4:19.13 | 225124 | 244561
14 | 54:20.62 | 7:10.40 | 244562 | 276851

Характеристики диапазона извлечения и сообщения об ошибках

Выбранный диапазон

Имя файла K:\My Uploads-11\The Original Blues Brothers Band - The Last Shade of Blue Before Black 2017 61'33''\The Original Blues Brothers Band - The Last Shade of Blue Before Black.wav

Пиковый уровень 100.0 %
Скорость извлечения 3.5 X
Качество диапазона 100.0 %
CRC теста B2A96028
CRC копии B2A96028
Копирование… OK

Ошибок не произошло

Конец отчёта

–– CUETools DB Plugin V2.1.6

[CTDB TOCID: CtH8FWTlZR3ad4FnhRpP09vH1Uc-] found
Submit result: CtH8FWTlZR3ad4FnhRpP09vH1Uc- has been confirmed
Track | CTDB Status
1 | (1/1) Accurately ripped
2 | (1/1) Accurately ripped
3 | (1/1) Accurately ripped
4 | (1/1) Accurately ripped
5 | (1/1) Accurately ripped
6 | (1/1) Accurately ripped
7 | (1/1) Accurately ripped
8 | (1/1) Accurately ripped
9 | (1/1) Accurately ripped
10 | (1/1) Accurately ripped
11 | (1/1) Accurately ripped
12 | (1/1) Accurately ripped
13 | (1/1) Accurately ripped
14 | (1/1) Accurately ripped

==== Контрольная сумма отчёта F3D75595A859AB3D8C41A9C30301E350032E1EE151AAB28C0A497D6262CBB725 ====

All thanks go to the BluesHouse

More Music in My Blog
Follow My RSS Channel