Tags
Language
Tags

The Airborne Toxic Event - Hollywood Park (2020)

Posted By: delpotro
The Airborne Toxic Event - Hollywood Park (2020)

The Airborne Toxic Event - Hollywood Park (2020)
EAC Rip | FLAC (tracks+log+.cue) - 393 Mb | MP3 CBR 320 kbps - 163 Mb | Covers included | 00:53:25
Alternative Rock | Label: Rounder Records

In conjunction with Jollett’s memoir, The Airborne Toxic Event has completed an album by the same name, a twelve song concept record which draws from scenes and themes in the book. Incorporating real audio from his family, gospel singers, and orchestral flourishes from violins to timpani to horns, the record is Jollett’s attempt to capture the high hopes of his parents, the dash dreams and difficult times which followed, the confusion of an adult life spent nursing the wounds of childhood, and the ultimate redemption which came from looking inward and finding an acceptance of self and love of family. The record was produced by Mark Needham (The Killers, Fleetwood Mac) at east/west Studios in Hollywood.
Tracklist:
1. Hollywood Park (06:32)
2. Brother, How Was the War? (04:51)
3. Carry Me (04:13)
4. Come on Out (04:38)
5. I Don't Want to Be Here Anymore (04:34)
6. All the Children (04:59)
7. Everything I Love Is Broken (03:50)
8. All These Engagements (04:40)
9. The Place We Meet a Thousand Feet Beneath the Racetrack (03:00)
10. The Common Touch (05:07)
11. The Place We Meet a Thousand Feet Beneath the Racetrack (Reprise) (02:21)
12. True. (04:36)

Exact Audio Copy V1.3 from 2. September 2016

EAC extraction logfile from 25. June 2020, 20:52

The Airborne Toxic Event / Hollywood Park

Used drive : PLEXTOR PX-891SAF Adapter: 1 ID: 0

Read mode : Secure
Utilize accurate stream : Yes
Defeat audio cache : Yes
Make use of C2 pointers : No

Read offset correction : 6
Overread into Lead-In and Lead-Out : No
Fill up missing offset samples with silence : Yes
Delete leading and trailing silent blocks : No
Null samples used in CRC calculations : Yes
Used interface : Native Win32 interface for Win NT & 2000
Gap handling : Appended to previous track

Used output format : User Defined Encoder
Selected bitrate : 1024 kBit/s
Quality : High
Add ID3 tag : No
Command line compressor : C:\Program Files (x86)\Exact Audio Copy\Flac\flac.exe
Additional command line options : -8 -V -T "ARTIST=%artist%" -T "TITLE=%title%" -T "ALBUM=%albumtitle%" -T "DATE=%year%" -T "TRACKNUMBER=%tracknr%" -T "GENRE=%genre%" -T "PERFORMER=%albuminterpret%" -T "COMPOSER=%composer%" %haslyrics%–tag-from-file=LYRICS="%lyricsfile%"%haslyrics% -T "ALBUMARTIST=%albumartist%" -T "DISCNUMBER=%cdnumber%" -T "TOTALDISCS=%totalcds%" -T "TOTALTRACKS=%numtracks%" -T "COMMENT=%comment%" %source% -o %dest%


TOC of the extracted CD

Track | Start | Length | Start sector | End sector
––––––––––––––––––––––––––––-
1 | 0:00.00 | 6:32.56 | 0 | 29455
2 | 6:32.56 | 4:51.09 | 29456 | 51289
3 | 11:23.65 | 4:13.48 | 51290 | 70312
4 | 15:37.38 | 4:38.01 | 70313 | 91163
5 | 20:15.39 | 4:34.44 | 91164 | 111757
6 | 24:50.08 | 4:59.42 | 111758 | 134224
7 | 29:49.50 | 3:50.10 | 134225 | 151484
8 | 33:39.60 | 4:40.16 | 151485 | 172500
9 | 38:20.01 | 3:00.07 | 172501 | 186007
10 | 41:20.08 | 5:07.50 | 186008 | 209082
11 | 46:27.58 | 2:21.34 | 209083 | 219691
12 | 48:49.17 | 4:36.09 | 219692 | 240400


Track 1

Filename D:\#cdr\#wav+flac\#add\The Airborne Toxic Event - Hollywood Park\01. The Airborne Toxic Event - Hollywood Park.wav

Pre-gap length 0:00:02.00

Peak level 100.0 %
Extraction speed 4.9 X
Track quality 99.9 %
Test CRC 6C73A2EF
Copy CRC 6C73A2EF
Track not present in AccurateRip database
Copy OK

Track 2

Filename D:\#cdr\#wav+flac\#add\The Airborne Toxic Event - Hollywood Park\02. The Airborne Toxic Event - Brother, How Was The War.wav

Peak level 100.0 %
Extraction speed 6.2 X
Track quality 100.0 %
Test CRC 01F714A3
Copy CRC 01F714A3
Track not present in AccurateRip database
Copy OK

Track 3

Filename D:\#cdr\#wav+flac\#add\The Airborne Toxic Event - Hollywood Park\03. The Airborne Toxic Event - Carry Me.wav

Peak level 100.0 %
Extraction speed 5.4 X
Track quality 99.9 %
Test CRC 606E1B49
Copy CRC 606E1B49
Track not present in AccurateRip database
Copy OK

Track 4

Filename D:\#cdr\#wav+flac\#add\The Airborne Toxic Event - Hollywood Park\04. The Airborne Toxic Event - Come On Out.wav

Peak level 100.0 %
Extraction speed 7.0 X
Track quality 100.0 %
Test CRC 07948232
Copy CRC 07948232
Track not present in AccurateRip database
Copy OK

Track 5

Filename D:\#cdr\#wav+flac\#add\The Airborne Toxic Event - Hollywood Park\05. The Airborne Toxic Event - I Don't Want To Be Here Anymore.wav

Peak level 100.0 %
Extraction speed 7.3 X
Track quality 100.0 %
Test CRC C51FBC03
Copy CRC C51FBC03
Track not present in AccurateRip database
Copy OK

Track 6

Filename D:\#cdr\#wav+flac\#add\The Airborne Toxic Event - Hollywood Park\06. The Airborne Toxic Event - All The Children.wav

Peak level 100.0 %
Extraction speed 8.0 X
Track quality 100.0 %
Test CRC 71E93890
Copy CRC 71E93890
Track not present in AccurateRip database
Copy OK

Track 7

Filename D:\#cdr\#wav+flac\#add\The Airborne Toxic Event - Hollywood Park\07. The Airborne Toxic Event - Everything I Love Is Broken.wav

Peak level 100.0 %
Extraction speed 8.0 X
Track quality 100.0 %
Test CRC 8E7C918E
Copy CRC 8E7C918E
Track not present in AccurateRip database
Copy OK

Track 8

Filename D:\#cdr\#wav+flac\#add\The Airborne Toxic Event - Hollywood Park\08. The Airborne Toxic Event - All These Engagements.wav

Peak level 100.0 %
Extraction speed 7.1 X
Track quality 99.9 %
Test CRC B5E68185
Copy CRC B5E68185
Track not present in AccurateRip database
Copy OK

Track 9

Filename D:\#cdr\#wav+flac\#add\The Airborne Toxic Event - Hollywood Park\09. The Airborne Toxic Event - The Place We Meet A Thousand Feet Beneath The Racetrack.wav

Peak level 100.0 %
Extraction speed 8.3 X
Track quality 100.0 %
Test CRC 5C8C5430
Copy CRC 5C8C5430
Track not present in AccurateRip database
Copy OK

Track 10

Filename D:\#cdr\#wav+flac\#add\The Airborne Toxic Event - Hollywood Park\10. The Airborne Toxic Event - The Common Touch.wav

Peak level 100.0 %
Extraction speed 9.3 X
Track quality 100.0 %
Test CRC E41BB11C
Copy CRC E41BB11C
Track not present in AccurateRip database
Copy OK

Track 11

Filename D:\#cdr\#wav+flac\#add\The Airborne Toxic Event - Hollywood Park\11. The Airborne Toxic Event - The Place We Meet A Thousand Feet Beneath The Racetrack [Reprise].wav

Peak level 91.7 %
Extraction speed 8.4 X
Track quality 100.0 %
Test CRC ECED2067
Copy CRC ECED2067
Track not present in AccurateRip database
Copy OK

Track 12

Filename D:\#cdr\#wav+flac\#add\The Airborne Toxic Event - Hollywood Park\12. The Airborne Toxic Event - True..wav

Peak level 100.0 %
Extraction speed 9.6 X
Track quality 100.0 %
Test CRC 3DB456AD
Copy CRC 3DB456AD
Track not present in AccurateRip database
Copy OK


None of the tracks are present in the AccurateRip database

No errors occurred

End of status report

–– CUETools DB Plugin V2.1.6

[CTDB TOCID: Nd68m8qcBP5tzWzXs2Jmo2i.KyE-] found
Submit result: Nd68m8qcBP5tzWzXs2Jmo2i.KyE- has been confirmed
Track | CTDB Status
1 | (4/4) Accurately ripped
2 | (4/4) Accurately ripped
3 | (4/4) Accurately ripped
4 | (4/4) Accurately ripped
5 | (4/4) Accurately ripped
6 | (4/4) Accurately ripped
7 | (4/4) Accurately ripped
8 | (4/4) Accurately ripped
9 | (4/4) Accurately ripped
10 | (4/4) Accurately ripped
11 | (4/4) Accurately ripped
12 | (4/4) Accurately ripped


==== Log checksum 785CE5F409B2162E152319DC0480D9AF300F74FD765F307C0429325913BDA074 ====

––––––––––––––––––––––––––––––

Exact Audio Copy V1.3 from 2. September 2016

EAC extraction logfile from 25. June 2020, 20:52

The Airborne Toxic Event / Hollywood Park

Used drive : PLEXTOR PX-891SAF Adapter: 1 ID: 0

Read mode : Secure
Utilize accurate stream : Yes
Defeat audio cache : Yes
Make use of C2 pointers : No

Read offset correction : 6
Overread into Lead-In and Lead-Out : No
Fill up missing offset samples with silence : Yes
Delete leading and trailing silent blocks : No
Null samples used in CRC calculations : Yes
Used interface : Native Win32 interface for Win NT & 2000
Gap handling : Appended to previous track

Used output format : User Defined Encoder
Selected bitrate : 1024 kBit/s
Quality : High
Add ID3 tag : No
Command line compressor : C:\Program Files (x86)\Exact Audio Copy\Flac\flac.exe
Additional command line options : -8 -V -T "ARTIST=%artist%" -T "TITLE=%title%" -T "ALBUM=%albumtitle%" -T "DATE=%year%" -T "TRACKNUMBER=%tracknr%" -T "GENRE=%genre%" -T "PERFORMER=%albuminterpret%" -T "COMPOSER=%composer%" %haslyrics%–tag-from-file=LYRICS="%lyricsfile%"%haslyrics% -T "ALBUMARTIST=%albumartist%" -T "DISCNUMBER=%cdnumber%" -T "TOTALDISCS=%totalcds%" -T "TOTALTRACKS=%numtracks%" -T "COMMENT=%comment%" %source% -o %dest%


TOC of the extracted CD

Track | Start | Length | Start sector | End sector
––––––––––––––––––––––––––––-
1 | 0:00.00 | 6:32.56 | 0 | 29455
2 | 6:32.56 | 4:51.09 | 29456 | 51289
3 | 11:23.65 | 4:13.48 | 51290 | 70312
4 | 15:37.38 | 4:38.01 | 70313 | 91163
5 | 20:15.39 | 4:34.44 | 91164 | 111757
6 | 24:50.08 | 4:59.42 | 111758 | 134224
7 | 29:49.50 | 3:50.10 | 134225 | 151484
8 | 33:39.60 | 4:40.16 | 151485 | 172500
9 | 38:20.01 | 3:00.07 | 172501 | 186007
10 | 41:20.08 | 5:07.50 | 186008 | 209082
11 | 46:27.58 | 2:21.34 | 209083 | 219691
12 | 48:49.17 | 4:36.09 | 219692 | 240400


Track 1

Filename D:\#cdr\#wav+flac\#add\The Airborne Toxic Event - Hollywood Park\01. The Airborne Toxic Event - Hollywood Park.wav

Pre-gap length 0:00:02.00

Peak level 100.0 %
Extraction speed 4.9 X
Track quality 99.9 %
Test CRC 6C73A2EF
Copy CRC 6C73A2EF
Track not present in AccurateRip database
Copy OK

Track 2

Filename D:\#cdr\#wav+flac\#add\The Airborne Toxic Event - Hollywood Park\02. The Airborne Toxic Event - Brother, How Was The War.wav

Peak level 100.0 %
Extraction speed 6.2 X
Track quality 100.0 %
Test CRC 01F714A3
Copy CRC 01F714A3
Track not present in AccurateRip database
Copy OK

Track 3

Filename D:\#cdr\#wav+flac\#add\The Airborne Toxic Event - Hollywood Park\03. The Airborne Toxic Event - Carry Me.wav

Peak level 100.0 %
Extraction speed 5.4 X
Track quality 99.9 %
Test CRC 606E1B49
Copy CRC 606E1B49
Track not present in AccurateRip database
Copy OK

Track 4

Filename D:\#cdr\#wav+flac\#add\The Airborne Toxic Event - Hollywood Park\04. The Airborne Toxic Event - Come On Out.wav

Peak level 100.0 %
Extraction speed 7.0 X
Track quality 100.0 %
Test CRC 07948232
Copy CRC 07948232
Track not present in AccurateRip database
Copy OK

Track 5

Filename D:\#cdr\#wav+flac\#add\The Airborne Toxic Event - Hollywood Park\05. The Airborne Toxic Event - I Don't Want To Be Here Anymore.wav

Peak level 100.0 %
Extraction speed 7.3 X
Track quality 100.0 %
Test CRC C51FBC03
Copy CRC C51FBC03
Track not present in AccurateRip database
Copy OK

Track 6

Filename D:\#cdr\#wav+flac\#add\The Airborne Toxic Event - Hollywood Park\06. The Airborne Toxic Event - All The Children.wav

Peak level 100.0 %
Extraction speed 8.0 X
Track quality 100.0 %
Test CRC 71E93890
Copy CRC 71E93890
Track not present in AccurateRip database
Copy OK

Track 7

Filename D:\#cdr\#wav+flac\#add\The Airborne Toxic Event - Hollywood Park\07. The Airborne Toxic Event - Everything I Love Is Broken.wav

Peak level 100.0 %
Extraction speed 8.0 X
Track quality 100.0 %
Test CRC 8E7C918E
Copy CRC 8E7C918E
Track not present in AccurateRip database
Copy OK

Track 8

Filename D:\#cdr\#wav+flac\#add\The Airborne Toxic Event - Hollywood Park\08. The Airborne Toxic Event - All These Engagements.wav

Peak level 100.0 %
Extraction speed 7.1 X
Track quality 99.9 %
Test CRC B5E68185
Copy CRC B5E68185
Track not present in AccurateRip database
Copy OK

Track 9

Filename D:\#cdr\#wav+flac\#add\The Airborne Toxic Event - Hollywood Park\09. The Airborne Toxic Event - The Place We Meet A Thousand Feet Beneath The Racetrack.wav

Peak level 100.0 %
Extraction speed 8.3 X
Track quality 100.0 %
Test CRC 5C8C5430
Copy CRC 5C8C5430
Track not present in AccurateRip database
Copy OK

Track 10

Filename D:\#cdr\#wav+flac\#add\The Airborne Toxic Event - Hollywood Park\10. The Airborne Toxic Event - The Common Touch.wav

Peak level 100.0 %
Extraction speed 9.3 X
Track quality 100.0 %
Test CRC E41BB11C
Copy CRC E41BB11C
Track not present in AccurateRip database
Copy OK

Track 11

Filename D:\#cdr\#wav+flac\#add\The Airborne Toxic Event - Hollywood Park\11. The Airborne Toxic Event - The Place We Meet A Thousand Feet Beneath The Racetrack [Reprise].wav

Peak level 91.7 %
Extraction speed 8.4 X
Track quality 100.0 %
Test CRC ECED2067
Copy CRC ECED2067
Track not present in AccurateRip database
Copy OK

Track 12

Filename D:\#cdr\#wav+flac\#add\The Airborne Toxic Event - Hollywood Park\12. The Airborne Toxic Event - True..wav

Peak level 100.0 %
Extraction speed 9.6 X
Track quality 100.0 %
Test CRC 3DB456AD
Copy CRC 3DB456AD
Track not present in AccurateRip database
Copy OK


None of the tracks are present in the AccurateRip database

No errors occurred

End of status report

–– CUETools DB Plugin V2.1.6

[CTDB TOCID: Nd68m8qcBP5tzWzXs2Jmo2i.KyE-] found
Submit result: Nd68m8qcBP5tzWzXs2Jmo2i.KyE- has been confirmed
Track | CTDB Status
1 | (4/4) Accurately ripped
2 | (4/4) Accurately ripped
3 | (4/4) Accurately ripped
4 | (4/4) Accurately ripped
5 | (4/4) Accurately ripped
6 | (4/4) Accurately ripped
7 | (4/4) Accurately ripped
8 | (4/4) Accurately ripped
9 | (4/4) Accurately ripped
10 | (4/4) Accurately ripped
11 | (4/4) Accurately ripped
12 | (4/4) Accurately ripped


==== Log checksum 785CE5F409B2162E152319DC0480D9AF300F74FD765F307C0429325913BDA074 ====

Thanks to the Original ripper !