Tags
Language
Tags

The Bird and the Bee - Interpreting the Masters, Volume 2 (A Tribute to Van Halen) (2019)

Posted By: delpotro
The Bird and the Bee - Interpreting the Masters, Volume 2 (A Tribute to Van Halen) (2019)

The Bird and the Bee - Interpreting the Masters, Volume 2 (A Tribute to Van Halen) (2019)
EAC Rip | FLAC (tracks+log+.cue) - 261 Mb | MP3 CBR 320 kbps - 93 Mb | 00:40:33
Pop, Pop Rock, Jazz, Female Vocal | Label: No Expectations, Release Me Records

The fifth full-length from singer Inara George and multi-instrumentalist Greg Kurstin, Interpreting the Masters, Volume 2: A Tribute to Van Halen both sheds new light on the glory of classic VH and further proves the playful brilliance of the bird and the bee. The album follows Interpreting the Masters, Volume 1: A Tribute to Daryl Hall and John Oates, a 2010 release hailed as “wink-free pop bliss” by Entertainment Weekly. This time around, George and Kurstin find common ground with their source material in a shared affinity for fantastically intricate rhythms, unforgettable melodies, and—most essentially—a certain ecstatic spirit imbued into every song.

Produced by Kurstin—a seven-time Grammy Award-winner who’s recently worked with Kendrick Lamar, Paul McCartney, and Adele—Interpreting the Masters, Volume 2 alchemizes the outrageous dazzle of Diamond Dave into something delicate and dreamy and shimmering.

With the release of Interpreting the Masters, Volume 2, the bird and the bee hope to spread that near-lifelong Van Halen love to a whole new crop of listeners. “When I want to listen to hard-rock music there’s still nothing that hits me like they do,” Kurstin notes. “Every time I hear them it takes back to when I first found them on the radio, and it felt so dangerous to me—like they were from a whole other world. It would be so great if people who would never usually listen to Van Halen heard this record, and then ended falling in love with them too.”
Tracklist:
1. Runnin’ with the Devil (03:25)
2. Panama (03:36)
3. Hot for Teacher (04:43)
4. Eruption (01:36)
5. Jump (04:25)
6. Ain't Talking 'bout Love (04:11)
7. Jamie's Cryin' (03:53)
8. Unchained (03:27)
9. You Really Got Me (03:32)
10. Diamond Dave (04:05)
11. Everybody Wants Some (03:27)

Exact Audio Copy V1.3 from 2. September 2016

EAC extraction logfile from 17. February 2020, 12:45

The Bird and The Bee / Interpreting The Masters Volume 2: A Tribute To Van Halen

Used drive : HL-DT-STDVDRAM GP65NB60 Adapter: 1 ID: 0

Read mode : Secure
Utilize accurate stream : Yes
Defeat audio cache : Yes
Make use of C2 pointers : No

Read offset correction : 6
Overread into Lead-In and Lead-Out : No
Fill up missing offset samples with silence : Yes
Delete leading and trailing silent blocks : No
Null samples used in CRC calculations : Yes
Used interface : Native Win32 interface for Win NT & 2000
Gap handling : Appended to previous track

Used output format : User Defined Encoder
Selected bitrate : 1024 kBit/s
Quality : High
Add ID3 tag : No
Command line compressor : C:\Program Files (x86)\Exact Audio Copy\Flac\flac.exe
Additional command line options : -8 -e -p -V -T "ARTIST=%artist%" -T "TITLE=%title%" -T "ALBUM=%albumtitle%" -T "DATE=%year%" -T "TRACKNUMBER=%tracknr%" -T "GENRE=%genre%" -T "PERFORMER=%albuminterpret%" -T "COMPOSER=%composer%" %haslyrics%–tag-from-file=LYRICS="%lyricsfile%"%haslyrics% -T "ALBUMARTIST=%albumartist%" -T "DISCNUMBER=%cdnumber%" -T "TOTALDISCS=%totalcds%" -T "TOTALTRACKS=%numtracks%" -T "COMMENT=%comment%" %source% -o %dest%


TOC of the extracted CD

Track | Start | Length | Start sector | End sector
––––––––––––––––––––––––––––-
1 | 0:00.00 | 3:25.51 | 0 | 15425
2 | 3:25.51 | 3:36.72 | 15426 | 31697
3 | 7:02.48 | 4:43.54 | 31698 | 52976
4 | 11:46.27 | 1:36.19 | 52977 | 60195
5 | 13:22.46 | 4:25.10 | 60196 | 80080
6 | 17:47.56 | 4:11.48 | 80081 | 98953
7 | 21:59.29 | 3:53.71 | 98954 | 116499
8 | 25:53.25 | 3:27.47 | 116500 | 132071
9 | 29:20.72 | 3:32.00 | 132072 | 147971
10 | 32:52.72 | 4:11.46 | 147972 | 166842
11 | 37:04.43 | 3:27.25 | 166843 | 182392


Track 1

Filename C:\Staging\The Bird and The Bee - Interpreting The Masters Vol 2_ A Tribute to Van Halen [2019 HYCA-3088]\01 - The Bird and The Bee - Runnin' With The Devil.wav

Pre-gap length 0:00:02.00

Peak level 99.8 %
Extraction speed 2.6 X
Track quality 100.0 %
Test CRC BA70EE82
Copy CRC BA70EE82
Accurately ripped (confidence 4) [4A4F61E4] (AR v2)
Copy OK

Track 2

Filename C:\Staging\The Bird and The Bee - Interpreting The Masters Vol 2_ A Tribute to Van Halen [2019 HYCA-3088]\02 - The Bird and The Bee - Panama.wav

Peak level 99.8 %
Extraction speed 2.9 X
Track quality 100.0 %
Test CRC B6C13889
Copy CRC B6C13889
Accurately ripped (confidence 4) [E5DB0FE9] (AR v2)
Copy OK

Track 3

Filename C:\Staging\The Bird and The Bee - Interpreting The Masters Vol 2_ A Tribute to Van Halen [2019 HYCA-3088]\03 - The Bird and The Bee feat. Beck - Hot For Teacher.wav

Peak level 99.8 %
Extraction speed 3.3 X
Track quality 100.0 %
Test CRC 16DC1712
Copy CRC 16DC1712
Accurately ripped (confidence 4) [C4D674B1] (AR v2)
Copy OK

Track 4

Filename C:\Staging\The Bird and The Bee - Interpreting The Masters Vol 2_ A Tribute to Van Halen [2019 HYCA-3088]\04 - The Bird and The Bee - Eruption.wav

Peak level 99.8 %
Extraction speed 2.1 X
Track quality 99.8 %
Test CRC 62A67A5F
Copy CRC 62A67A5F
Accurately ripped (confidence 4) [F30190CE] (AR v2)
Copy OK

Track 5

Filename C:\Staging\The Bird and The Bee - Interpreting The Masters Vol 2_ A Tribute to Van Halen [2019 HYCA-3088]\05 - The Bird and The Bee - Jump.wav

Peak level 99.8 %
Extraction speed 3.7 X
Track quality 100.0 %
Test CRC 5C1EDBED
Copy CRC 5C1EDBED
Accurately ripped (confidence 4) [67CBE7DE] (AR v2)
Copy OK

Track 6

Filename C:\Staging\The Bird and The Bee - Interpreting The Masters Vol 2_ A Tribute to Van Halen [2019 HYCA-3088]\06 - The Bird and The Bee - Ain't Talkin' 'Bout Love.wav

Peak level 99.8 %
Extraction speed 3.3 X
Track quality 99.9 %
Test CRC F98A60F8
Copy CRC F98A60F8
Accurately ripped (confidence 4) [F242F554] (AR v2)
Copy OK

Track 7

Filename C:\Staging\The Bird and The Bee - Interpreting The Masters Vol 2_ A Tribute to Van Halen [2019 HYCA-3088]\07 - The Bird and The Bee - Jamie's Cryin'.wav

Peak level 99.8 %
Extraction speed 4.0 X
Track quality 100.0 %
Test CRC 6DE8A895
Copy CRC 6DE8A895
Accurately ripped (confidence 4) [92B22925] (AR v2)
Copy OK

Track 8

Filename C:\Staging\The Bird and The Bee - Interpreting The Masters Vol 2_ A Tribute to Van Halen [2019 HYCA-3088]\08 - The Bird and The Bee - Unchained.wav

Peak level 99.8 %
Extraction speed 4.1 X
Track quality 100.0 %
Test CRC A1B6D272
Copy CRC A1B6D272
Accurately ripped (confidence 4) [548A25AB] (AR v2)
Copy OK

Track 9

Filename C:\Staging\The Bird and The Bee - Interpreting The Masters Vol 2_ A Tribute to Van Halen [2019 HYCA-3088]\09 - The Bird and The Bee - You Really Got Me.wav

Peak level 99.7 %
Extraction speed 4.3 X
Track quality 100.0 %
Test CRC 202083C3
Copy CRC 202083C3
Accurately ripped (confidence 4) [387C20BD] (AR v2)
Copy OK

Track 10

Filename C:\Staging\The Bird and The Bee - Interpreting The Masters Vol 2_ A Tribute to Van Halen [2019 HYCA-3088]\10 - The Bird and The Bee - Diamond Dave.wav

Peak level 99.4 %
Extraction speed 4.6 X
Track quality 100.0 %
Test CRC D304B8E5
Copy CRC D304B8E5
Accurately ripped (confidence 4) [284EAC8C] (AR v2)
Copy OK

Track 11

Filename C:\Staging\The Bird and The Bee - Interpreting The Masters Vol 2_ A Tribute to Van Halen [2019 HYCA-3088]\11 - The Bird and The Bee - Everybody Wants Some.wav

Peak level 99.8 %
Extraction speed 4.5 X
Track quality 100.0 %
Test CRC 5AE15706
Copy CRC 5AE15706
Accurately ripped (confidence 4) [64EAFA95] (AR v2)
Copy OK


All tracks accurately ripped

No errors occurred

End of status report

–– CUETools DB Plugin V2.1.6

[CTDB TOCID: ihJXiy4izh9IhN2Ss6R..feriT8-] found
Submit result: ihJXiy4izh9IhN2Ss6R..feriT8- has been confirmed
Track | CTDB Status
1 | (5/5) Accurately ripped
2 | (5/5) Accurately ripped
3 | (5/5) Accurately ripped
4 | (5/5) Accurately ripped
5 | (5/5) Accurately ripped
6 | (5/5) Accurately ripped
7 | (5/5) Accurately ripped
8 | (5/5) Accurately ripped
9 | (5/5) Accurately ripped
10 | (5/5) Accurately ripped
11 | (5/5) Accurately ripped


==== Log checksum 3F116407F39FBB9FC6F614FE3F01AAA9F7AFAA43FDDACEEEEFC2A3D727A2EFCE ====

Thanks to the Original ripper !