Tags
Language
Tags
December 2022
Su Mo Tu We Th Fr Sa
27 28 29 30 1 2 3
4 5 6 7 8 9 10
11 12 13 14 15 16 17
18 19 20 21 22 23 24
25 26 27 28 29 30 31

The Dogs D'Amour - In The Dynamite Jet Saloon (1988)

Posted By: rocknrollsteve
The Dogs D'Amour - In The Dynamite Jet Saloon (1988)

The Dogs D'Amour - In The Dynamite Jet Saloon (1988)
Exact Audio Copy FLAC (302MB) | CUE and LOG Included | CD Rip | RS.com | Progressive

Considered to be these debauched glam rocker's best release. If you dig stuff like Hanoi Rocks, check this one out. An underated classic.

Ripped to FLAC with Exact Audio Copy


Exact Audio Copy V0.99 prebeta 4 from 23. January 2008

EAC extraction logfile from 18. March 2009, 12:52

The Dogs D'Amour / In The Dynamite Jet Saloon

Used drive : MATSHITABD-MLT UJ-210S Adapter: 2 ID: 0

Read mode : Secure
Utilize accurate stream : Yes
Defeat audio cache : Yes
Make use of C2 pointers : No

Read offset correction : 102
Overread into Lead-In and Lead-Out : No
Fill up missing offset samples with silence : Yes
Delete leading and trailing silent blocks : No
Null samples used in CRC calculations : No
Used interface : Installed external ASPI interface

Used output format : User Defined Encoder
Selected bitrate : 768 kBit/s
Quality : High
Add ID3 tag : No
Command line compressor : C:\Program Files\Exact Audio Copy\FLAC\FLAC.EXE
Additional command line options : -6 -V -T "ARTIST=%a" -T "TITLE=%t" -T "ALBUM=%g" -T "DATE=%y" -T "TRACKNUMBER=%n" -T "GENRE=%m" -T "COMMENT=%e" %s -o %d


TOC of the extracted CD

Track | Start | Length | Start sector | End sector
––––––––––––––––––––––––––––-
1 | 0:00.32 | 2:57.05 | 32 | 13311
2 | 2:57.37 | 3:50.28 | 13312 | 30589
3 | 6:47.65 | 4:47.35 | 30590 | 52149
4 | 11:35.25 | 3:40.02 | 52150 | 68651
5 | 15:15.27 | 4:28.55 | 68652 | 88806
6 | 19:44.07 | 3:39.15 | 88807 | 105246
7 | 23:23.22 | 3:59.13 | 105247 | 123184
8 | 27:22.35 | 3:18.40 | 123185 | 138074
9 | 30:41.00 | 3:18.70 | 138075 | 152994
10 | 33:59.70 | 4:13.57 | 152995 | 172026
11 | 38:13.52 | 4:22.33 | 172027 | 191709
12 | 42:36.10 | 3:48.22 | 191710 | 208831
13 | 46:24.32 | 3:38.73 | 208832 | 225254


Range status and errors

Selected range

Filename C:\EAC\Dogs D'Amour, The (1988) - In The Dynamite Jet Saloon\The Dogs D'Amour - In The Dynamite Jet Saloon.wav

Peak level 90.0 %
Range quality 100.0 %
Test CRC 3E78E592
Copy CRC 3E78E592
Copy OK

No errors occurred


AccurateRip summary

Track 1 accurately ripped (confidence 2) [2E1ED9D0]
Track 2 accurately ripped (confidence 2) [A2071CAF]
Track 3 accurately ripped (confidence 2) [8160E3DD]
Track 4 accurately ripped (confidence 2) [A2DCE966]
Track 5 cannot be verified as accurate (confidence 2) [9F26E5B4], AccurateRip returned [4C6C2E8B]
Track 6 accurately ripped (confidence 2) [06727711]
Track 7 accurately ripped (confidence 2) [72384A21]
Track 8 accurately ripped (confidence 2) [0EBC565F]
Track 9 accurately ripped (confidence 2) [B5051BAF]
Track 10 accurately ripped (confidence 2) [5CC4F931]
Track 11 accurately ripped (confidence 2) [246DC36F]
Track 12 accurately ripped (confidence 2) [A9AFC855]
Track 13 cannot be verified as accurate (confidence 2) [4BF1A1A5], AccurateRip returned [E4C99702]

11 track(s) accurately ripped
2 track(s) could not be verified as accurate

Some tracks could not be verified as accurate

End of status report


01 Debauchery
02 I Don't Want You To Go
03 How Come It Never Rains
04 Last Bandit
05 Medicine Man
06 Gonna Get It Right
07 Everything I Want
08 Heartbreak
09 Billy Two Rivers
10 Wait Until I'm Dead
11 Sometimes
12 Kid From Kensington
13 State I'm In