Subcategories

The Dream - Get Dreamy

Posted By: jetset
The Dream - Get Dreamy

The Dream - Get Dreamy (1967/2000)
EAC Rip | FLAC (Tracks)+CUE, LOG | no scans | 217 MB
Psychedelic | Label: Pidm | Fileserve + Filesonic
Obscure psych-pop/rock from Norway, with legendary Terje Rypdal playing a real fuzzy guitar here! This is his first release before going into jazz/avant-garde territory.

01 Green Things (From Outer Space)
02 Emptiness Gone
03 Ain't No Use
04 Driftin'
05 I'm Counting On You
06 Night of the Lonely Organist and his Mysterious Pals
07 You
08 You're Right About Me
09 Hey Jimi
10 Do You Dream

Exact Audio Copy V0.99 prebeta 5 from 4. May 2009

EAC extraction logfile from 1. November 2010, 16:25

The Dream / Get Dreamy

Used drive : SONY DVD RW DW-Q30A Adapter: 0 ID: 0

Read mode : Secure
Utilize accurate stream : Yes
Defeat audio cache : Yes
Make use of C2 pointers : No

Read offset correction : 6
Overread into Lead-In and Lead-Out : No
Fill up missing offset samples with silence : Yes
Delete leading and trailing silent blocks : No
Null samples used in CRC calculations : Yes
Used interface : Installed external ASPI interface
Gap handling : Appended to previous track

Used output format : User Defined Encoder
Selected bitrate : 128 kBit/s
Quality : High
Add ID3 tag : No
Command line compressor : C:\Program\FLAC\flac.exe
Additional command line options : -V -8 -T "artist=%a" -T "title=%t" -T "album=%g" -T "date=%y" -T "tracknumber=%n" -T "genre=%m" %s


TOC of the extracted CD

Track | Start | Length | Start sector | End sector
––––––––––––––––––––––––––––-
1 | 0:00.00 | 3:17.25 | 0 | 14799
2 | 3:17.25 | 2:28.37 | 14800 | 25936
3 | 5:45.62 | 8:20.30 | 25937 | 63466
4 | 14:06.17 | 3:06.00 | 63467 | 77416
5 | 17:12.17 | 3:07.45 | 77417 | 91486
6 | 20:19.62 | 5:40.60 | 91487 | 117046
7 | 26:00.47 | 2:24.30 | 117047 | 127876
8 | 28:25.02 | 2:45.63 | 127877 | 140314
9 | 31:10.65 | 2:59.35 | 140315 | 153774
10 | 34:10.25 | 2:07.02 | 153775 | 163301


Track 1

Filename E:\The Dream - Get Dreamy (1967) [FLAC]\The Dream - 01 - Green Things (From Outer Space).wav

Pre-gap length 0:00:02.00

Peak level 97.5 %
Track quality 100.0 %
Test CRC 317E5C78
Copy CRC 317E5C78
Track not present in AccurateRip database
Copy OK

Track 2

Filename E:\The Dream - Get Dreamy (1967) [FLAC]\The Dream - 02 - Emptiness Gone.wav

Pre-gap length 0:00:02.62

Peak level 98.4 %
Track quality 100.0 %
Test CRC 8666F490
Copy CRC 8666F490
Track not present in AccurateRip database
Copy OK

Track 3

Filename E:\The Dream - Get Dreamy (1967) [FLAC]\The Dream - 03 - Ain't No Use.wav

Pre-gap length 0:00:02.44

Peak level 100.0 %
Track quality 99.9 %
Test CRC B20826D3
Copy CRC B20826D3
Track not present in AccurateRip database
Copy OK

Track 4

Filename E:\The Dream - Get Dreamy (1967) [FLAC]\The Dream - 04 - Driftin'.wav

Pre-gap length 0:00:03.48

Peak level 80.5 %
Track quality 100.0 %
Test CRC B8DE14BF
Copy CRC B8DE14BF
Track not present in AccurateRip database
Copy OK

Track 5

Filename E:\The Dream - Get Dreamy (1967) [FLAC]\The Dream - 05 - I'm Counting On You.wav

Pre-gap length 0:00:02.98

Peak level 96.4 %
Track quality 99.9 %
Test CRC 6B62C28F
Copy CRC 6B62C28F
Track not present in AccurateRip database
Copy OK

Track 6

Filename E:\The Dream - Get Dreamy (1967) [FLAC]\The Dream - 06 - Night of the Lonely Organist and his Mysterious Pals.wav

Pre-gap length 0:00:02.44

Peak level 99.0 %
Track quality 100.0 %
Test CRC DE17FFDD
Copy CRC DE17FFDD
Track not present in AccurateRip database
Copy OK

Track 7

Filename E:\The Dream - Get Dreamy (1967) [FLAC]\The Dream - 07 - You.wav

Pre-gap length 0:00:02.78

Peak level 96.0 %
Track quality 100.0 %
Test CRC 766DB23F
Copy CRC 766DB23F
Track not present in AccurateRip database
Copy OK

Track 8

Filename E:\The Dream - Get Dreamy (1967) [FLAC]\The Dream - 08 - You're Right About Me.wav

Pre-gap length 0:00:03.13

Peak level 93.3 %
Track quality 100.0 %
Test CRC 382973F6
Copy CRC 382973F6
Track not present in AccurateRip database
Copy OK

Track 9

Filename E:\The Dream - Get Dreamy (1967) [FLAC]\The Dream - 09 - Hey Jimi.wav

Pre-gap length 0:00:01.93

Peak level 96.4 %
Track quality 100.0 %
Test CRC 9E352F19
Copy CRC 9E352F19
Track not present in AccurateRip database
Copy OK

Track 10

Filename E:\The Dream - Get Dreamy (1967) [FLAC]\The Dream - 10 - Do You Dream.wav

Pre-gap length 0:00:02.09

Peak level 95.3 %
Track quality 100.0 %
Test CRC 13548DF2
Copy CRC 13548DF2
Track not present in AccurateRip database
Copy OK


None of the tracks are present in the AccurateRip database

No errors occurred

End of status report


Fantastic album from this Norwegian band who apparently split up because they could not agree on their musical direction. It's a shame as this shows what a cool bunch they were, mixing Soul, Jazz, Blues and the slight influence of english psych into the mix, creating a real twisted album with great guitar and screaming hammond in places.

Download FREE

Fileserve | Filesonic

NO Mirror Please!