Subcategories

The Modern Jazz Quartet - Echoes (1984)

Posted By: Bezz
The Modern Jazz Quartet - Echoes (1984)

The Modern Jazz Quartet - Echoes (1984)
EAC rip | FLAC+CUE+LOG | Scans | 219 Mb(Incl. Recovery)
Genre ~ Cool, Third Stream | Label ~ Pablo Records

If proof were needed that The Modern Jazz Quartet was back together permanently after a seven-year hiatus (1974-81), it is this CD for the six selections were all fairly new (as opposed to more runthroughs of their earlier hits). Pianist John Lewis contributed three compositions (including the appealing "That Slavic Smile" and "Sacha's March"), vibraphonist Milt Jackson wrote two and bassist Percy Heath brought in his lighthearted "Watergate Blues." With drummer Connie Kay as usual rounding out the group, The MJQ's return was one of the happiest events in jazz of the 1980s. ~ AllMusic
Tracklist

01. That Slavic Smile (08:07)
02. Echoes (07:11)
03. The Watergate Blues (06:09)
04. The Hornpipe (08:21)
05. Connie's Blues (07:35)
06. Sacha's March (07:54)

Exact Audio Copy V0.99 prebeta 5 from 4. May 2009

Отчёт EAC об извлечении, выполненном 17. мая 2011, 10:19

The Modern Jazz Quartet / Echoes [3112-41 (35PO)]

Дисковод: Optiarc DVD RW AD-7200A Adapter: 1 ID: 0

Режим чтения : Достоверность
Использование точного потока : Да
Отключение кэша аудио : Да
Использование указателей C2 : Нет

Коррекция смещения при чтении : 48
Способность читать области Lead-in и Lead-out : Нет
Заполнение пропущенных сэмплов тишиной : Да
Удаление блоков с тишиной в начале и конце : Нет
При вычислениях CRC использовались нулевые сэмплы : Да
Интерфейс : Встроенный Win32-интерфейс для Win NT/2000

Выходной формат : Пользовательский кодировщик
Выбранный битрейт : 128 kBit/s
Качество : Высокий
Добавление ID3-тэга : Нет
Утилита сжатия : C:\Program Files\Exact Audio Copy\Flac\flac.exe
Дополнительные параметры : -8 -V -T "artist=%a" -T "title=%t" -T "album=%g" -T "date=%y" -T "tracknumber=%n" -T "genre=%m" -T "comment=EAC

TOC извлечённого CD

Трек | Старт | Длительность | Начальный сектор | Конечный сектор
––––––––––––––––––––––––––––––––––-
1 | 0:00.00 | 8:06.65 | 0 | 36514
2 | 8:06.65 | 7:11.15 | 36515 | 68854
3 | 15:18.05 | 6:09.20 | 68855 | 96549
4 | 21:27.25 | 8:21.15 | 96550 | 134139
5 | 29:48.40 | 7:35.05 | 134140 | 168269
6 | 37:23.45 | 7:54.20 | 168270 | 203839

Характеристики диапазона извлечения и сообщения об ошибках

Выбранный диапазон

Имя файла Y:\Музыка\The Modern Jazz Quartet\1984 Echoes\The Modern Jazz Quartet - Echoes [3112-41 (35PO)].wav

Пиковый уровень 91.3 %
Качество диапазона 100.0 %
CRC теста 87EA186F
CRC копии 87EA186F
Копирование… OK

Ошибок не произошло

AccurateRip: сводка

Трек 1 нет в базе данных
Трек 2 нет в базе данных
Трек 3 нет в базе данных
Трек 4 нет в базе данных
Трек 5 нет в базе данных
Трек 6 нет в базе данных

Ни одного трека нет в базе AccurateRip

Конец отчёта

The Modern Jazz Quartet - Echoes (1984)

The Modern Jazz Quartet - Echoes (1984)

Special thanks to ikebana and Pretender!

Welcome to my blog for more wonderful music

PLEASE DO NOT PROVIDE MIRROR LINKS!