Tags
Language
Tags

The Orb - Auntie Aubrey's Excursions Beyond The Call Of Duty Part 3: The Orb Remix Project (2020)

Posted By: delpotro
The Orb - Auntie Aubrey's Excursions Beyond The Call Of Duty Part 3: The Orb Remix Project (2020)

The Orb - Auntie Aubrey's Excursions Beyond The Call Of Duty Part 3: The Orb Remix Project (2020)
EAC Rip | FLAC (tracks+log+.cue) - 823 Mb | MP3 CBR 320 kbps - 329 Mb | 02:20:59
Electronic | Label: Liquid Sound Design

After almost two decades of hibernation under the ambient waves and dub currents of the Sargasso Sea, LSD announces the next installment of the seminal ‘Auntie Aubrey's' series, an Orb Remix Project. This 2 x CD compilation is a veritable smorgasbord of classic, new and unreleased labour-of-love remixes that span three decades yet still transcend space and time.

Many influential artists have been involved with The Orb since the beginning and the project still keeps evolving and adapting. Dr. Alex Paterson, the gravitation centre of the Orb is known for his playfully subversive remixes and true to form this CD highlights the diversity of his musical mind.

We see the good Dr. remix the melancholy and evocative “The Last Lighthouse Keeper” from The Transit Kings, an early British electronic music group that included Jimmy Cauty of The KLF, one of the original members of The Orb. The remix of ‘Davy Jones’ Locker’ from System 7 takes you surfing on a sun-dappled sea of ambient dance nostalgia, while Killing Jokes’ ‘European Super State’ remix (in which LSD label founder Youth plays bass guitar) sounds like the soundtrack for an imaginary spy thriller with the powerful lyrics and hypnotizing voice of Jaz Summers. Legendary producer Youth teams up with Lx yet again on a psychedelic rocker with spellcasting vocals by Lara Smiles, and this is just the beginning!

Boasting an all-star lineup, the compilation includes many of our scenes most esteemed electronic music producers such as Coldcut, David Harrow, Sendelica and Gaudi as well as the ambient blissed out vibes from the enigmatic DF Tram, Duende India Collective and The Gyuto Monks of Tibet, this collection offers up such the variety to appease even the most dedicated Orbsessives and music connoisseurs.
Tracklist:
1. Coldcut + Hex - Timber (Super Saragossa Orb Remix) (06:11)
2. OMFO - Sirtaki On Mars (The Orb vs High Frequency Bandwidth Remix) (06:06)
3. System 7 - Davy Jones' Locker (The Orb Mix) (11:35)
4. Transmission - Dance Alone (The Legend of a Visiting Orb, Visiting From Another Time & Place Remix) (06:53)
5. David Harrow - Steppers (Housewives on LSD Remix) (05:59)
6. Francesca Lombardo - Call Me Wrong (The Orb's It's Okay Not To Be Okay Remix) (08:59)
7. The Gyuto Monks Of Tibet - Legend of The Yogi (The Orb's Garden Of Knowing The Ambient Mix) (07:18)
8. Sendelica, Secret Knowledge, The Orb - Windmill (The Orb Chocolate Dubbed Mix) (06:04)
9. Duende India Collective - Escapology (The Psychedelic Cathedral of Southern England Has Died, Long Live The Psychedelic Cathedral - Epically Orb Mix) (13:04)
10. Youth & Gaudi - Four Horsemen (The Orbs Uraniborg Castle In The Sky Remix) (05:38)
11. Killing Joke - European Super State - The Orb vs Youth Remix (Church of the Open Sky and Holy Fool Dub) (07:10)
12. DF Tram - Lover's Radio (The Orb’s Bravo Foxhole Remix) (08:05)
13. David Harrow - Revolution ft. Bim Sherman (The Orb remix) (05:38)
14. The Lost Stoned Pandas - The Great Lockdown Of 2020 (The Orb's Freedom Over Fear Mix) (06:41)
15. N.O.I.A. - Time is Over Me (Gaudi & The Orb Remix) (07:10)
16. Sarmacja - Olimpijczyk (The Orb's Oak Island Remix) (06:36)
17. The Orb vs Youth - Conscienta ftg Lara Smiles (Secret Ways of Bees Dub Mix) (08:28)
18. Violeta Vicci - Long Farewell (The Orb’s Laughing Chicks Mix) (05:18)
19. Transit Kings - The Last Lighthouse Keeper (The Orb Mix) (06:36)
20. Phone Chat Line (01:28)

Exact Audio Copy V1.2 from 12. August 2016

EAC extraction logfile from 24. November 2021, 12:24

The Orb / Auntie Aubreys Excursions Beyond The Call Of Duty 3 CD1

Used drive : HL-DT-STDVD+-RW GU90N Adapter: 1 ID: 1

Read mode : Secure
Utilize accurate stream : Yes
Defeat audio cache : Yes
Make use of C2 pointers : No

Read offset correction : 102
Overread into Lead-In and Lead-Out : No
Fill up missing offset samples with silence : Yes
Delete leading and trailing silent blocks : No
Null samples used in CRC calculations : Yes
Used interface : Native Win32 interface for Win NT & 2000
Gap handling : Appended to previous track

Used output format : User Defined Encoder
Selected bitrate : 1024 kBit/s
Quality : High
Add ID3 tag : No
Command line compressor : C:\Program Files (x86)\Exact Audio Copy\Flac\flac.exe
Additional command line options : -8 -V -T "ARTIST=%artist%" -T "TITLE=%title%" -T "ALBUM=%albumtitle%" -T "DATE=%year%" -T "TRACKNUMBER=%tracknr%" -T "GENRE=%genre%" -T "PERFORMER=%albuminterpret%" -T "COMPOSER=%composer%" %haslyrics%–tag-from-file=LYRICS="%lyricsfile%"%haslyrics% -T "ALBUMARTIST=%albumartist%" -T "DISCNUMBER=%cdnumber%" -T "TOTALDISCS=%totalcds%" -T "TOTALTRACKS=%numtracks%" -T "COMMENT=%comment%" %source% -o %dest%


TOC of the extracted CD

Track | Start | Length | Start sector | End sector
––––––––––––––––––––––––––––-
1 | 0:00.00 | 6:11.53 | 0 | 27877
2 | 6:11.53 | 6:06.33 | 27878 | 55360
3 | 12:18.11 | 11:35.17 | 55361 | 107502
4 | 23:53.28 | 6:53.33 | 107503 | 138510
5 | 30:46.61 | 5:59.09 | 138511 | 165444
6 | 36:45.70 | 8:58.40 | 165445 | 205834
7 | 45:44.35 | 7:18.00 | 205835 | 238684
8 | 53:02.35 | 6:03.41 | 238685 | 265950
9 | 59:06.01 | 13:05.34 | 265951 | 324859


Track 1

Filename C:\Users\ian\Downloads\The Orb - Auntie Aubreys Excursions Beyond The Call Of Duty ​3 (2020) [FLAC] {2CD}\Auntie Aubreys Excursions Beyond The Call Of Duty 3 CD1\01 - Timber.wav

Pre-gap length 0:00:02.00

Peak level 91.5 %
Extraction speed 1.2 X
Track quality 100.0 %
Test CRC 64296B42
Copy CRC 64296B42
Copy OK

Track 2

Filename C:\Users\ian\Downloads\The Orb - Auntie Aubreys Excursions Beyond The Call Of Duty ​3 (2020) [FLAC] {2CD}\Auntie Aubreys Excursions Beyond The Call Of Duty 3 CD1\02 - Sirtaki On Mars.wav

Peak level 91.5 %
Extraction speed 1.2 X
Track quality 100.0 %
Test CRC 1DE1B9EC
Copy CRC 1DE1B9EC
Copy OK

Track 3

Filename C:\Users\ian\Downloads\The Orb - Auntie Aubreys Excursions Beyond The Call Of Duty ​3 (2020) [FLAC] {2CD}\Auntie Aubreys Excursions Beyond The Call Of Duty 3 CD1\03 - Davy Jones Locker.wav

Peak level 91.5 %
Extraction speed 1.6 X
Track quality 99.9 %
Test CRC 3B75AFB5
Copy CRC 3B75AFB5
Copy OK

Track 4

Filename C:\Users\ian\Downloads\The Orb - Auntie Aubreys Excursions Beyond The Call Of Duty ​3 (2020) [FLAC] {2CD}\Auntie Aubreys Excursions Beyond The Call Of Duty 3 CD1\04 - Dance Alone.wav

Peak level 91.5 %
Extraction speed 1.8 X
Track quality 100.0 %
Test CRC CF690DDE
Copy CRC CF690DDE
Copy OK

Track 5

Filename C:\Users\ian\Downloads\The Orb - Auntie Aubreys Excursions Beyond The Call Of Duty ​3 (2020) [FLAC] {2CD}\Auntie Aubreys Excursions Beyond The Call Of Duty 3 CD1\05 - Steppers.wav

Peak level 91.5 %
Extraction speed 1.9 X
Track quality 100.0 %
Test CRC 7A88B2D8
Copy CRC 7A88B2D8
Copy OK

Track 6

Filename C:\Users\ian\Downloads\The Orb - Auntie Aubreys Excursions Beyond The Call Of Duty ​3 (2020) [FLAC] {2CD}\Auntie Aubreys Excursions Beyond The Call Of Duty 3 CD1\06 - Call Me Wrong.wav

Peak level 91.5 %
Extraction speed 2.1 X
Track quality 100.0 %
Test CRC 2B491DEF
Copy CRC 2B491DEF
Copy OK

Track 7

Filename C:\Users\ian\Downloads\The Orb - Auntie Aubreys Excursions Beyond The Call Of Duty ​3 (2020) [FLAC] {2CD}\Auntie Aubreys Excursions Beyond The Call Of Duty 3 CD1\07 - Legend Of The Yogi.wav

Peak level 91.5 %
Extraction speed 2.2 X
Track quality 100.0 %
Test CRC E7B50399
Copy CRC E7B50399
Copy OK

Track 8

Filename C:\Users\ian\Downloads\The Orb - Auntie Aubreys Excursions Beyond The Call Of Duty ​3 (2020) [FLAC] {2CD}\Auntie Aubreys Excursions Beyond The Call Of Duty 3 CD1\08 - Windmill.wav

Peak level 91.5 %
Extraction speed 2.1 X
Track quality 99.9 %
Test CRC D20D7E34
Copy CRC D20D7E34
Copy OK

Track 9

Filename C:\Users\ian\Downloads\The Orb - Auntie Aubreys Excursions Beyond The Call Of Duty ​3 (2020) [FLAC] {2CD}\Auntie Aubreys Excursions Beyond The Call Of Duty 3 CD1\09 - Escapology.wav

Peak level 91.5 %
Extraction speed 1.8 X
Track quality 100.0 %
Test CRC E607C6DA
Copy CRC E607C6DA
Copy OK

No errors occurred

End of status report

–– CUETools DB Plugin V2.1.6

[CTDB TOCID: GFqQuu42GKt8DyFk00vPOC2wotE-] found
Submit result: already submitted
Track | CTDB Status
1 | (11/11) Accurately ripped
2 | (11/11) Accurately ripped
3 | (11/11) Accurately ripped
4 | (11/11) Accurately ripped
5 | (11/11) Accurately ripped
6 | (11/11) Accurately ripped
7 | (11/11) Accurately ripped
8 | (11/11) Accurately ripped
9 | (11/11) Accurately ripped


==== Log checksum 2071BD30886912A706504B8F4AED25F880C56611BE10921EBAB166AFBA3AE5BE ====
Exact Audio Copy V1.2 from 12. August 2016

EAC extraction logfile from 24. November 2021, 13:44

The Orb / Auntie Aubreys Excursions Beyond The Call Of Duty ​3 CD2

Used drive : HL-DT-STDVD+-RW GU90N Adapter: 1 ID: 1

Read mode : Secure
Utilize accurate stream : Yes
Defeat audio cache : Yes
Make use of C2 pointers : No

Read offset correction : 102
Overread into Lead-In and Lead-Out : No
Fill up missing offset samples with silence : Yes
Delete leading and trailing silent blocks : No
Null samples used in CRC calculations : Yes
Used interface : Native Win32 interface for Win NT & 2000
Gap handling : Appended to previous track

Used output format : User Defined Encoder
Selected bitrate : 1024 kBit/s
Quality : High
Add ID3 tag : No
Command line compressor : C:\Program Files (x86)\Exact Audio Copy\Flac\flac.exe
Additional command line options : -8 -V -T "ARTIST=%artist%" -T "TITLE=%title%" -T "ALBUM=%albumtitle%" -T "DATE=%year%" -T "TRACKNUMBER=%tracknr%" -T "GENRE=%genre%" -T "PERFORMER=%albuminterpret%" -T "COMPOSER=%composer%" %haslyrics%–tag-from-file=LYRICS="%lyricsfile%"%haslyrics% -T "ALBUMARTIST=%albumartist%" -T "DISCNUMBER=%cdnumber%" -T "TOTALDISCS=%totalcds%" -T "TOTALTRACKS=%numtracks%" -T "COMMENT=%comment%" %source% -o %dest%


TOC of the extracted CD

Track | Start | Length | Start sector | End sector
––––––––––––––––––––––––––––-
1 | 0:00.00 | 5:38.17 | 0 | 25366
2 | 5:38.17 | 7:10.15 | 25367 | 57631
3 | 12:48.32 | 8:04.56 | 57632 | 93987
4 | 20:53.13 | 5:37.49 | 93988 | 119311
5 | 26:30.62 | 6:40.50 | 119312 | 149361
6 | 33:11.37 | 7:10.37 | 149362 | 181648
7 | 40:21.74 | 6:35.47 | 181649 | 211320
8 | 46:57.46 | 8:28.24 | 211321 | 249444
9 | 55:25.70 | 5:17.47 | 249445 | 273266
10 | 60:43.42 | 6:35.62 | 273267 | 302953
11 | 67:19.29 | 1:28.73 | 302954 | 309626


Track 1

Filename C:\Users\ian\Downloads\The Orb - Auntie Aubreys Excursions Beyond The Call Of Duty ​3 (2020) [FLAC] {2CD}\Auntie Aubreys Excursions Beyond The Call Of Duty ​3 CD2\01 - Four Horsemen.wav

Pre-gap length 0:00:02.00

Peak level 91.6 %
Extraction speed 1.2 X
Track quality 100.0 %
Test CRC DFFAE9A2
Copy CRC DFFAE9A2
Copy OK

Track 2

Filename C:\Users\ian\Downloads\The Orb - Auntie Aubreys Excursions Beyond The Call Of Duty ​3 (2020) [FLAC] {2CD}\Auntie Aubreys Excursions Beyond The Call Of Duty ​3 CD2\02 - European Super State.wav

Peak level 91.6 %
Extraction speed 1.4 X
Track quality 100.0 %
Test CRC E0DFF2DD
Copy CRC E0DFF2DD
Copy OK

Track 3

Filename C:\Users\ian\Downloads\The Orb - Auntie Aubreys Excursions Beyond The Call Of Duty ​3 (2020) [FLAC] {2CD}\Auntie Aubreys Excursions Beyond The Call Of Duty ​3 CD2\03 - Lovers Radio.wav

Peak level 92.9 %
Extraction speed 1.6 X
Track quality 100.0 %
Test CRC DC3B2647
Copy CRC DC3B2647
Copy OK

Track 4

Filename C:\Users\ian\Downloads\The Orb - Auntie Aubreys Excursions Beyond The Call Of Duty ​3 (2020) [FLAC] {2CD}\Auntie Aubreys Excursions Beyond The Call Of Duty ​3 CD2\04 - Revolution.wav

Peak level 91.6 %
Extraction speed 1.6 X
Track quality 99.9 %
Test CRC 8F18BAF8
Copy CRC 8F18BAF8
Copy OK

Track 5

Filename C:\Users\ian\Downloads\The Orb - Auntie Aubreys Excursions Beyond The Call Of Duty ​3 (2020) [FLAC] {2CD}\Auntie Aubreys Excursions Beyond The Call Of Duty ​3 CD2\05 - The Great Lockdown Of 2020.wav

Peak level 91.0 %
Extraction speed 1.9 X
Track quality 100.0 %
Test CRC FC4274CC
Copy CRC FC4274CC
Copy OK

Track 6

Filename C:\Users\ian\Downloads\The Orb - Auntie Aubreys Excursions Beyond The Call Of Duty ​3 (2020) [FLAC] {2CD}\Auntie Aubreys Excursions Beyond The Call Of Duty ​3 CD2\06 - Time Is Over Me.wav

Peak level 91.6 %
Extraction speed 2.0 X
Track quality 100.0 %
Test CRC 650436AD
Copy CRC 650436AD
Copy OK

Track 7

Filename C:\Users\ian\Downloads\The Orb - Auntie Aubreys Excursions Beyond The Call Of Duty ​3 (2020) [FLAC] {2CD}\Auntie Aubreys Excursions Beyond The Call Of Duty ​3 CD2\07 - Olimpjjczyk.wav

Peak level 92.2 %
Extraction speed 2.2 X
Track quality 100.0 %
Test CRC 09C11207
Copy CRC 09C11207
Copy OK

Track 8

Filename C:\Users\ian\Downloads\The Orb - Auntie Aubreys Excursions Beyond The Call Of Duty ​3 (2020) [FLAC] {2CD}\Auntie Aubreys Excursions Beyond The Call Of Duty ​3 CD2\08 - Conscienta Ftg Lara Smiles.wav

Peak level 91.8 %
Extraction speed 2.3 X
Track quality 100.0 %
Test CRC 5BDA0D72
Copy CRC 5BDA0D72
Copy OK

Track 9

Filename C:\Users\ian\Downloads\The Orb - Auntie Aubreys Excursions Beyond The Call Of Duty ​3 (2020) [FLAC] {2CD}\Auntie Aubreys Excursions Beyond The Call Of Duty ​3 CD2\09 - Long Farewell.wav

Peak level 92.1 %
Extraction speed 2.3 X
Track quality 100.0 %
Test CRC 7A6B7012
Copy CRC 7A6B7012
Copy OK

Track 10

Filename C:\Users\ian\Downloads\The Orb - Auntie Aubreys Excursions Beyond The Call Of Duty ​3 (2020) [FLAC] {2CD}\Auntie Aubreys Excursions Beyond The Call Of Duty ​3 CD2\10 - The Last Lighthouse Keeper.wav

Peak level 91.6 %
Extraction speed 2.5 X
Track quality 100.0 %
Test CRC A45B791B
Copy CRC A45B791B
Copy OK

Track 11

Filename C:\Users\ian\Downloads\The Orb - Auntie Aubreys Excursions Beyond The Call Of Duty ​3 (2020) [FLAC] {2CD}\Auntie Aubreys Excursions Beyond The Call Of Duty ​3 CD2\11 - Phone Chat Line.wav

Peak level 65.6 %
Extraction speed 1.5 X
Track quality 99.8 %
Test CRC BB4064FF
Copy CRC BB4064FF
Copy OK

No errors occurred

End of status report

–– CUETools DB Plugin V2.1.6

[CTDB TOCID: YNAY6NrH5Sw294VEOjYCawLkoEI-] found
Submit result: already submitted
Track | CTDB Status
1 | (9/9) Accurately ripped
2 | (9/9) Accurately ripped
3 | (9/9) Accurately ripped
4 | (9/9) Accurately ripped
5 | (9/9) Accurately ripped
6 | (9/9) Accurately ripped
7 | (9/9) Accurately ripped
8 | (9/9) Accurately ripped
9 | (9/9) Accurately ripped
10 | (9/9) Accurately ripped
11 | (9/9) Accurately ripped


==== Log checksum 26E3E2E2DC99E2ACDE2EA99A2509B818CBADA2922C602B0FBD0976BBD4C76DC2 ====

Thanks to the Original ripper !