Tags
Language
Tags
April 2024
Su Mo Tu We Th Fr Sa
31 1 2 3 4 5 6
7 8 9 10 11 12 13
14 15 16 17 18 19 20
21 22 23 24 25 26 27
28 29 30 1 2 3 4

Neil Sedaka - The Real... Neil Sedaka (The Ultimate Collection) (2014)

Posted By: delpotro
Neil Sedaka - The Real... Neil Sedaka (The Ultimate Collection) (2014)

Neil Sedaka - The Real… Neil Sedaka (The Ultimate Collection) (2014)
EAC Rip | FLAC (tracks+log+.cue) - 961 Mb | MP3 CBR 320 kbps - 702 Mb | 02:29:10
Pop | Label: Sony Music, RCA Records

Neil Sedaka (born March 13, 1939) is an American pop singer, pianist, composer and record producer. Since his music career began in 1957, he has sold millions of records as an artist and has written or co-written over 500 songs for himself and others, collaborating mostly with lyricists Howard Greenfield and Phil Cody.

Albums Mastered From Original RCA Records Recordings
Tracklist:
CD 1 (45:28)
01. The Diary (2:17)
02. I Go Ape (2:33)
03. Oh! Carol (2:17)
04. One Way Ticket (To The Blues) (2:27)
05. Stairway To Heaven (2:40)
06. You Mean Everything To Me (2:38)
07. Run Samson Run (2:53)
08. Calendar Girl (2:37)
09. The Same Old Fool (3:04)
10. Little Devil (2:43)
11. I Must Be Dreaming (2:13)
12. Sweet Little You (2:03)
13. I Found My World In You (3:38)
14. You're Knockin' Me Out (2:29)
15. Fallin' (2:32)
16. You Took Advantage Of Me (3:11)
17. Smile (3:15)

CD 2 (46:42)
01. Happy Birthday, Sweet Sixteen (2:38)
02. King Of Clowns (2:39)
03. Breaking Up Is Hard To Do (2:17)
04. Next Door To An Angel (2:25)
05. I Belong To You (2:39)
06. Alice In Wonderland (2:31)
07. Circulate (2:45)
08. Let's Go Steady Again (2:46)
09. Waiting Forever (2:31)
10. The Dreamer (3:05)
11. Look Inside Your Heart (3:09)
12. Bad Girl (2:38)
13. Wail 'Till i See My Baby (2:49)
14. Without A Song (3:47)
15. Sunny (2:35)
16. The World Through A Tear (3:23)
17. The Answer To My Prayer (2:05)

CD 3 (57:01)
01. Another Sleepless Night (2:11)
02. All The Way (3:20)
03. We Kiss In A Shadow (2:33)
04. A Felicidada (2:53)
05. Angel Eyes (3:53)
06. Don't Lead Me On (2:55)
07. What Am I Gonna Do (2:25)
08. Fly me To The Moon (3:42)
09. I'll Be Seeing You (2:39)
10. Because Of You (2:52)
11. Blue Boy (2:24)
12. I'm A Song, Sing Me (3:18)
13. Superbird (4:12)
14. Cardboard California (5:08)
15. Silent Movies (4:12)
16. Beautiful Mind (3:20)
17. Solitaire (5:05)

Exact Audio Copy V1.3 from 2. September 2016

EAC extraction logfile from 22. June 2017, 16:33

Neil Sedaka / The Real Neil Sedaka (CD1)

Used drive : TSSTcorpCDDVDW SE-208AB Adapter: 2 ID: 0

Read mode : Secure
Utilize accurate stream : Yes
Defeat audio cache : Yes
Make use of C2 pointers : No

Read offset correction : 6
Overread into Lead-In and Lead-Out : No
Fill up missing offset samples with silence : Yes
Delete leading and trailing silent blocks : No
Null samples used in CRC calculations : Yes
Used interface : Installed external ASPI interface
Gap handling : Appended to previous track

Used output format : User Defined Encoder
Selected bitrate : 768 kBit/s
Quality : High
Add ID3 tag : No
Command line compressor : C:\Program Files (x86)\Exact Audio Copy\Flac\flac.exe
Additional command line options : -8 -V -T "ARTIST=%artist%" -T "TITLE=%title%" -T "ALBUM=%albumtitle%" -T "DATE=%year%" -T "TRACKNUMBER=%tracknr%" -T "GENRE=%genre%" -T "COMMENT=%comment%" -T "BAND=%albuminterpret%" -T "ALBUMARTIST=%albuminterpret%" -T "COMPOSER=%composer%" %haslyrics%–tag-from-file=LYRICS="%lyricsfile%"%haslyrics% -T "DISCNUMBER=%cdnumber%" -T "TOTALDISCS=%totalcds%" -T "TOTALTRACKS=%numtracks%" %hascover%–picture="%coverfile%"%hascover% %source% -o %dest%


TOC of the extracted CD

Track | Start | Length | Start sector | End sector
––––––––––––––––––––––––––––-
1 | 0:00.00 | 2:17.04 | 0 | 10278
2 | 2:17.04 | 2:33.19 | 10279 | 21772
3 | 4:50.23 | 2:16.40 | 21773 | 32012
4 | 7:06.63 | 2:26.40 | 32013 | 43002
5 | 9:33.28 | 2:39.67 | 43003 | 54994
6 | 12:13.20 | 2:37.71 | 54995 | 66840
7 | 14:51.16 | 2:53.02 | 66841 | 79817
8 | 17:44.18 | 2:36.40 | 79818 | 91557
9 | 20:20.58 | 3:03.39 | 91558 | 105321
10 | 23:24.22 | 2:42.64 | 105322 | 117535
11 | 26:07.11 | 2:13.36 | 117536 | 127546
12 | 28:20.47 | 2:02.59 | 127547 | 136755
13 | 30:23.31 | 3:37.57 | 136756 | 153087
14 | 34:01.13 | 2:28.60 | 153088 | 164247
15 | 36:29.73 | 2:32.14 | 164248 | 175661
16 | 39:02.12 | 3:10.73 | 175662 | 189984
17 | 42:13.10 | 3:15.01 | 189985 | 204610


Track 1

Filename C:\Program Files (x86)\Exact Audio Copy\Flac\01. The Diary.wav

Pre-gap length 0:00:02.00

Peak level 95.5 %
Extraction speed 0.9 X
Track quality 100.0 %
Test CRC 2BC2FBC0
Copy CRC 2BC2FBC0
Accurately ripped (confidence 2) [07E69E60] (AR v2)
Copy OK

Track 2

Filename C:\Program Files (x86)\Exact Audio Copy\Flac\02. I Go Ape.wav

Pre-gap length 0:00:00.58

Peak level 95.5 %
Extraction speed 1.0 X
Track quality 100.0 %
Test CRC 5D039285
Copy CRC 5D039285
Accurately ripped (confidence 2) [1D6BB40A] (AR v2)
Copy OK

Track 3

Filename C:\Program Files (x86)\Exact Audio Copy\Flac\03. Oh! Carol.wav

Pre-gap length 0:00:00.58

Peak level 100.0 %
Extraction speed 1.1 X
Track quality 100.0 %
Test CRC 563EB03E
Copy CRC 563EB03E
Accurately ripped (confidence 2) [3C30F45E] (AR v2)
Copy OK

Track 4

Filename C:\Program Files (x86)\Exact Audio Copy\Flac\04. One Way Ticket (To The Blues).wav

Pre-gap length 0:00:00.58

Peak level 100.0 %
Extraction speed 1.1 X
Track quality 100.0 %
Test CRC 0C4520E7
Copy CRC 0C4520E7
Accurately ripped (confidence 2) [9E016A6C] (AR v2)
Copy OK

Track 5

Filename C:\Program Files (x86)\Exact Audio Copy\Flac\05. Stairway To Heaven.wav

Pre-gap length 0:00:00.58

Peak level 100.0 %
Extraction speed 1.2 X
Track quality 100.0 %
Test CRC 36AE87A3
Copy CRC 36AE87A3
Accurately ripped (confidence 2) [FB17A20A] (AR v2)
Copy OK

Track 6

Filename C:\Program Files (x86)\Exact Audio Copy\Flac\06. You Mean Everything To Me.wav

Pre-gap length 0:00:00.58

Peak level 100.0 %
Extraction speed 1.3 X
Track quality 100.0 %
Test CRC 83C366B8
Copy CRC 83C366B8
Accurately ripped (confidence 2) [E3DF5745] (AR v2)
Copy OK

Track 7

Filename C:\Program Files (x86)\Exact Audio Copy\Flac\07. Run Samson Run.wav

Pre-gap length 0:00:00.58

Peak level 100.0 %
Extraction speed 1.4 X
Track quality 100.0 %
Test CRC FA320D96
Copy CRC FA320D96
Accurately ripped (confidence 2) [B0E43766] (AR v2)
Copy OK

Track 8

Filename C:\Program Files (x86)\Exact Audio Copy\Flac\08. Calendar Girl.wav

Pre-gap length 0:00:00.58

Peak level 98.8 %
Extraction speed 1.4 X
Track quality 100.0 %
Test CRC 4E907F96
Copy CRC 4E907F96
Accurately ripped (confidence 2) [B3C49589] (AR v2)
Copy OK

Track 9

Filename C:\Program Files (x86)\Exact Audio Copy\Flac\09. The Same Old Fool.wav

Pre-gap length 0:00:00.58

Peak level 100.0 %
Extraction speed 1.5 X
Track quality 100.0 %
Test CRC E290917C
Copy CRC E290917C
Accurately ripped (confidence 2) [FEDEF2A4] (AR v2)
Copy OK

Track 10

Filename C:\Program Files (x86)\Exact Audio Copy\Flac\10. Little Devil.wav

Pre-gap length 0:00:00.58

Peak level 100.0 %
Extraction speed 1.5 X
Track quality 100.0 %
Test CRC 085E3F15
Copy CRC 085E3F15
Accurately ripped (confidence 2) [2B44557C] (AR v2)
Copy OK

Track 11

Filename C:\Program Files (x86)\Exact Audio Copy\Flac\11. I Must Be Dreaming.wav

Pre-gap length 0:00:00.58

Peak level 100.0 %
Extraction speed 1.5 X
Track quality 100.0 %
Test CRC 5EC7B761
Copy CRC 5EC7B761
Accurately ripped (confidence 2) [A94D29CB] (AR v2)
Copy OK

Track 12

Filename C:\Program Files (x86)\Exact Audio Copy\Flac\12. Sweet Little You.wav

Pre-gap length 0:00:00.58

Peak level 100.0 %
Extraction speed 1.5 X
Track quality 100.0 %
Test CRC 6ED321BB
Copy CRC 6ED321BB
Accurately ripped (confidence 2) [8FC5D69E] (AR v2)
Copy OK

Track 13

Filename C:\Program Files (x86)\Exact Audio Copy\Flac\13. I Found My World In You.wav

Pre-gap length 0:00:00.58

Peak level 100.0 %
Extraction speed 1.5 X
Track quality 99.9 %
Test CRC 6D4A57DA
Copy CRC 6D4A57DA
Accurately ripped (confidence 2) [152BB4AE] (AR v2)
Copy OK

Track 14

Filename C:\Program Files (x86)\Exact Audio Copy\Flac\14. You're Knockin' Me Out.wav

Pre-gap length 0:00:00.58

Peak level 100.0 %
Extraction speed 1.7 X
Track quality 100.0 %
Test CRC AF982166
Copy CRC AF982166
Accurately ripped (confidence 2) [0B69F84F] (AR v2)
Copy OK

Track 15

Filename C:\Program Files (x86)\Exact Audio Copy\Flac\15. Fallin'.wav

Pre-gap length 0:00:00.58

Peak level 100.0 %
Extraction speed 1.7 X
Track quality 100.0 %
Test CRC 7862F080
Copy CRC 7862F080
Accurately ripped (confidence 2) [8608724D] (AR v2)
Copy OK

Track 16

Filename C:\Program Files (x86)\Exact Audio Copy\Flac\16. You Took Advantage Of Me.wav

Pre-gap length 0:00:00.58

Peak level 100.0 %
Extraction speed 1.8 X
Track quality 100.0 %
Test CRC 24EBA608
Copy CRC 24EBA608
Accurately ripped (confidence 2) [0888D233] (AR v2)
Copy OK

Track 17

Filename C:\Program Files (x86)\Exact Audio Copy\Flac\17. Smile.wav

Pre-gap length 0:00:00.58

Peak level 93.5 %
Extraction speed 1.9 X
Track quality 100.0 %
Test CRC C19C3807
Copy CRC C19C3807
Accurately ripped (confidence 2) [2C381DDA] (AR v2)
Copy OK


All tracks accurately ripped

No errors occurred

End of status report

–– CUETools DB Plugin V2.1.6

[CTDB TOCID: O5SJ7xVNRepOS_DGsfaiLUPynY8-] found
Submit result: O5SJ7xVNRepOS_DGsfaiLUPynY8- has been confirmed
Track | CTDB Status
1 | (14/14) Accurately ripped
2 | (14/14) Accurately ripped
3 | (14/14) Accurately ripped
4 | (14/14) Accurately ripped
5 | (14/14) Accurately ripped
6 | (14/14) Accurately ripped
7 | (14/14) Accurately ripped
8 | (14/14) Accurately ripped
9 | (14/14) Accurately ripped
10 | (14/14) Accurately ripped
11 | (14/14) Accurately ripped
12 | (14/14) Accurately ripped
13 | (14/14) Accurately ripped
14 | (14/14) Accurately ripped
15 | (14/14) Accurately ripped
16 | (14/14) Accurately ripped
17 | (14/14) Accurately ripped


==== Log checksum D809739DD07F05DE5307474C41504C8D8F2380D7F338BD44BD0EB60616386E1F ====

Exact Audio Copy V1.3 from 2. September 2016

EAC extraction logfile from 22. June 2017, 17:50

Neil Sedaka / The Real Neil Sedaka (CD2)

Used drive : TSSTcorpCDDVDW SE-208AB Adapter: 2 ID: 0

Read mode : Secure
Utilize accurate stream : Yes
Defeat audio cache : Yes
Make use of C2 pointers : No

Read offset correction : 6
Overread into Lead-In and Lead-Out : No
Fill up missing offset samples with silence : Yes
Delete leading and trailing silent blocks : No
Null samples used in CRC calculations : Yes
Used interface : Installed external ASPI interface
Gap handling : Appended to previous track

Used output format : User Defined Encoder
Selected bitrate : 768 kBit/s
Quality : High
Add ID3 tag : No
Command line compressor : C:\Program Files (x86)\Exact Audio Copy\Flac\flac.exe
Additional command line options : -8 -V -T "ARTIST=%artist%" -T "TITLE=%title%" -T "ALBUM=%albumtitle%" -T "DATE=%year%" -T "TRACKNUMBER=%tracknr%" -T "GENRE=%genre%" -T "COMMENT=%comment%" -T "BAND=%albuminterpret%" -T "ALBUMARTIST=%albuminterpret%" -T "COMPOSER=%composer%" %haslyrics%–tag-from-file=LYRICS="%lyricsfile%"%haslyrics% -T "DISCNUMBER=%cdnumber%" -T "TOTALDISCS=%totalcds%" -T "TOTALTRACKS=%numtracks%" %hascover%–picture="%coverfile%"%hascover% %source% -o %dest%


TOC of the extracted CD

Track | Start | Length | Start sector | End sector
––––––––––––––––––––––––––––-
1 | 0:00.00 | 2:37.55 | 0 | 11829
2 | 2:37.55 | 2:38.49 | 11830 | 23728
3 | 5:16.29 | 2:17.12 | 23729 | 34015
4 | 7:33.41 | 2:24.42 | 34016 | 44857
5 | 9:58.08 | 2:38.51 | 44858 | 56758
6 | 12:36.59 | 2:31.28 | 56759 | 68111
7 | 15:08.12 | 2:44.74 | 68112 | 80485
8 | 17:53.11 | 2:45.45 | 80486 | 92905
9 | 20:38.56 | 2:30.50 | 92906 | 104205
10 | 23:09.31 | 3:05.18 | 104206 | 118098
11 | 26:14.49 | 3:09.31 | 118099 | 132304
12 | 29:24.05 | 2:38.18 | 132305 | 144172
13 | 32:02.23 | 2:49.34 | 144173 | 156881
14 | 34:51.57 | 3:47.07 | 156882 | 173913
15 | 38:38.64 | 2:34.50 | 173914 | 185513
16 | 41:13.39 | 3:23.05 | 185514 | 200743
17 | 44:36.44 | 2:05.01 | 200744 | 210119


Track 1

Filename C:\Program Files (x86)\Exact Audio Copy\Flac\01. Happy Birthday, Sweet Sixteen.wav

Pre-gap length 0:00:02.00

Peak level 95.5 %
Extraction speed 1.0 X
Track quality 100.0 %
Test CRC 5A4CBA46
Copy CRC 5A4CBA46
Accurately ripped (confidence 1) [ED4B84EC] (AR v2)
Copy OK

Track 2

Filename C:\Program Files (x86)\Exact Audio Copy\Flac\02. King Of Clowns.wav

Pre-gap length 0:00:00.58

Peak level 97.7 %
Extraction speed 1.1 X
Track quality 100.0 %
Test CRC 2A892E6E
Copy CRC 2A892E6E
Accurately ripped (confidence 1) [FAF57FEA] (AR v2)
Copy OK

Track 3

Filename C:\Program Files (x86)\Exact Audio Copy\Flac\03. Breaking Up Is Hard To Do.wav

Pre-gap length 0:00:00.58

Peak level 97.7 %
Extraction speed 1.1 X
Track quality 100.0 %
Test CRC 13D363E1
Copy CRC 13D363E1
Accurately ripped (confidence 1) [80AAF408] (AR v2)
Copy OK

Track 4

Filename C:\Program Files (x86)\Exact Audio Copy\Flac\04. Next Door To An Angel.wav

Pre-gap length 0:00:00.58

Peak level 100.0 %
Extraction speed 1.2 X
Track quality 100.0 %
Test CRC 9A07A3DA
Copy CRC 9A07A3DA
Accurately ripped (confidence 1) [C353EFC5] (AR v2)
Copy OK

Track 5

Filename C:\Program Files (x86)\Exact Audio Copy\Flac\05. I Belong To You.wav

Pre-gap length 0:00:00.58

Peak level 95.5 %
Extraction speed 1.1 X
Track quality 99.9 %
Test CRC D9F7B1F4
Copy CRC D9F7B1F4
Accurately ripped (confidence 1) [F16F44D5] (AR v2)
Copy OK

Track 6

Filename C:\Program Files (x86)\Exact Audio Copy\Flac\06. Alice In Wonderland.wav

Pre-gap length 0:00:00.58

Peak level 97.7 %
Extraction speed 1.1 X
Track quality 99.9 %
Test CRC 64E2BA86
Copy CRC 64E2BA86
Accurately ripped (confidence 1) [4C9852CD] (AR v2)
Copy OK

Track 7

Filename C:\Program Files (x86)\Exact Audio Copy\Flac\07. Circulate.wav

Pre-gap length 0:00:00.58

Peak level 97.7 %
Extraction speed 1.2 X
Track quality 99.9 %
Test CRC ED80C0C6
Copy CRC ED80C0C6
Accurately ripped (confidence 1) [537ED779] (AR v2)
Copy OK

Track 8

Filename C:\Program Files (x86)\Exact Audio Copy\Flac\08. Let's Go Steady Again.wav

Pre-gap length 0:00:00.58

Peak level 97.7 %
Extraction speed 1.5 X
Track quality 100.0 %
Test CRC 4BDF7B0F
Copy CRC 4BDF7B0F
Accurately ripped (confidence 1) [0C8A73DF] (AR v2)
Copy OK

Track 9

Filename C:\Program Files (x86)\Exact Audio Copy\Flac\09. Waiting Forever.wav

Pre-gap length 0:00:00.58

Peak level 97.7 %
Extraction speed 1.5 X
Track quality 100.0 %
Test CRC D47F7A64
Copy CRC D47F7A64
Accurately ripped (confidence 1) [1D019FFC] (AR v2)
Copy OK

Track 10

Filename C:\Program Files (x86)\Exact Audio Copy\Flac\10. The Dreamer.wav

Pre-gap length 0:00:00.58

Peak level 97.7 %
Extraction speed 1.4 X
Track quality 99.9 %
Test CRC A94B58FD
Copy CRC A94B58FD
Accurately ripped (confidence 1) [3A1662FC] (AR v2)
Copy OK

Track 11

Filename C:\Program Files (x86)\Exact Audio Copy\Flac\11. Look Inside Your Heart.wav

Pre-gap length 0:00:00.58

Peak level 97.7 %
Extraction speed 1.7 X
Track quality 100.0 %
Test CRC F5BF9E09
Copy CRC F5BF9E09
Accurately ripped (confidence 1) [34CAD180] (AR v2)
Copy OK

Track 12

Filename C:\Program Files (x86)\Exact Audio Copy\Flac\12. Bad Girl.wav

Pre-gap length 0:00:00.58

Peak level 100.0 %
Extraction speed 1.7 X
Track quality 100.0 %
Test CRC 5999CDD9
Copy CRC 5999CDD9
Accurately ripped (confidence 1) [F9B0123A] (AR v2)
Copy OK

Track 13

Filename C:\Program Files (x86)\Exact Audio Copy\Flac\13. Wail 'Till i See My Baby.wav

Pre-gap length 0:00:00.58

Peak level 100.0 %
Extraction speed 1.7 X
Track quality 100.0 %
Test CRC F75CF0D1
Copy CRC F75CF0D1
Accurately ripped (confidence 1) [01289BE1] (AR v2)
Copy OK

Track 14

Filename C:\Program Files (x86)\Exact Audio Copy\Flac\14. Without A Song.wav

Pre-gap length 0:00:00.58

Peak level 96.6 %
Extraction speed 1.7 X
Track quality 99.9 %
Test CRC 88DEF082
Copy CRC 88DEF082
Accurately ripped (confidence 1) [D8E34C5D] (AR v2)
Copy OK

Track 15

Filename C:\Program Files (x86)\Exact Audio Copy\Flac\15. Sunny.wav

Pre-gap length 0:00:00.58

Peak level 100.0 %
Extraction speed 1.5 X
Track quality 99.9 %
Test CRC 2F1EC18E
Copy CRC 2F1EC18E
Accurately ripped (confidence 1) [9D48527B] (AR v2)
Copy OK

Track 16

Filename C:\Program Files (x86)\Exact Audio Copy\Flac\16. The World Through A Tear.wav

Pre-gap length 0:00:00.58

Peak level 100.0 %
Extraction speed 2.0 X
Track quality 100.0 %
Test CRC F5A77FD4
Copy CRC F5A77FD4
Accurately ripped (confidence 1) [BB4A17AE] (AR v2)
Copy OK

Track 17

Filename C:\Program Files (x86)\Exact Audio Copy\Flac\17. The Answer To My Prayer.wav

Pre-gap length 0:00:00.58

Peak level 100.0 %
Extraction speed 1.9 X
Track quality 100.0 %
Test CRC DCFD38EB
Copy CRC DCFD38EB
Accurately ripped (confidence 1) [4DCEA62C] (AR v2)
Copy OK


All tracks accurately ripped

No errors occurred

End of status report

–– CUETools DB Plugin V2.1.6

[CTDB TOCID: wxIosNZPM9aSTYg5QAOIXpERvWI-] found
Submit result: wxIosNZPM9aSTYg5QAOIXpERvWI- has been confirmed
Track | CTDB Status
1 | (11/11) Accurately ripped
2 | (11/11) Accurately ripped
3 | (11/11) Accurately ripped
4 | (11/11) Accurately ripped
5 | (11/11) Accurately ripped
6 | (11/11) Accurately ripped
7 | (11/11) Accurately ripped
8 | (11/11) Accurately ripped
9 | (11/11) Accurately ripped
10 | (11/11) Accurately ripped
11 | (11/11) Accurately ripped
12 | (11/11) Accurately ripped
13 | (11/11) Accurately ripped
14 | (11/11) Accurately ripped
15 | (11/11) Accurately ripped
16 | (11/11) Accurately ripped
17 | (11/11) Accurately ripped


==== Log checksum 31AC7D1984E8539ADDCD954620A8F8673C49DEE33A8A67A37E3128ABAFD51D5E ====

Exact Audio Copy V1.3 from 2. September 2016

EAC extraction logfile from 22. June 2017, 19:10

Neil Sedaka / The Real Neil Sedaka (CD3)

Used drive : TSSTcorpCDDVDW SE-208AB Adapter: 2 ID: 0

Read mode : Secure
Utilize accurate stream : Yes
Defeat audio cache : Yes
Make use of C2 pointers : No

Read offset correction : 6
Overread into Lead-In and Lead-Out : No
Fill up missing offset samples with silence : Yes
Delete leading and trailing silent blocks : No
Null samples used in CRC calculations : Yes
Used interface : Installed external ASPI interface
Gap handling : Appended to previous track

Used output format : User Defined Encoder
Selected bitrate : 768 kBit/s
Quality : High
Add ID3 tag : No
Command line compressor : C:\Program Files (x86)\Exact Audio Copy\Flac\flac.exe
Additional command line options : -8 -V -T "ARTIST=%artist%" -T "TITLE=%title%" -T "ALBUM=%albumtitle%" -T "DATE=%year%" -T "TRACKNUMBER=%tracknr%" -T "GENRE=%genre%" -T "COMMENT=%comment%" -T "BAND=%albuminterpret%" -T "ALBUMARTIST=%albuminterpret%" -T "COMPOSER=%composer%" %haslyrics%–tag-from-file=LYRICS="%lyricsfile%"%haslyrics% -T "DISCNUMBER=%cdnumber%" -T "TOTALDISCS=%totalcds%" -T "TOTALTRACKS=%numtracks%" %hascover%–picture="%coverfile%"%hascover% %source% -o %dest%


TOC of the extracted CD

Track | Start | Length | Start sector | End sector
––––––––––––––––––––––––––––-
1 | 0:00.00 | 2:11.32 | 0 | 9856
2 | 2:11.32 | 3:20.11 | 9857 | 24867
3 | 5:31.43 | 2:33.32 | 24868 | 36374
4 | 8:05.00 | 2:52.62 | 36375 | 49336
5 | 10:57.62 | 3:52.62 | 49337 | 66798
6 | 14:50.49 | 2:54.58 | 66799 | 79906
7 | 17:45.32 | 2:24.68 | 79907 | 90774
8 | 20:10.25 | 3:41.44 | 90775 | 107393
9 | 23:51.69 | 2:38.62 | 107394 | 119305
10 | 26:30.56 | 2:51.43 | 119306 | 132173
11 | 29:22.24 | 2:23.50 | 132174 | 142948
12 | 31:45.74 | 3:18.11 | 142949 | 157809
13 | 35:04.10 | 4:11.46 | 157810 | 176680
14 | 39:15.56 | 5:07.64 | 176681 | 199769
15 | 44:23.45 | 4:12.01 | 199770 | 218670
16 | 48:35.46 | 3:20.26 | 218671 | 233696
17 | 51:55.72 | 5:04.74 | 233697 | 256570


Track 1

Filename C:\Program Files (x86)\Exact Audio Copy\Flac\01. Another Sleepless Night.wav

Pre-gap length 0:00:02.00

Peak level 100.0 %
Extraction speed 1.0 X
Track quality 100.0 %
Test CRC 7E238D4A
Copy CRC 7E238D4A
Accurately ripped (confidence 1) [2F61FC21] (AR v2)
Copy OK

Track 2

Filename C:\Program Files (x86)\Exact Audio Copy\Flac\02. All The Way.wav

Pre-gap length 0:00:00.58

Peak level 92.2 %
Extraction speed 1.0 X
Track quality 99.9 %
Test CRC D9D2A170
Copy CRC D9D2A170
Accurately ripped (confidence 1) [49F8E0A5] (AR v2)
Copy OK

Track 3

Filename C:\Program Files (x86)\Exact Audio Copy\Flac\03. We Kiss In A Shadow.wav

Pre-gap length 0:00:00.58

Peak level 100.0 %
Extraction speed 1.1 X
Track quality 100.0 %
Test CRC 0BDC2D13
Copy CRC 0BDC2D13
Accurately ripped (confidence 1) [95E2E4F4] (AR v2)
Copy OK

Track 4

Filename C:\Program Files (x86)\Exact Audio Copy\Flac\04. A Felicidada.wav

Pre-gap length 0:00:00.58

Peak level 100.0 %
Extraction speed 1.3 X
Track quality 100.0 %
Test CRC 6BE9694B
Copy CRC 6BE9694B
Accurately ripped (confidence 1) [BAFC9C38] (AR v2)
Copy OK

Track 5

Filename C:\Program Files (x86)\Exact Audio Copy\Flac\05. Angel Eyes.wav

Pre-gap length 0:00:00.58

Peak level 98.8 %
Extraction speed 1.4 X
Track quality 100.0 %
Test CRC 2051F72C
Copy CRC 2051F72C
Accurately ripped (confidence 1) [D056FB54] (AR v2)
Copy OK

Track 6

Filename C:\Program Files (x86)\Exact Audio Copy\Flac\06. Don't Lead Me On.wav

Pre-gap length 0:00:00.58

Peak level 97.7 %
Extraction speed 1.4 X
Track quality 100.0 %
Test CRC 25D4FB98
Copy CRC 25D4FB98
Accurately ripped (confidence 1) [FB2076EE] (AR v2)
Copy OK

Track 7

Filename C:\Program Files (x86)\Exact Audio Copy\Flac\07. What Am I Gonna Do.wav

Pre-gap length 0:00:00.58

Peak level 100.0 %
Extraction speed 1.4 X
Track quality 100.0 %
Test CRC 7A203568
Copy CRC 7A203568
Accurately ripped (confidence 1) [8C176BC5] (AR v2)
Copy OK

Track 8

Filename C:\Program Files (x86)\Exact Audio Copy\Flac\08. Fly me To The Moon.wav

Pre-gap length 0:00:00.58

Peak level 100.0 %
Extraction speed 1.6 X
Track quality 100.0 %
Test CRC 7F573A25
Copy CRC 7F573A25
Accurately ripped (confidence 1) [09FADFE5] (AR v2)
Copy OK

Track 9

Filename C:\Program Files (x86)\Exact Audio Copy\Flac\09. I'll Be Seeing You.wav

Pre-gap length 0:00:00.58

Peak level 100.0 %
Extraction speed 1.6 X
Track quality 100.0 %
Test CRC 286A66B7
Copy CRC 286A66B7
Accurately ripped (confidence 1) [09FB2A9B] (AR v2)
Copy OK

Track 10

Filename C:\Program Files (x86)\Exact Audio Copy\Flac\10. Because Of You.wav

Pre-gap length 0:00:00.58

Peak level 100.0 %
Extraction speed 1.7 X
Track quality 100.0 %
Test CRC E73667BC
Copy CRC E73667BC
Accurately ripped (confidence 1) [511096C4] (AR v2)
Copy OK

Track 11

Filename C:\Program Files (x86)\Exact Audio Copy\Flac\11. Blue Boy.wav

Pre-gap length 0:00:00.58

Peak level 100.0 %
Extraction speed 1.7 X
Track quality 100.0 %
Test CRC 8AE5EBEE
Copy CRC 8AE5EBEE
Accurately ripped (confidence 1) [A21F0E4F] (AR v2)
Copy OK

Track 12

Filename C:\Program Files (x86)\Exact Audio Copy\Flac\12. I'm A Song, Sing Me.wav

Pre-gap length 0:00:00.58

Peak level 100.0 %
Extraction speed 1.8 X
Track quality 100.0 %
Test CRC CA2D60D8
Copy CRC CA2D60D8
Accurately ripped (confidence 1) [60A7EA5C] (AR v2)
Copy OK

Track 13

Filename C:\Program Files (x86)\Exact Audio Copy\Flac\13. Superbird.wav

Pre-gap length 0:00:00.58

Peak level 100.0 %
Extraction speed 1.9 X
Track quality 100.0 %
Test CRC 79DD7808
Copy CRC 79DD7808
Accurately ripped (confidence 1) [C7C9EA4F] (AR v2)
Copy OK

Track 14

Filename C:\Program Files (x86)\Exact Audio Copy\Flac\14. Cardboard California.wav

Pre-gap length 0:00:00.58

Peak level 100.0 %
Extraction speed 2.1 X
Track quality 100.0 %
Test CRC B5FC80B9
Copy CRC B5FC80B9
Accurately ripped (confidence 1) [4032A53E] (AR v2)
Copy OK

Track 15

Filename C:\Program Files (x86)\Exact Audio Copy\Flac\15. Silent Movies.wav

Pre-gap length 0:00:00.58

Peak level 94.7 %
Extraction speed 1.9 X
Track quality 99.9 %
Test CRC CED2C3DE
Copy CRC CED2C3DE
Accurately ripped (confidence 1) [95B6D920] (AR v2)
Copy OK

Track 16

Filename C:\Program Files (x86)\Exact Audio Copy\Flac\16. Beautiful Mind.wav

Pre-gap length 0:00:00.58

Peak level 96.6 %
Extraction speed 2.1 X
Track quality 100.0 %
Test CRC CE28F0E5
Copy CRC CE28F0E5
Accurately ripped (confidence 1) [C28A9E4A] (AR v2)
Copy OK

Track 17

Filename C:\Program Files (x86)\Exact Audio Copy\Flac\17. Solitaire.wav

Pre-gap length 0:00:00.58

Peak level 100.0 %
Extraction speed 2.3 X
Track quality 100.0 %
Test CRC D293B711
Copy CRC D293B711
Accurately ripped (confidence 1) [CBF654F6] (AR v2)
Copy OK


All tracks accurately ripped

No errors occurred

End of status report

–– CUETools DB Plugin V2.1.6

[CTDB TOCID: lksrvtvvPzGL24NjMJygkXRYHMM-] found
Submit result: lksrvtvvPzGL24NjMJygkXRYHMM- has been confirmed
Track | CTDB Status
1 | (11/11) Accurately ripped
2 | (11/11) Accurately ripped
3 | (11/11) Accurately ripped
4 | (11/11) Accurately ripped
5 | (11/11) Accurately ripped
6 | (11/11) Accurately ripped
7 | (11/11) Accurately ripped
8 | (11/11) Accurately ripped
9 | (11/11) Accurately ripped
10 | (11/11) Accurately ripped
11 | (11/11) Accurately ripped
12 | (11/11) Accurately ripped
13 | (11/11) Accurately ripped
14 | (11/11) Accurately ripped
15 | (11/11) Accurately ripped
16 | (11/11) Accurately ripped
17 | (11/11) Accurately ripped


==== Log checksum F51998A8074251D35B639DD0886559DEACD32AE82397267146F9A5AAA66BBD53 ====

Thanks to the Original ripper Buddy007 !