Subcategories

The Residents - Cube-E (The History Of American Music In 3 E-Z Pieces) - Live In Holland (1990) {Torso CD169}

Posted By: ruskaval
The Residents - Cube-E (The History Of American Music In 3 E-Z Pieces) - Live In Holland (1990) {Torso CD169}

The Residents - Cube-E (The History Of American Music In 3 E-Z Pieces) - Live In Holland (1990) {Torso CD169}
EAC rip (secure mode) | FLAC (tracks)+CUE+LOG -> 425 Mb | MP3 @320 -> 170 Mb
Full Artwork @ 300 dpi (png) -> 30 Mb | 5% repair rar
© 1990 Torso / Cryptic | TORSO CD169
Avant-Garde Rock / Experimental / Alternative / No Wave / Mix Media

In 1990, the Residents took their grand examination of rock & roll on the road, touring the world with the Cube E tour. The first half found the group reciting cowboy poems to a soundtrack influenced more by Copland and Orff than country & western, then followed with a group of blues, field hollers, and warped jazz that represented the African-American experience. By intermission, the two had combined into rock music, which in the second half was disseminated by an aging Elvis impersonator tearing through Presley covers (essentially a live version of their 1989 album The King and Eye). The staging, costumes, lights, and general performance were not to be missed, and earned justifiable rave reviews.

The tour document, an intelligent 70-minute compression of the 90-plus minute show (gone are most of the between song chats with two ventriloquist dummies in the Elvis section, as well as some of the songs) suffers from rather tinny and normalized sound, from what was a very dynamic performance. There are some better versions of the live Elvis material scattered on various CDs (Stranger Than Supper and the out of print Daydream B-Liver), but if this is the version listeners have to keep, then so be it. "Black Barry" is one of the group's best compositions, and it's here in its entirety: that should be enough to recommend it.
The Residents - Cube-E (The History Of American Music In 3 E-Z Pieces) - Live In Holland (1990) {Torso CD169}


tracklist:
01 - From The Plains To Mexico
02 - The Theme From Buckaroo Blues
03 - The Stampede
04 - The Trail Dance
05 - Bury Me Not
06 - Cowboy Waltz
07 - Saddle Sores
08 - The Theme From Buckaroo Blues (Reprise)
09 - The Gospel Truth
10 - Shortnin' Bread
11 - Black Barry
12 - Fourty-Four
13 - Engine 44
14 - New Orleans
15 - Voodoo Queen
16 - What Am In Gonna Do
17 - Organsim
18 - Ober
19 - The Baby King 1
20 - Don't Be Cruel
21 - Devil In Disguise
22 - Burning Love
23 - Teddy Bear
24 - Love Me Tender
25 - The Baby King 11
26 - Hound Dog,Out

Exact Audio Copy V1.2 from 12. August 2016

EAC extraction logfile from 8. October 2017, 17:23

The Residents / Cube-E

Used drive : TSSTcorpCDDVDW SH-224DB Adapter: 1 ID: 0

Read mode : Secure
Utilize accurate stream : Yes
Defeat audio cache : Yes
Make use of C2 pointers : No

Read offset correction : 6
Overread into Lead-In and Lead-Out : No
Fill up missing offset samples with silence : Yes
Delete leading and trailing silent blocks : No
Null samples used in CRC calculations : Yes
Used interface : Native Win32 interface for Win NT & 2000
Gap handling : Appended to previous track

Used output format : User Defined Encoder
Selected bitrate : 896 kBit/s
Quality : High
Add ID3 tag : No
Command line compressor : C:\Program Files (x86)\Exact Audio Copy\Flac\flac.exe
Additional command line options : -8 -V -T "ARTIST=%artist%" -T "TITLE=%title%" -T "ALBUM=%albumtitle%" -T "DATE=%year%" -T "TRACKNUMBER=%tracknr%" -T "TOTALTRACKS=%numtracks%" -T "GENRE=%genre%" -T "ALBUMARTIST=%albumartist%" -T "ALBUM ARTIST=%albumartist%" -T "COMMENT=EAC Secure Mode, Test & Copy, AccurateRip, FLAC -8" %source%


TOC of the extracted CD

Track | Start | Length | Start sector | End sector
––––––––––––––––––––––––––––-
1 | 0:00.32 | 4:11.58 | 32 | 18914
2 | 4:12.15 | 1:58.05 | 18915 | 27769
3 | 6:10.20 | 4:33.42 | 27770 | 48286
4 | 10:43.62 | 1:35.08 | 48287 | 55419
5 | 12:18.70 | 3:02.12 | 55420 | 69081
6 | 15:21.07 | 1:09.68 | 69082 | 74324
7 | 16:31.00 | 1:46.45 | 74325 | 82319
8 | 18:17.45 | 2:27.20 | 82320 | 93364
9 | 20:44.65 | 2:26.42 | 93365 | 104356
10 | 23:11.32 | 1:40.65 | 104357 | 111921
11 | 24:52.22 | 0:27.20 | 111922 | 113966
12 | 25:19.42 | 3:00.03 | 113967 | 127469
13 | 28:19.45 | 1:41.37 | 127470 | 135081
14 | 30:01.07 | 0:52.08 | 135082 | 138989
15 | 30:53.15 | 3:05.02 | 138990 | 152866
16 | 33:58.17 | 2:58.05 | 152867 | 166221
17 | 36:56.22 | 3:58.70 | 166222 | 184141
18 | 40:55.17 | 7:36.58 | 184142 | 218399
19 | 48:32.00 | 1:48.37 | 218400 | 226536
20 | 50:20.37 | 2:25.48 | 226537 | 237459
21 | 52:46.10 | 2:42.60 | 237460 | 249669
22 | 55:28.70 | 3:01.57 | 249670 | 263301
23 | 58:30.52 | 3:51.20 | 263302 | 280646
24 | 62:21.72 | 5:01.65 | 280647 | 303286
25 | 67:23.62 | 1:17.05 | 303287 | 309066
26 | 68:40.67 | 3:39.73 | 309067 | 325564


Track 1

Filename E:\Musica\The Residents\The Residents - Cube E, Live in Holland (1990) [FLAC]\01 - From The Plains To Mexico.wav

Pre-gap length 0:00:02.32

Peak level 99.9 %
Extraction speed 2.0 X
Track quality 100.0 %
Test CRC 944893F3
Copy CRC 944893F3
Accurately ripped (confidence 4) [C760F378] (AR v2)
Copy OK

Track 2

Filename E:\Musica\The Residents\The Residents - Cube E, Live in Holland (1990) [FLAC]\02 - The Theme From Buckaroo Blues.wav

Peak level 97.2 %
Extraction speed 1.8 X
Track quality 100.0 %
Test CRC BFA3055A
Copy CRC BFA3055A
Accurately ripped (confidence 5) [4E60CE0B] (AR v2)
Copy OK

Track 3

Filename E:\Musica\The Residents\The Residents - Cube E, Live in Holland (1990) [FLAC]\03 - The Stampede.wav

Peak level 100.0 %
Extraction speed 1.8 X
Track quality 99.9 %
Test CRC FB0E26AF
Copy CRC FB0E26AF
Accurately ripped (confidence 5) [396B632A] (AR v2)
Copy OK

Track 4

Filename E:\Musica\The Residents\The Residents - Cube E, Live in Holland (1990) [FLAC]\04 - The Trail Dance.wav

Peak level 45.9 %
Extraction speed 1.7 X
Track quality 100.0 %
Test CRC ACA32E83
Copy CRC ACA32E83
Accurately ripped (confidence 5) [64286919] (AR v2)
Copy OK

Track 5

Filename E:\Musica\The Residents\The Residents - Cube E, Live in Holland (1990) [FLAC]\05 - Bury Me Not.wav

Peak level 85.6 %
Extraction speed 2.0 X
Track quality 100.0 %
Test CRC 620F034A
Copy CRC 620F034A
Accurately ripped (confidence 5) [C308EEAB] (AR v2)
Copy OK

Track 6

Filename E:\Musica\The Residents\The Residents - Cube E, Live in Holland (1990) [FLAC]\06 - Cowboy Waltz.wav

Peak level 86.6 %
Extraction speed 1.5 X
Track quality 100.0 %
Test CRC E6A094C5
Copy CRC E6A094C5
Accurately ripped (confidence 5) [7A2F2771] (AR v2)
Copy OK

Track 7

Filename E:\Musica\The Residents\The Residents - Cube E, Live in Holland (1990) [FLAC]\07 - Saddle Sores.wav

Peak level 63.1 %
Extraction speed 1.4 X
Track quality 99.9 %
Test CRC 3CBB9AA0
Copy CRC 3CBB9AA0
Accurately ripped (confidence 5) [22A68A32] (AR v2)
Copy OK

Track 8

Filename E:\Musica\The Residents\The Residents - Cube E, Live in Holland (1990) [FLAC]\08 - The Theme From Buckaroo Blues (Reprise).wav

Peak level 100.0 %
Extraction speed 1.8 X
Track quality 100.0 %
Test CRC 6CA4B24E
Copy CRC 6CA4B24E
Accurately ripped (confidence 5) [B4750D9A] (AR v2)
Copy OK

Track 9

Filename E:\Musica\The Residents\The Residents - Cube E, Live in Holland (1990) [FLAC]\09 - The Gospel Truth.wav

Pre-gap length 0:00:10.48

Peak level 58.5 %
Extraction speed 1.9 X
Track quality 100.0 %
Test CRC 917FF912
Copy CRC 917FF912
Accurately ripped (confidence 5) [A04D3195] (AR v2)
Copy OK

Track 10

Filename E:\Musica\The Residents\The Residents - Cube E, Live in Holland (1990) [FLAC]\10 - Shortnin' Bread.wav

Peak level 100.0 %
Extraction speed 1.7 X
Track quality 100.0 %
Test CRC 84A23556
Copy CRC 84A23556
Cannot be verified as accurate (confidence 5) [21A438E7], AccurateRip returned [E40BDD49] (AR v2)
Copy OK

Track 11

Filename E:\Musica\The Residents\The Residents - Cube E, Live in Holland (1990) [FLAC]\11 - Black Barry.wav

Peak level 31.3 %
Extraction speed 1.0 X
Track quality 100.0 %
Test CRC 5FF4F667
Copy CRC 5FF4F667
Accurately ripped (confidence 5) [CCBA81A2] (AR v2)
Copy OK

Track 12

Filename E:\Musica\The Residents\The Residents - Cube E, Live in Holland (1990) [FLAC]\12 - Fourty-Four.wav

Peak level 99.9 %
Extraction speed 2.0 X
Track quality 100.0 %
Test CRC 3470D3F2
Copy CRC 3470D3F2
Accurately ripped (confidence 5) [0FFEF162] (AR v2)
Copy OK

Track 13

Filename E:\Musica\The Residents\The Residents - Cube E, Live in Holland (1990) [FLAC]\13 - Engine 44.wav

Peak level 89.7 %
Extraction speed 1.7 X
Track quality 100.0 %
Test CRC 1852A6AB
Copy CRC 1852A6AB
Accurately ripped (confidence 5) [8B5AF0A7] (AR v2)
Copy OK

Track 14

Filename E:\Musica\The Residents\The Residents - Cube E, Live in Holland (1990) [FLAC]\14 - New Orleans.wav

Peak level 63.5 %
Extraction speed 1.0 X
Track quality 99.7 %
Test CRC BA2DC608
Copy CRC BA2DC608
Accurately ripped (confidence 5) [915DFC7D] (AR v2)
Copy OK

Track 15

Filename E:\Musica\The Residents\The Residents - Cube E, Live in Holland (1990) [FLAC]\15 - Voodoo Queen.wav

Peak level 100.0 %
Extraction speed 2.0 X
Track quality 100.0 %
Test CRC F77144A6
Copy CRC F77144A6
Accurately ripped (confidence 5) [A7F9C0E2] (AR v2)
Copy OK

Track 16

Filename E:\Musica\The Residents\The Residents - Cube E, Live in Holland (1990) [FLAC]\16 - What Am In Gonna Do.wav

Peak level 95.9 %
Extraction speed 2.0 X
Track quality 100.0 %
Test CRC 414CCE7F
Copy CRC 414CCE7F
Accurately ripped (confidence 5) [532A3E38] (AR v2)
Copy OK

Track 17

Filename E:\Musica\The Residents\The Residents - Cube E, Live in Holland (1990) [FLAC]\17 - Organsim.wav

Peak level 99.9 %
Extraction speed 2.1 X
Track quality 100.0 %
Test CRC 93F605A9
Copy CRC 93F605A9
Accurately ripped (confidence 5) [082F4F1B] (AR v2)
Copy OK

Track 18

Filename E:\Musica\The Residents\The Residents - Cube E, Live in Holland (1990) [FLAC]\18 - Ober.wav

Pre-gap length 0:00:09.65

Peak level 78.8 %
Extraction speed 2.2 X
Track quality 100.0 %
Test CRC 4852A251
Copy CRC 4852A251
Accurately ripped (confidence 5) [4D1C252A] (AR v2)
Copy OK

Track 19

Filename E:\Musica\The Residents\The Residents - Cube E, Live in Holland (1990) [FLAC]\19 - The Baby King 1.wav

Peak level 36.4 %
Extraction speed 1.8 X
Track quality 100.0 %
Test CRC 617B739C
Copy CRC 617B739C
Accurately ripped (confidence 5) [D783C270] (AR v2)
Copy OK

Track 20

Filename E:\Musica\The Residents\The Residents - Cube E, Live in Holland (1990) [FLAC]\20 - Don't Be Cruel.wav

Peak level 87.5 %
Extraction speed 2.0 X
Track quality 100.0 %
Test CRC 58976760
Copy CRC 58976760
Accurately ripped (confidence 4) [1CF253F9] (AR v2)
Copy OK

Track 21

Filename E:\Musica\The Residents\The Residents - Cube E, Live in Holland (1990) [FLAC]\21 - Devil In Disguise.wav

Peak level 93.8 %
Extraction speed 2.0 X
Track quality 100.0 %
Test CRC DE81A338
Copy CRC DE81A338
Accurately ripped (confidence 5) [B21E8E1C] (AR v2)
Copy OK

Track 22

Filename E:\Musica\The Residents\The Residents - Cube E, Live in Holland (1990) [FLAC]\22 - Burning Love.wav

Peak level 99.9 %
Extraction speed 2.0 X
Track quality 100.0 %
Test CRC C71D95E2
Copy CRC C71D95E2
Accurately ripped (confidence 5) [D56F83FE] (AR v2)
Copy OK

Track 23

Filename E:\Musica\The Residents\The Residents - Cube E, Live in Holland (1990) [FLAC]\23 - Teddy Bear.wav

Peak level 100.0 %
Extraction speed 2.0 X
Track quality 100.0 %
Test CRC 041F1936
Copy CRC 041F1936
Accurately ripped (confidence 5) [5B2FF292] (AR v2)
Copy OK

Track 24

Filename E:\Musica\The Residents\The Residents - Cube E, Live in Holland (1990) [FLAC]\24 - Love Me Tender.wav

Peak level 100.0 %
Extraction speed 2.1 X
Track quality 100.0 %
Test CRC B659CD00
Copy CRC B659CD00
Accurately ripped (confidence 5) [82DE57E7] (AR v2)
Copy OK

Track 25

Filename E:\Musica\The Residents\The Residents - Cube E, Live in Holland (1990) [FLAC]\25 - The Baby King 11.wav

Peak level 72.3 %
Extraction speed 1.7 X
Track quality 100.0 %
Test CRC F6BC446C
Copy CRC F6BC446C
Accurately ripped (confidence 5) [70DDA28C] (AR v2)
Copy OK

Track 26

Filename E:\Musica\The Residents\The Residents - Cube E, Live in Holland (1990) [FLAC]\26 - Hound Dog,Out.wav

Peak level 81.9 %
Extraction speed 2.0 X
Track quality 100.0 %
Test CRC E8401F5D
Copy CRC E8401F5D
Accurately ripped (confidence 5) [32E8CB3D] (AR v2)
Copy OK


25 track(s) accurately ripped
1 track(s) could not be verified as accurate

Some tracks could not be verified as accurate

No errors occurred

End of status report

–– CUETools DB Plugin V2.1.6

[CTDB TOCID: IMbjR2o_gOlskWcYM4jLQVP._.U-] found
Submit result: already submitted
Track | CTDB Status
1 | (13/13) Accurately ripped
2 | (13/13) Accurately ripped
3 | (13/13) Accurately ripped
4 | (13/13) Accurately ripped
5 | (13/13) Accurately ripped
6 | (13/13) Accurately ripped
7 | (13/13) Accurately ripped
8 | (13/13) Accurately ripped
9 | (13/13) Accurately ripped
10 | ( 1/13) Accurately ripped, or (12/13) differs in 60 samples @00:44:32-00:44:33
11 | (13/13) Accurately ripped
12 | (13/13) Accurately ripped
13 | (13/13) Accurately ripped
14 | (13/13) Accurately ripped
15 | (13/13) Accurately ripped
16 | (13/13) Accurately ripped
17 | (13/13) Accurately ripped
18 | (13/13) Accurately ripped
19 | (13/13) Accurately ripped
20 | (13/13) Accurately ripped
21 | (13/13) Accurately ripped
22 | (13/13) Accurately ripped
23 | (13/13) Accurately ripped
24 | (13/13) Accurately ripped
25 | (13/13) Accurately ripped
26 | (13/13) Accurately ripped
If you are sure that your rip contains errors, you can use CUETools to repair it.


==== Log checksum 29BA6467F0EA912EF4BBAC6E4E5256FA127D3A4608C0BA17DCE495F54B977A9F ====


The Residents - Cube-E (The History Of American Music In 3 E-Z Pieces) - Live In Holland (1990) {Torso CD169}

The Residents - Cube-E (The History Of American Music In 3 E-Z Pieces) - Live In Holland (1990) {Torso CD169}



===