Subcategories

Johnny Smith - The Sound Of The Johnny Smith Guitar (1960) {2017 Japan SHM-CD Jazz Masters Collection 1200 Series WPCR-29240}

Posted By: ruskaval
Johnny Smith - The Sound Of The Johnny Smith Guitar (1960) {2017 Japan SHM-CD Jazz Masters Collection 1200 Series WPCR-29240}

Johnny Smith - The Sound Of The Johnny Smith Guitar (1960) {2017 Japan SHM-CD Jazz Masters Collection 1200 Series WPCR-29240}
EAC rip (secure mode) | FLAC (tracks)+CUE+LOG -> 201 Mb | MP3 @320 -> 83 Mb
Full Artwork @ 600 dpi (jpg) -> 64 Mb | 5% repair rar | 24bit remaster
© 1960, 2017 Roost / Parlophone / Warner Music Japan | WPCR-29240
Jazz / Cool / Guitar

Reissue with SHM-CD format and new 24bit remastering. The Johnny Smith sound is a wonderful one – not just the sound that he makes with his groundbreaking work on the strings of the guitar, but also the way he records the instrument – which set a new standard in jazz guitar albums, and also helped pave the way for countless generations to come! A date like this is a great example of the standard-setting work that Smith was able to give us in his prime – and the approach slightly updates the Smith guitar sound of the early 50s – clarifying it a bit, but still keeping that great tone right out front – with a group that includes Hank Jones on piano, George Duvivier on bass, and Ed Shaughnessey on drums.
Johnny Smith - The Sound Of The Johnny Smith Guitar (1960) {2017 Japan SHM-CD Jazz Masters Collection 1200 Series WPCR-29240}


Personnel:
Johnny Smith - guitar
Hank Jones - piano
George Duvivier - bass
Ed Shaughnessy - drums

tracklist:
01 - Come Rain Or Come Shine
02 - Gypsy In My Soul
03 - Embraceable You
04 - Misty
05 - As Long As There's Music
06 - 'Round Midnight
07 - This Can't Be Love
08 - Blues Chorale
09 - Prelude

Exact Audio Copy V1.1 from 23. June 2015

EAC extraction logfile from 7. July 2017, 14:51

Johnny Smith / The Sound Of The Johnny Smith Guitar

Used drive : TSSTcorpCDDVDW SE-208DB Adapter: 1 ID: 1

Read mode : Secure
Utilize accurate stream : Yes
Defeat audio cache : Yes
Make use of C2 pointers : No

Read offset correction : 6
Overread into Lead-In and Lead-Out : No
Fill up missing offset samples with silence : Yes
Delete leading and trailing silent blocks : No
Null samples used in CRC calculations : Yes
Used interface : Native Win32 interface for Win NT & 2000
Gap handling : Appended to previous track

Used output format : User Defined Encoder
Selected bitrate : 1024 kBit/s
Quality : High
Add ID3 tag : No
Command line compressor : C:\Program Files (x86)\FLAC Frontend\tools\flac.exe
Additional command line options : -8 -V -T "ARTIST=%artist%" -T "TITLE=%title%" -T "ALBUM=%albumtitle%" -T "DATE=%year%" -T "TRACKNUMBER=%tracknr%" -T "TOTALTRACKS=%numtracks%" -T "GENRE=%genre%" -T "ALBUMARTIST=%albumartist%" -T "ALBUM ARTIST=%albumartist%" -T "COMMENT=EAC Secure Mode, Test & Copy, AccurateRip, FLAC -8" %source%


TOC of the extracted CD

Track | Start | Length | Start sector | End sector
––––––––––––––––––––––––––––-
1 | 0:00.00 | 4:45.62 | 0 | 21436
2 | 4:45.62 | 3:20.16 | 21437 | 36452
3 | 8:06.03 | 4:54.42 | 36453 | 58544
4 | 13:00.45 | 5:28.57 | 58545 | 83201
5 | 18:29.27 | 4:04.67 | 83202 | 101568
6 | 22:34.19 | 4:28.35 | 101569 | 121703
7 | 27:02.54 | 3:20.22 | 121704 | 136725
8 | 30:23.01 | 3:56.66 | 136726 | 154491
9 | 34:19.67 | 1:26.22 | 154492 | 160963


Track 1

Filename D:\_EAC\Johnny Smith - The Sound Of The Johnny Smith Guitar (1960) [FLAC] {Roost Japan WPCR-29240 rel 2017}\01 - Come Rain Or Come Shine.wav

Pre-gap length 0:00:02.00

Peak level 99.7 %
Extraction speed 1.0 X
Track quality 99.9 %
Test CRC CA074B0F
Copy CRC CA074B0F
Track not present in AccurateRip database
Copy OK

Track 2

Filename D:\_EAC\Johnny Smith - The Sound Of The Johnny Smith Guitar (1960) [FLAC] {Roost Japan WPCR-29240 rel 2017}\02 - Gypsy In My Soul.wav

Peak level 99.7 %
Extraction speed 1.1 X
Track quality 100.0 %
Test CRC 65423745
Copy CRC 65423745
Track not present in AccurateRip database
Copy OK

Track 3

Filename D:\_EAC\Johnny Smith - The Sound Of The Johnny Smith Guitar (1960) [FLAC] {Roost Japan WPCR-29240 rel 2017}\03 - Embraceable You.wav

Peak level 99.7 %
Extraction speed 1.3 X
Track quality 100.0 %
Test CRC 7ABD2108
Copy CRC 7ABD2108
Track not present in AccurateRip database
Copy OK

Track 4

Filename D:\_EAC\Johnny Smith - The Sound Of The Johnny Smith Guitar (1960) [FLAC] {Roost Japan WPCR-29240 rel 2017}\04 - Misty.wav

Peak level 99.7 %
Extraction speed 1.4 X
Track quality 100.0 %
Test CRC 2EB1EE69
Copy CRC 2EB1EE69
Track not present in AccurateRip database
Copy OK

Track 5

Filename D:\_EAC\Johnny Smith - The Sound Of The Johnny Smith Guitar (1960) [FLAC] {Roost Japan WPCR-29240 rel 2017}\05 - As Long As There's Music.wav

Peak level 99.7 %
Extraction speed 1.4 X
Track quality 100.0 %
Test CRC 4A126B67
Copy CRC 4A126B67
Track not present in AccurateRip database
Copy OK

Track 6

Filename D:\_EAC\Johnny Smith - The Sound Of The Johnny Smith Guitar (1960) [FLAC] {Roost Japan WPCR-29240 rel 2017}\06 - 'Round Midnight.wav

Peak level 99.7 %
Extraction speed 1.5 X
Track quality 100.0 %
Test CRC 42F8DF2B
Copy CRC 42F8DF2B
Track not present in AccurateRip database
Copy OK

Track 7

Filename D:\_EAC\Johnny Smith - The Sound Of The Johnny Smith Guitar (1960) [FLAC] {Roost Japan WPCR-29240 rel 2017}\07 - This Can't Be Love.wav

Peak level 99.7 %
Extraction speed 1.5 X
Track quality 100.0 %
Test CRC EB360851
Copy CRC EB360851
Track not present in AccurateRip database
Copy OK

Track 8

Filename D:\_EAC\Johnny Smith - The Sound Of The Johnny Smith Guitar (1960) [FLAC] {Roost Japan WPCR-29240 rel 2017}\08 - Blues Chorale.wav

Peak level 99.7 %
Extraction speed 1.6 X
Track quality 100.0 %
Test CRC F7A595C8
Copy CRC F7A595C8
Track not present in AccurateRip database
Copy OK

Track 9

Filename D:\_EAC\Johnny Smith - The Sound Of The Johnny Smith Guitar (1960) [FLAC] {Roost Japan WPCR-29240 rel 2017}\09 - Prelude.wav

Peak level 85.6 %
Extraction speed 1.2 X
Track quality 100.0 %
Test CRC 35400D73
Copy CRC 35400D73
Track not present in AccurateRip database
Copy OK


None of the tracks are present in the AccurateRip database

No errors occurred

End of status report

–– CUETools DB Plugin V2.1.6

[CTDB TOCID: OM8Mum8qKdUtOCbkXGeqA.iCrfI-] found
Submit result: OM8Mum8qKdUtOCbkXGeqA.iCrfI- has been confirmed
Track | CTDB Status
1 | (2/2) Accurately ripped
2 | (2/2) Accurately ripped
3 | (2/2) Accurately ripped
4 | (2/2) Accurately ripped
5 | (2/2) Accurately ripped
6 | (2/2) Accurately ripped
7 | (2/2) Accurately ripped
8 | (2/2) Accurately ripped
9 | (2/2) Accurately ripped


==== Log checksum 7C884BE9E2DC4CAB763BBCCA0FDCBC42BB8DC0F0BB7871D7A2BD4082667D9749 ====


Johnny Smith - The Sound Of The Johnny Smith Guitar (1960) {2017 Japan SHM-CD Jazz Masters Collection 1200 Series WPCR-29240}

Johnny Smith - The Sound Of The Johnny Smith Guitar (1960) {2017 Japan SHM-CD Jazz Masters Collection 1200 Series WPCR-29240}




NEXT -> more 2016-2017 Japan SHM-CD Jazz Masters Collection 1200 Series on the way…

===