Subcategories

The Yardbirds - Yardbirds '68 (2017)

Posted By: delpotro
The Yardbirds - Yardbirds '68 (2017)

The Yardbirds - Yardbirds '68 (2017)
EAC Rip | FLAC (tracks+log+.cue) - 400 Mb | Scans - 122 Mb | 01:05:51
Classic Rock, Blues Rock, Psychedelic | Label: Jimmy Page Music

A new album that includes previously unreleased Yardbirds material from 1968 will be released later this year. Yardbirds '68 is divided into two parts: "Live at Anderson Theater," a concert recording, and "Studio Sketches," a collection of alternate takes and demos made during that era. Both sets feature Jimmy Page on guitar.

The live portion of the album includes some of the band's standards, like "Train Kept A Rollin'" and "Heart Full of Soul," as well as newer songs like "Drinking Muddy Water," which was on the original band's final album, 1967's Little Games; and "Dazed and Confused," which Page would bring to his new group Led Zeppelin later in 1968.

The double-vinyl record is available for pre-order now exclusively on JimmyPage.com. “We thought this might be lost forever, but we’ve rediscovered it, remixed it," reads a note on the site from the band's members in 1968, Page, Jim McCarty and Chris Dreja. "It’s of great historical importance. We’re delighted to see the release.”

Page took over guitar duties in the band following stints by Eric Clapton (1963-65) and Jeff Beck (1965-66). Page made just one album with the Yardbirds, Little Games, but toured with them until the band eventually disintegrated and Page formed Led Zeppelin, who were originally called the New Yardbirds.

Founding drummer McCarty currently leads a revamped version of the Yardbirds, who have just launched a crowdfunding campaign for a new album. The band's most recent release is 2003's Birdland.
Tracklist:
Disc 1: Live at Anderson Theater
1. Train Kept A Rollin'
2. Mr You'r A Better Man Than I
3. Heart Full Of Soul
4. Dazed And Confused
5. My Baby
6. Over Under Sideways Down
7. Drinking Muddy Water
8. Shapes Of Things
9. White Summer
10. I'm A Man (Contains Moanin' And Sobbin')

Disc 2: Studio Sketches
1. Avron Knows
2. Spannish Blood
3. Knowing That I'm Loosing You (Tangerine)
4. Taking A Hold On Me
5. Drinking Muddy Water (Version 2)
6. My Baby
7. Avron's Eye
8. Spanish Blood (Instr.)

Exact Audio Copy V1.1 from 23. June 2015

EAC extraction logfile from 28. November 2017, 15:13

The Yardbirds / Yardbirds '68 [Live At Anderson Theater]

Used drive : PLDS DVD+-RW DU-8A5LH Adapter: 1 ID: 0

Read mode : Secure
Utilize accurate stream : Yes
Defeat audio cache : Yes
Make use of C2 pointers : No

Read offset correction : 6
Overread into Lead-In and Lead-Out : No
Fill up missing offset samples with silence : Yes
Delete leading and trailing silent blocks : No
Null samples used in CRC calculations : Yes
Used interface : Native Win32 interface for Win NT & 2000
Gap handling : Appended to previous track

Used output format : User Defined Encoder
Selected bitrate : 1024 kBit/s
Quality : High
Add ID3 tag : No
Command line compressor : C:\Program Files (x86)\Exact Audio Copy\FLAC\FLAC.EXE
Additional command line options : -8 -e -p -V -T "ARTIST=%artist%" -T "TITLE=%title%" -T "ALBUM=%albumtitle%" -T "DATE=%year%" -T "TRACKNUMBER=%tracknr%" -T "GENRE=%genre%" -T "PERFORMER=%albuminterpret%" -T "COMPOSER=%composer%" %haslyrics%–tag-from-file=LYRICS="%lyricsfile%"%haslyrics% -T "ALBUMARTIST=%albumartist%" -T "DISCNUMBER=%cdnumber%" -T "TOTALDISCS=%totalcds%" -T "TOTALTRACKS=%numtracks%" -T "COMMENT=%comment%" %source% -o %dest%


TOC of the extracted CD

Track | Start | Length | Start sector | End sector
––––––––––––––––––––––––––––-
1 | 0:00.00 | 3:05.64 | 0 | 13938
2 | 3:05.64 | 5:05.72 | 13939 | 36885
3 | 8:11.61 | 1:48.62 | 36886 | 45047
4 | 10:00.48 | 6:07.71 | 45048 | 72643
5 | 16:08.44 | 2:50.70 | 72644 | 85463
6 | 18:59.39 | 2:17.01 | 85464 | 95739
7 | 21:16.40 | 2:56.20 | 95740 | 108959
8 | 24:12.60 | 2:30.22 | 108960 | 120231
9 | 26:43.07 | 3:48.48 | 120232 | 137379
10 | 30:31.55 | 10:19.53 | 137380 | 183857


Track 1

Filename E:\My Music\Official\Y & Z\The Yardbirds\2017.11.05 - Yardbirds '68 (Jimmypage.com JPRLPCD3)\01. The Train Kept A Rollin' (live).wav

Pre-gap length 0:00:02.00

Peak level 100.0 %
Extraction speed 2.4 X
Track quality 100.0 %
Test CRC 53FF255B
Copy CRC 53FF255B
Track not present in AccurateRip database
Copy OK

Track 2

Filename E:\My Music\Official\Y & Z\The Yardbirds\2017.11.05 - Yardbirds '68 (Jimmypage.com JPRLPCD3)\02. Mr. You're A Better Man Than I (live).wav

Peak level 100.0 %
Extraction speed 2.9 X
Track quality 100.0 %
Test CRC 48778512
Copy CRC 48778512
Track not present in AccurateRip database
Copy OK

Track 3

Filename E:\My Music\Official\Y & Z\The Yardbirds\2017.11.05 - Yardbirds '68 (Jimmypage.com JPRLPCD3)\03. Heart Full Of Soul (live).wav

Peak level 97.9 %
Extraction speed 2.6 X
Track quality 100.0 %
Test CRC 204B65E8
Copy CRC 204B65E8
Track not present in AccurateRip database
Copy OK

Track 4

Filename E:\My Music\Official\Y & Z\The Yardbirds\2017.11.05 - Yardbirds '68 (Jimmypage.com JPRLPCD3)\04. Dazed And Confused (live).wav

Peak level 100.0 %
Extraction speed 3.5 X
Track quality 100.0 %
Test CRC 2E0D7DA1
Copy CRC 2E0D7DA1
Track not present in AccurateRip database
Copy OK

Track 5

Filename E:\My Music\Official\Y & Z\The Yardbirds\2017.11.05 - Yardbirds '68 (Jimmypage.com JPRLPCD3)\05. My Baby (live).wav

Peak level 98.0 %
Extraction speed 3.4 X
Track quality 100.0 %
Test CRC 7035E72C
Copy CRC 7035E72C
Track not present in AccurateRip database
Copy OK

Track 6

Filename E:\My Music\Official\Y & Z\The Yardbirds\2017.11.05 - Yardbirds '68 (Jimmypage.com JPRLPCD3)\06. Over Under Sideways Down (live).wav

Peak level 97.4 %
Extraction speed 3.4 X
Track quality 100.0 %
Test CRC 6D4184BE
Copy CRC 6D4184BE
Track not present in AccurateRip database
Copy OK

Track 7

Filename E:\My Music\Official\Y & Z\The Yardbirds\2017.11.05 - Yardbirds '68 (Jimmypage.com JPRLPCD3)\07. Drinking Muddy Water (live).wav

Peak level 99.3 %
Extraction speed 2.9 X
Track quality 99.9 %
Test CRC 8F6F3CB6
Copy CRC 8F6F3CB6
Track not present in AccurateRip database
Copy OK

Track 8

Filename E:\My Music\Official\Y & Z\The Yardbirds\2017.11.05 - Yardbirds '68 (Jimmypage.com JPRLPCD3)\08. Shapes Of Things (live).wav

Peak level 100.0 %
Extraction speed 3.7 X
Track quality 100.0 %
Test CRC A365F264
Copy CRC A365F264
Track not present in AccurateRip database
Copy OK

Track 9

Filename E:\My Music\Official\Y & Z\The Yardbirds\2017.11.05 - Yardbirds '68 (Jimmypage.com JPRLPCD3)\09. White Summer (live).wav

Peak level 95.4 %
Extraction speed 4.1 X
Track quality 100.0 %
Test CRC A4107F77
Copy CRC A4107F77
Track not present in AccurateRip database
Copy OK

Track 10

Filename E:\My Music\Official\Y & Z\The Yardbirds\2017.11.05 - Yardbirds '68 (Jimmypage.com JPRLPCD3)\10. I'm A Man (live).wav

Peak level 100.0 %
Extraction speed 4.7 X
Track quality 100.0 %
Test CRC 853338CE
Copy CRC 853338CE
Track not present in AccurateRip database
Copy OK


None of the tracks are present in the AccurateRip database

No errors occurred

End of status report

–– CUETools DB Plugin V2.1.6

[CTDB TOCID: Gqws7D9WbgYAo8jfnFAvnVgmT3A-] found
Submit result: Gqws7D9WbgYAo8jfnFAvnVgmT3A- has been confirmed
Track | CTDB Status
1 | (13/13) Accurately ripped
2 | (13/13) Accurately ripped
3 | (13/13) Accurately ripped
4 | (13/13) Accurately ripped
5 | (13/13) Accurately ripped
6 | (13/13) Accurately ripped
7 | (13/13) Accurately ripped
8 | (13/13) Accurately ripped
9 | (13/13) Accurately ripped
10 | (13/13) Accurately ripped


==== Log checksum 24B69E688EF10030FBB9F383A12E71B8C4883DBBCFF5A6A9373D0FC80FEF5352 ====

Exact Audio Copy V1.1 from 23. June 2015

EAC extraction logfile from 28. November 2017, 16:52

The Yardbirds / Yardbids'68 - Studio Sketches

Used drive : PLDS DVD+-RW DU-8A5LH Adapter: 1 ID: 0

Read mode : Secure
Utilize accurate stream : Yes
Defeat audio cache : Yes
Make use of C2 pointers : No

Read offset correction : 6
Overread into Lead-In and Lead-Out : No
Fill up missing offset samples with silence : Yes
Delete leading and trailing silent blocks : No
Null samples used in CRC calculations : Yes
Used interface : Native Win32 interface for Win NT & 2000
Gap handling : Appended to previous track

Used output format : User Defined Encoder
Selected bitrate : 1024 kBit/s
Quality : High
Add ID3 tag : No
Command line compressor : C:\Program Files (x86)\Exact Audio Copy\FLAC\FLAC.EXE
Additional command line options : -8 -e -p -V -T "ARTIST=%artist%" -T "TITLE=%title%" -T "ALBUM=%albumtitle%" -T "DATE=%year%" -T "TRACKNUMBER=%tracknr%" -T "GENRE=%genre%" -T "PERFORMER=%albuminterpret%" -T "COMPOSER=%composer%" %haslyrics%–tag-from-file=LYRICS="%lyricsfile%"%haslyrics% -T "ALBUMARTIST=%albumartist%" -T "DISCNUMBER=%cdnumber%" -T "TOTALDISCS=%totalcds%" -T "TOTALTRACKS=%numtracks%" -T "COMMENT=%comment%" %source% -o %dest%


TOC of the extracted CD

Track | Start | Length | Start sector | End sector
––––––––––––––––––––––––––––-
1 | 0:00.00 | 3:49.52 | 0 | 17226
2 | 3:49.52 | 3:15.67 | 17227 | 31918
3 | 7:05.44 | 2:54.56 | 31919 | 45024
4 | 10:00.25 | 3:02.45 | 45025 | 58719
5 | 13:02.70 | 2:49.44 | 58720 | 71438
6 | 15:52.39 | 2:59.23 | 71439 | 84886
7 | 18:51.62 | 2:56.28 | 84887 | 98114
8 | 21:48.15 | 3:11.44 | 98115 | 112483


Track 1

Filename E:\My Music\Official\Y & Z\The Yardbirds\2017.11.05 - Yardbirds '68 (Jimmypage.com JPRLPCD3)\Disc 2 (Studio Sketches)\01. Avron Knows (stereo).wav

Pre-gap length 0:00:02.00

Peak level 96.2 %
Extraction speed 1.1 X
Track quality 100.0 %
Test CRC C37CC5BD
Copy CRC C37CC5BD
Track not present in AccurateRip database
Copy OK

Track 2

Filename E:\My Music\Official\Y & Z\The Yardbirds\2017.11.05 - Yardbirds '68 (Jimmypage.com JPRLPCD3)\Disc 2 (Studio Sketches)\02. Spanish Blood (stereo).wav

Peak level 90.6 %
Extraction speed 1.0 X
Track quality 99.9 %
Test CRC 5545F991
Copy CRC 5545F991
Track not present in AccurateRip database
Copy OK

Track 3

Filename E:\My Music\Official\Y & Z\The Yardbirds\2017.11.05 - Yardbirds '68 (Jimmypage.com JPRLPCD3)\Disc 2 (Studio Sketches)\03. Knowing That I'm Losing You (Tangerine) (stereo).wav

Peak level 96.2 %
Extraction speed 1.2 X
Track quality 100.0 %
Test CRC 2F48F067
Copy CRC 2F48F067
Track not present in AccurateRip database
Copy OK

Track 4

Filename E:\My Music\Official\Y & Z\The Yardbirds\2017.11.05 - Yardbirds '68 (Jimmypage.com JPRLPCD3)\Disc 2 (Studio Sketches)\04. Taking A Hold On Me (stereo).wav

Peak level 95.8 %
Extraction speed 1.1 X
Track quality 99.9 %
Test CRC 71049333
Copy CRC 71049333
Track not present in AccurateRip database
Copy OK

Track 5

Filename E:\My Music\Official\Y & Z\The Yardbirds\2017.11.05 - Yardbirds '68 (Jimmypage.com JPRLPCD3)\Disc 2 (Studio Sketches)\05. Drinking Muddy Water (version 2) (stereo).wav

Peak level 97.6 %
Extraction speed 1.4 X
Track quality 100.0 %
Test CRC 296AD99A
Copy CRC 296AD99A
Track not present in AccurateRip database
Copy OK

Track 6

Filename E:\My Music\Official\Y & Z\The Yardbirds\2017.11.05 - Yardbirds '68 (Jimmypage.com JPRLPCD3)\Disc 2 (Studio Sketches)\06. My Baby (stereo).wav

Peak level 96.0 %
Extraction speed 1.4 X
Track quality 100.0 %
Test CRC 5095269D
Copy CRC 5095269D
Track not present in AccurateRip database
Copy OK

Track 7

Filename E:\My Music\Official\Y & Z\The Yardbirds\2017.11.05 - Yardbirds '68 (Jimmypage.com JPRLPCD3)\Disc 2 (Studio Sketches)\07. Avron's Eyes (stereo).wav

Peak level 95.6 %
Extraction speed 1.5 X
Track quality 100.0 %
Test CRC E4015E4C
Copy CRC E4015E4C
Track not present in AccurateRip database
Copy OK

Track 8

Filename E:\My Music\Official\Y & Z\The Yardbirds\2017.11.05 - Yardbirds '68 (Jimmypage.com JPRLPCD3)\Disc 2 (Studio Sketches)\08. Spanish Blood (inst) (stereo).wav

Peak level 97.2 %
Extraction speed 1.4 X
Track quality 99.9 %
Test CRC 581A4520
Copy CRC 581A4520
Track not present in AccurateRip database
Copy OK


None of the tracks are present in the AccurateRip database

No errors occurred

End of status report

–– CUETools DB Plugin V2.1.6

[CTDB TOCID: 7npsTjDW8XjlTUYKgG6xQic2ZVk-] found
Submit result: 7npsTjDW8XjlTUYKgG6xQic2ZVk- has been confirmed
Track | CTDB Status
1 | (12/12) Accurately ripped
2 | (12/12) Accurately ripped
3 | (12/12) Accurately ripped
4 | (12/12) Accurately ripped
5 | (12/12) Accurately ripped
6 | (12/12) Accurately ripped
7 | (12/12) Accurately ripped
8 | (12/12) Accurately ripped


==== Log checksum 303C08D58790DF217F0E62B4B484D78522F999DEEFEDB21866208C4A67D7D194 ====



The Yardbirds - Yardbirds '68 (2017)

Thanks to the Original ripper musstank !