Tags
Language
Tags

Bobby Timmons Trio - This Here Is Bobby Timmons (1960) {Riverside Japan, VDJ-1529, Early Press}

Posted By: ruskaval
Bobby Timmons Trio - This Here Is Bobby Timmons (1960) {Riverside Japan, VDJ-1529, Early Press}

Bobby Timmons Trio - This Here Is Bobby Timmons (1960) {Riverside Japan, VDJ-1529, Early Press}
EAC rip (secure mode) | FLAC (tracks)+CUE+LOG -> 200 Mb | MP3 @320 -> 90 Mb
Full Artwork @ 600 dpi (png) -> 151 Mb | 5% repair rar
© 1960, 1985 Riverside / Victor Japan | VDJ-1529
Jazz / Hard Bop / Soul Jazz / Piano

Fantastic early work from pianist Bobby Timmons – a set that shows all the brilliant young genius that marked his playing at the time! Although only a trio session, the album grooves with the best sort of vibe that you'd find in Bobby's recordings with Art Blakey or Cannonball Adderley – probably because of the excellent rhythm accompaniment by Sam Jones and Jimmy Cobb, who really make the album cook with a tremendous amount of energy! The set list is virtually the Bobby Timmons songbook, and includes classics like "This Here", "Dat Dere", "Moanin", and others – all done in lively soul jazz trio versions different than the famous renditions you probably already know!
Bobby Timmons Trio - This Here Is Bobby Timmons (1960) {Riverside Japan, VDJ-1529, Early Press}


Personnel:

Bobby Timmons - piano
Sam Jones - bass
Jimmy Cobb - drums

Recorded January 13 and 14, 1960.

Digital transferred from the original analog 1960's source material by Joe Gastwirt at JVC Cutting Center, Sunset Blvd., Los Angeles, Ca., 1985 using JVC/DAS-900 DIGITAL AUDIO MASTERING SYSTEM.


Track Listing:

01 - This Here
02 - Moanin'
03 - Lush Life
04 - The Party's Over
05 - Prelude To A Kiss
06 - Dat Dere
07 - My Funny Valentine
08 - Come Rain Or Come Shine
09 - Joy Ride

Exact Audio Copy V1.0 beta 3 from 29. August 2011

EAC extraction logfile from 8. September 2016, 23:23

Bobby Timmons / This Here Is Bobby Timmons

Used drive : HL-DT-STDVDRAM GU70N Adapter: 0 ID: 0

Read mode : Secure
Utilize accurate stream : Yes
Defeat audio cache : Yes
Make use of C2 pointers : No

Read offset correction : 48
Overread into Lead-In and Lead-Out : No
Fill up missing offset samples with silence : Yes
Delete leading and trailing silent blocks : No
Null samples used in CRC calculations : Yes
Used interface : Native Win32 interface for Win NT & 2000

Used output format : User Defined Encoder
Selected bitrate : 128 kBit/s
Quality : High
Add ID3 tag : No
Command line compressor : C:\Program Files (x86)\Exact Audio Copy\Flac\flac.exe
Additional command line options : -8 -V -T "ARTIST=%artist%" -T "TITLE=%title%" -T "ALBUM=%albumtitle%" -T "DATE=%year%" -T "TRACKNUMBER=%tracknr%" -T "TOTALTRACKS=%numtracks%" -T "GENRE=%genre%" -T "ALBUMARTIST=%albumartist%" -T "ALBUM ARTIST=%albumartist%" -T "COMMENT=EAC Secure Mode, Test & Copy, AccurateRip, FLAC -8" %source%


TOC of the extracted CD

Track | Start | Length | Start sector | End sector
––––––––––––––––––––––––––––-
1 | 0:00.37 | 3:33.35 | 37 | 16046
2 | 3:33.72 | 5:07.00 | 16047 | 39071
3 | 8:40.72 | 2:28.00 | 39072 | 50171
4 | 11:08.72 | 4:15.00 | 50172 | 69296
5 | 15:23.72 | 3:23.00 | 69297 | 84521
6 | 18:46.72 | 5:25.00 | 84522 | 108896
7 | 24:11.72 | 5:09.00 | 108897 | 132071
8 | 29:20.72 | 4:33.00 | 132072 | 152546
9 | 33:53.72 | 3:57.28 | 152547 | 170349


Range status and errors

Selected range

Filename F:\EAC\Bobby Timmons Trio - This Here Is Bobby Timmons (1960) [FLAC] {Riverside, VDJ-1529, Early Press}\Bobby Timmons - This Here Is Bobby Timmons.wav

Peak level 99.6 %
Extraction speed 1.9 X
Range quality 100.0 %
Test CRC B597911F
Copy CRC B597911F
Copy OK

No errors occurred


AccurateRip summary

Track 1 cannot be verified as accurate (confidence 2) [B1EE908D], AccurateRip returned [0CB5595C] (AR v2)
Track 2 cannot be verified as accurate (confidence 2) [D72C7F87], AccurateRip returned [AF70FBE7] (AR v2)
Track 3 cannot be verified as accurate (confidence 2) [191BD692], AccurateRip returned [1ABACA7B] (AR v2)
Track 4 cannot be verified as accurate (confidence 2) [80ED8947], AccurateRip returned [F5C5894A] (AR v2)
Track 5 cannot be verified as accurate (confidence 2) [5C1D316D], AccurateRip returned [2F162542] (AR v2)
Track 6 cannot be verified as accurate (confidence 2) [714FD2EF], AccurateRip returned [A9DE4F9E] (AR v2)
Track 7 cannot be verified as accurate (confidence 2) [F794ACCD], AccurateRip returned [04D38B47] (AR v2)
Track 8 cannot be verified as accurate (confidence 2) [871A1424], AccurateRip returned [3241260C] (AR v2)
Track 9 cannot be verified as accurate (confidence 2) [96688045], AccurateRip returned [D78E5F0F] (AR v2)

No tracks could be verified as accurate
You may have a different pressing from the one(s) in the database

End of status report

==== Log checksum 3AE35E59A8A02E8820FB0FA9F0AE81667B9A17ECB3353C1E1654866CD64D9D7F ====

––––––––––––––––––––––––––––––

Exact Audio Copy V1.0 beta 3 from 29. August 2011

EAC extraction logfile from 9. September 2016, 0:11

Bobby Timmons / This Here Is Bobby Timmons

Used drive : HL-DT-STDVDRAM GU70N Adapter: 0 ID: 0

Read mode : Secure
Utilize accurate stream : Yes
Defeat audio cache : Yes
Make use of C2 pointers : No

Read offset correction : 48
Overread into Lead-In and Lead-Out : No
Fill up missing offset samples with silence : Yes
Delete leading and trailing silent blocks : No
Null samples used in CRC calculations : Yes
Used interface : Native Win32 interface for Win NT & 2000
Gap handling : Appended to previous track

Used output format : User Defined Encoder
Selected bitrate : 128 kBit/s
Quality : High
Add ID3 tag : No
Command line compressor : C:\Program Files (x86)\Exact Audio Copy\Flac\flac.exe
Additional command line options : -8 -V -T "ARTIST=%artist%" -T "TITLE=%title%" -T "ALBUM=%albumtitle%" -T "DATE=%year%" -T "TRACKNUMBER=%tracknr%" -T "TOTALTRACKS=%numtracks%" -T "GENRE=%genre%" -T "ALBUMARTIST=%albumartist%" -T "ALBUM ARTIST=%albumartist%" -T "COMMENT=EAC Secure Mode, Test & Copy, AccurateRip, FLAC -8" %source%


TOC of the extracted CD

Track | Start | Length | Start sector | End sector
––––––––––––––––––––––––––––-
1 | 0:00.37 | 3:33.35 | 37 | 16046
2 | 3:33.72 | 5:07.00 | 16047 | 39071
3 | 8:40.72 | 2:28.00 | 39072 | 50171
4 | 11:08.72 | 4:15.00 | 50172 | 69296
5 | 15:23.72 | 3:23.00 | 69297 | 84521
6 | 18:46.72 | 5:25.00 | 84522 | 108896
7 | 24:11.72 | 5:09.00 | 108897 | 132071
8 | 29:20.72 | 4:33.00 | 132072 | 152546
9 | 33:53.72 | 3:57.28 | 152547 | 170349


Track 1

Filename F:\EAC\Bobby Timmons Trio - This Here Is Bobby Timmons (1960) [FLAC] {Riverside, VDJ-1529, Early Press}\01 - This Here.wav

Pre-gap length 0:00:02.37

Peak level 96.4 %
Extraction speed 1.1 X
Track quality 99.9 %
Test CRC F1403300
Copy CRC F1403300
Cannot be verified as accurate (confidence 2) [B1EE908D], AccurateRip returned [0CB5595C] (AR v2)
Copy OK

Track 2

Filename F:\EAC\Bobby Timmons Trio - This Here Is Bobby Timmons (1960) [FLAC] {Riverside, VDJ-1529, Early Press}\02 - Moanin'.wav

Pre-gap length 0:00:03.00

Peak level 89.5 %
Extraction speed 1.4 X
Track quality 100.0 %
Test CRC 327DC482
Copy CRC 327DC482
Cannot be verified as accurate (confidence 2) [D72C7F87], AccurateRip returned [AF70FBE7] (AR v2)
Copy OK

Track 3

Filename F:\EAC\Bobby Timmons Trio - This Here Is Bobby Timmons (1960) [FLAC] {Riverside, VDJ-1529, Early Press}\03 - Lush Life.wav

Pre-gap length 0:00:02.62

Peak level 99.6 %
Extraction speed 1.4 X
Track quality 100.0 %
Test CRC 63356FBC
Copy CRC 63356FBC
Cannot be verified as accurate (confidence 2) [191BD692], AccurateRip returned [1ABACA7B] (AR v2)
Copy OK

Track 4

Filename F:\EAC\Bobby Timmons Trio - This Here Is Bobby Timmons (1960) [FLAC] {Riverside, VDJ-1529, Early Press}\04 - The Party's Over.wav

Pre-gap length 0:00:03.00

Peak level 89.7 %
Extraction speed 1.6 X
Track quality 100.0 %
Test CRC 67AA3E6D
Copy CRC 67AA3E6D
Cannot be verified as accurate (confidence 2) [80ED8947], AccurateRip returned [F5C5894A] (AR v2)
Copy OK

Track 5

Filename F:\EAC\Bobby Timmons Trio - This Here Is Bobby Timmons (1960) [FLAC] {Riverside, VDJ-1529, Early Press}\05 - Prelude To A Kiss.wav

Pre-gap length 0:00:02.65

Peak level 95.8 %
Extraction speed 1.6 X
Track quality 100.0 %
Test CRC EE3F4438
Copy CRC EE3F4438
Cannot be verified as accurate (confidence 2) [5C1D316D], AccurateRip returned [2F162542] (AR v2)
Copy OK

Track 6

Filename F:\EAC\Bobby Timmons Trio - This Here Is Bobby Timmons (1960) [FLAC] {Riverside, VDJ-1529, Early Press}\06 - Dat Dere.wav

Pre-gap length 0:00:03.17

Peak level 93.6 %
Extraction speed 1.7 X
Track quality 99.9 %
Test CRC 3D6D259B
Copy CRC 3D6D259B
Cannot be verified as accurate (confidence 2) [714FD2EF], AccurateRip returned [A9DE4F9E] (AR v2)
Copy OK

Track 7

Filename F:\EAC\Bobby Timmons Trio - This Here Is Bobby Timmons (1960) [FLAC] {Riverside, VDJ-1529, Early Press}\07 - My Funny Valentine.wav

Pre-gap length 0:00:02.05

Peak level 84.4 %
Extraction speed 2.0 X
Track quality 100.0 %
Test CRC 6999B9FA
Copy CRC 6999B9FA
Cannot be verified as accurate (confidence 2) [F794ACCD], AccurateRip returned [04D38B47] (AR v2)
Copy OK

Track 8

Filename F:\EAC\Bobby Timmons Trio - This Here Is Bobby Timmons (1960) [FLAC] {Riverside, VDJ-1529, Early Press}\08 - Come Rain Or Come Shine.wav

Pre-gap length 0:00:02.67

Peak level 89.7 %
Extraction speed 2.0 X
Track quality 100.0 %
Test CRC 53C55E3C
Copy CRC 53C55E3C
Cannot be verified as accurate (confidence 2) [871A1424], AccurateRip returned [3241260C] (AR v2)
Copy OK

Track 9

Filename F:\EAC\Bobby Timmons Trio - This Here Is Bobby Timmons (1960) [FLAC] {Riverside, VDJ-1529, Early Press}\09 - Joy Ride.wav

Pre-gap length 0:00:03.15

Peak level 93.0 %
Extraction speed 1.8 X
Track quality 99.9 %
Test CRC D0D33AA9
Copy CRC D0D33AA9
Cannot be verified as accurate (confidence 2) [96688045], AccurateRip returned [D78E5F0F] (AR v2)
Copy OK


No tracks could be verified as accurate
You may have a different pressing from the one(s) in the database

No errors occurred

End of status report

==== Log checksum DA52DB63AD0C1EF9D37613E034B19AFE7707317A165A8C68F64B6EF4EAE1D774 ====


Bobby Timmons Trio - This Here Is Bobby Timmons (1960) {Riverside Japan, VDJ-1529, Early Press}

Bobby Timmons Trio - This Here Is Bobby Timmons (1960) {Riverside Japan, VDJ-1529, Early Press}


see more 'Early Press' CDs…


===