Tags
Language
Tags

Tom Holkenborg - Terminator: Dark Fate (Music from the Motion Picture) (2019)

Posted By: aasana
Tom Holkenborg - Terminator: Dark Fate (Music from the Motion Picture) (2019)

Tom Holkenborg - Terminator: Dark Fate (Music From The Motion Picture) (2019)
EAC Rip | FLAC (tracks+.cue) | 00:58:03 | 313,63 MB
Soundtrack | Label: Paramount Music

A composer, producer, DJ, and multi-instrumentalist who has charted internationally with both his electronic music and his film scores, the Netherlands' Tom Holkenborg is also known as Junkie XL. Though he began his career as musician/producer in bands such as Weekend at Waikiki and Nerve in the late '80s and early '90s, he made his name in big beat music with the Junkie XL moniker in the late '90s. His cover of Elvis Presley's "A Little Less Conversation," released as "Elvis vs. JXL," topped the charts in over a dozen countries in 2002. In the meantime, he found work scoring the occasional video game or film, a sideline that picked up substantially toward the end of the 2000s. By the mid-2010s, he was composing music for such blockbusters as Mad Max: Fury Road, Deadpool, and, with frequent partner Hans Zimmer, Batman v Superman: Dawn of Justice.

Beginning his career at the age of 14, Holkenborg initially played in area funk and reggae units, later switching to alternative rock. While working in a music store, he began experimenting with synthesizers and technology, and in 1996 won the Grand Prix of the Netherlands as best house music producer. After completing Junkie XL's 1997 debut LP, Saturday Teenage Kick, a blend of electronica and rock, he enlisted rapper Rudeboy (an alumnus of Urban Dance Squad), DJ Frankie D., drummer Baz Mattie, and guitarist Renee van der Zee to transform his one-man studio project into a working band.

In the meantime, Holkenborg provided music for a handful of video games and made his feature film scoring debut with the 1998 Dutch film Siberia (as Junkie XL). Returning to dance music, Big Sounds of the Drags, released in 1999, was the first album from his expanded lineup. More than two years later, Holkenborg masterminded the first (legal) remix of an Elvis Presley song, "A Little Less Conversation," as heard in a Nike commercial to coincide with the 2002 World Cup. Released as a single, it hit number one in Britain by June, and reached the Top Ten in over two dozen countries. The track landed on his 2003 album Radio JXL: A Broadcast from the Computer Hell Cabin, which also featured vocals from Chuck D, Robert Smith, and Gary Numan. His 2008 effort, Booming Back at You, featured vocalist Lauren Rocket on a cover of Siouxsie and the Banshees' "Cities in Dust," along with a guest appearance from fellow producer Steve Aoki. Synthesized, from 2012, included contributions from Datarock, Tommie Sunshine, and Tears for Fears member Curt Smith.

By the early 2010s, Holkenborg was taking on more and more work as a composer of film music, often collaborating with Hans Zimmer. In 2014, he was credited alongside Pharrell Williams, Johnny Marr, Mike Einziger, Andrew Kawczynski, and Steve Mazzaro as a member Zimmer's the Magnificent Six on the soundtrack for The Amazing Spider-Man 2. That same year, he received sole credit for Divergent, which reached the Top 20 of the Billboard Soundtracks chart. Soon, he was scoring such international box office hits as 2015's Mad Max: Fury Road, 2016's Deadpool, and, with Zimmer, Batman v Superman: Dawn of Justice, also from 2016. He closed out the decade with work on such projects as the 2017 video game FIFA 18 , the 2018 film Tomb Raider, and the 2019 cyberpunk action movie Alita: Battle Angel. ~ Marcy Donelson & Jason Ankeny

Tracklist:
01. Tom Holkenborg - Terminated (1:28)
02. Tom Holkenborg - My Name Is Dani (3:39)
03. Tom Holkenborg - REV 9 (3:10)
04. Tom Holkenborg - Iron Spike (2:52)
05. Tom Holkenborg - Enter Sarah (1:00)
06. Tom Holkenborg - Grace (4:25)
07. Tom Holkenborg - Drones Coming (1:46)
08. Tom Holkenborg - The Wall (4:12)
09. Tom Holkenborg - Terminator (2:57)
10. Tom Holkenborg - Coyote (2:18)
11. Tom Holkenborg - The Picture on the Fridge (0:42)
12. Tom Holkenborg - C5 (4:11)
13. Tom Holkenborg - HUMV (1:59)
14. Tom Holkenborg - You Saved Me (5:42)
15. Tom Holkenborg - Screaming Turbines (4:13)
16. Tom Holkenborg - For John (7:59)
17. Tom Holkenborg - Epilogue (1:10)
18. Tom Holkenborg - Dark Fate (4:20)

Exact Audio Copy V1.1 from 23. June 2015

EAC extraction logfile from 3. December 2019, 18:20

Junkie XL / Terminator: Dark Fate

Used drive : SlimtypeeBAU108 6 L Adapter: 1 ID: 0

Read mode : Secure
Utilize accurate stream : Yes
Defeat audio cache : Yes
Make use of C2 pointers : No

Read offset correction : 6
Overread into Lead-In and Lead-Out : No
Fill up missing offset samples with silence : Yes
Delete leading and trailing silent blocks : No
Null samples used in CRC calculations : Yes
Used interface : Native Win32 interface for Win NT & 2000
Gap handling : Appended to previous track

Used output format : User Defined Encoder
Selected bitrate : 1024 kBit/s
Quality : High
Add ID3 tag : No
Command line compressor : D:\Software\flac-1.2.1-win\bin\flac.exe
Additional command line options : -8 -V -T "ARTIST=%artist%" -T "TITLE=%title%" -T "ALBUM=%albumtitle%" -T "DATE=%year%" -T "TRACKNUMBER=%tracknr%" -T "GENRE=%genre%" -T "PERFORMER=%albuminterpret%" -T "COMPOSER=%composer%" %haslyrics%–tag-from-file=LYRICS="%lyricsfile%"%haslyrics% -T "ALBUMARTIST=%albumartist%" -T "DISCNUMBER=%cdnumber%" -T "TOTALDISCS=%totalcds%" -T "TOTALTRACKS=%numtracks%" -T "COMMENT=%comment%" %source% -o %dest%


TOC of the extracted CD

Track | Start | Length | Start sector | End sector
––––––––––––––––––––––––––––-
1 | 0:00.00 | 1:28.07 | 0 | 6606
2 | 1:28.07 | 3:39.03 | 6607 | 23034
3 | 5:07.10 | 3:10.28 | 23035 | 37312
4 | 8:17.38 | 2:52.00 | 37313 | 50212
5 | 11:09.38 | 0:59.41 | 50213 | 54678
6 | 12:09.04 | 4:24.61 | 54679 | 74539
7 | 16:33.65 | 1:46.03 | 74540 | 82492
8 | 18:19.68 | 4:12.30 | 82493 | 101422
9 | 22:32.23 | 2:57.21 | 101423 | 114718
10 | 25:29.44 | 2:18.10 | 114719 | 125078
11 | 27:47.54 | 0:42.11 | 125079 | 128239
12 | 28:29.65 | 4:10.67 | 128240 | 147056
13 | 32:40.57 | 1:59.24 | 147057 | 156005
14 | 34:40.06 | 5:41.54 | 156006 | 181634
15 | 40:21.60 | 4:13.11 | 181635 | 200620
16 | 44:34.71 | 7:59.14 | 200621 | 236559
17 | 52:34.10 | 1:10.05 | 236560 | 241814
18 | 53:44.15 | 4:19.43 | 241815 | 261282


Track 1

Filename E:\BGMusic\Junkie XL - Terminator Dark Fate\01 - Terminated.wav

Pre-gap length 0:00:02.00

Peak level 95.6 %
Extraction speed 2.0 X
Track quality 100.0 %
Test CRC 24D0A5A4
Copy CRC 24D0A5A4
Track not present in AccurateRip database
Copy OK

Track 2

Filename E:\BGMusic\Junkie XL - Terminator Dark Fate\02 - My Name Is Dani.wav

Peak level 89.8 %
Extraction speed 2.7 X
Track quality 100.0 %
Test CRC 5AF6C410
Copy CRC 5AF6C410
Track not present in AccurateRip database
Copy OK

Track 3

Filename E:\BGMusic\Junkie XL - Terminator Dark Fate\03 - REV 9.wav

Peak level 95.6 %
Extraction speed 2.9 X
Track quality 100.0 %
Test CRC BEA8E232
Copy CRC BEA8E232
Track not present in AccurateRip database
Copy OK

Track 4

Filename E:\BGMusic\Junkie XL - Terminator Dark Fate\04 - Iron Spike.wav

Peak level 95.6 %
Extraction speed 2.4 X
Track quality 99.9 %
Test CRC 49BFC637
Copy CRC 49BFC637
Track not present in AccurateRip database
Copy OK

Track 5

Filename E:\BGMusic\Junkie XL - Terminator Dark Fate\05 - Enter Sarah.wav

Peak level 95.6 %
Extraction speed 2.4 X
Track quality 100.0 %
Test CRC 62886817
Copy CRC 62886817
Track not present in AccurateRip database
Copy OK

Track 6

Filename E:\BGMusic\Junkie XL - Terminator Dark Fate\06 - Grace.wav

Peak level 95.6 %
Extraction speed 3.5 X
Track quality 100.0 %
Test CRC DB0B48B9
Copy CRC DB0B48B9
Track not present in AccurateRip database
Copy OK

Track 7

Filename E:\BGMusic\Junkie XL - Terminator Dark Fate\07 - Drones Coming.wav

Peak level 95.6 %
Extraction speed 3.1 X
Track quality 100.0 %
Test CRC DAF6AD7B
Copy CRC DAF6AD7B
Track not present in AccurateRip database
Copy OK

Track 8

Filename E:\BGMusic\Junkie XL - Terminator Dark Fate\08 - The Wall.wav

Peak level 95.6 %
Extraction speed 3.8 X
Track quality 100.0 %
Test CRC 68211ED2
Copy CRC 68211ED2
Track not present in AccurateRip database
Copy OK

Track 9

Filename E:\BGMusic\Junkie XL - Terminator Dark Fate\09 - Terminator.wav

Peak level 93.5 %
Extraction speed 3.1 X
Track quality 99.9 %
Test CRC 19CF9AA2
Copy CRC 19CF9AA2
Track not present in AccurateRip database
Copy OK

Track 10

Filename E:\BGMusic\Junkie XL - Terminator Dark Fate\10 - Coyote.wav

Peak level 95.6 %
Extraction speed 2.8 X
Track quality 99.9 %
Test CRC B444370A
Copy CRC B444370A
Track not present in AccurateRip database
Copy OK

Track 11

Filename E:\BGMusic\Junkie XL - Terminator Dark Fate\11 - The Picture on the Fridge.wav

Peak level 95.6 %
Extraction speed 0.8 X
Track quality 99.7 %
Test CRC 331D9B7F
Copy CRC 331D9B7F
Track not present in AccurateRip database
Copy OK

Track 12

Filename E:\BGMusic\Junkie XL - Terminator Dark Fate\12 - C5.wav

Peak level 95.6 %
Extraction speed 2.9 X
Track quality 100.0 %
Test CRC 0DBEE41A
Copy CRC 0DBEE41A
Track not present in AccurateRip database
Copy OK

Track 13

Filename E:\BGMusic\Junkie XL - Terminator Dark Fate\13 - HUMV.wav

Peak level 95.6 %
Extraction speed 2.6 X
Track quality 100.0 %
Test CRC 962919FB
Copy CRC 962919FB
Track not present in AccurateRip database
Copy OK

Track 14

Filename E:\BGMusic\Junkie XL - Terminator Dark Fate\14 - You Saved Me.wav

Peak level 95.6 %
Extraction speed 3.2 X
Track quality 100.0 %
Test CRC 4203645A
Copy CRC 4203645A
Track not present in AccurateRip database
Copy OK

Track 15

Filename E:\BGMusic\Junkie XL - Terminator Dark Fate\15 - Screaming Turbines.wav

Peak level 95.6 %
Extraction speed 3.2 X
Track quality 100.0 %
Test CRC DFBEECB6
Copy CRC DFBEECB6
Track not present in AccurateRip database
Copy OK

Track 16

Filename E:\BGMusic\Junkie XL - Terminator Dark Fate\16 - For John.wav

Peak level 95.6 %
Extraction speed 3.6 X
Track quality 100.0 %
Test CRC B6D29C29
Copy CRC B6D29C29
Track not present in AccurateRip database
Copy OK

Track 17

Filename E:\BGMusic\Junkie XL - Terminator Dark Fate\17 - Epilogue.wav

Peak level 95.6 %
Extraction speed 1.5 X
Track quality 99.8 %
Test CRC 9F89C243
Copy CRC 9F89C243
Track not present in AccurateRip database
Copy OK

Track 18

Filename E:\BGMusic\Junkie XL - Terminator Dark Fate\18 - Dark Fate.wav

Peak level 95.6 %
Extraction speed 3.6 X
Track quality 100.0 %
Test CRC 120AB750
Copy CRC 120AB750
Track not present in AccurateRip database
Copy OK


None of the tracks are present in the AccurateRip database

No errors occurred

End of status report

–– CUETools DB Plugin V2.1.6

[CTDB TOCID: HbEtXXBtJ2xB07m66PAL9zi9kG4-] found
Submit result: HbEtXXBtJ2xB07m66PAL9zi9kG4- has been confirmed
Track | CTDB Status
1 | (2/2) Accurately ripped
2 | (2/2) Accurately ripped
3 | (2/2) Accurately ripped
4 | (2/2) Accurately ripped
5 | (2/2) Accurately ripped
6 | (2/2) Accurately ripped
7 | (2/2) Accurately ripped
8 | (2/2) Accurately ripped
9 | (2/2) Accurately ripped
10 | (2/2) Accurately ripped
11 | (2/2) Accurately ripped
12 | (2/2) Accurately ripped
13 | (2/2) Accurately ripped
14 | (2/2) Accurately ripped
15 | (2/2) Accurately ripped
16 | (2/2) Accurately ripped
17 | (2/2) Accurately ripped
18 | (2/2) Accurately ripped


==== Log checksum 4A5179E6E380BC2A1D907CC4055B1233304D90AB5E5BBE1C00F70E9CA353FCA4 ====