Subcategories

Tori Amos - Gold Dust [CD+DVD] (2012) Re-up

Posted By: michuu66
Tori Amos - Gold Dust [CD+DVD] (2012) Re-up

Tori Amos - Gold Dust [CD+DVD] (2012)
EAC Rip | FLAC Image + Cue + Log | 313 MB | MP3 CBR @320 | 128 MB l Total Time: 61:15 l Covers Included l 79 MB
DVD-5 | Runtime: ~14 min. | Copy: Untouched | 16:9 (720x480) | English LPCM 16 bits 2 channels | 848 MB
Label: Deutsche Grammophon | Rock | No Subtitles

Gold Dust is the thirteenth solo studio album by American singer-songwriter Tori Amos, released on October 1, 2012 by Deutsche Grammophon and Mercury Classics. The album is produced by Amos with arrangements by long-time collaborator John Philip Shenale. Inspired by and following in a similar vein as Amos's previous effort, the classical music album Night of Hunters (2011), Gold Dust features some of the artist's previously released alternative rock and baroque pop songs re-worked in an orchestral setting. The re-imagined material for Gold Dust, consisting of songs personally selected by the artist spanning her entire catalogue from Little Earthquakes (1992) through Midwinter Graces (2009), was recorded with the renowned Metropole Orchestra, conducted by Jules Buckley (wikipedia.org).
CD Tracklist:
01. Flavor
02. Yes, Anastacia
03. Jackie's Strength
04. Cloud On My Tongue
05. Precious Things
06. Gold Dust
07. Star of Wonder
08. Winter
09. Flying Dutchman
10. Programmable Soda
11. Snow Cherries From France
12. Marianne
13. Silent All These Years
14. Girl Disappearing

Exact Audio Copy V1.1 from 23. June 2015

EAC extraction logfile from 26. October 2015, 19:25

Tori Amos / Gold Dust

Used drive : MATSHITADVD-RAM UJ8D1 Adapter: 1 ID: 0

Read mode : Secure
Utilize accurate stream : Yes
Defeat audio cache : Yes
Make use of C2 pointers : No

Read offset correction : 6
Overread into Lead-In and Lead-Out : No
Fill up missing offset samples with silence : Yes
Delete leading and trailing silent blocks : No
Null samples used in CRC calculations : Yes
Used interface : Native Win32 interface for Win NT & 2000

Used output format : User Defined Encoder
Selected bitrate : 768 kBit/s
Quality : High
Add ID3 tag : No
Command line compressor : C:\Program Files (x86)\Exact Audio Copy\FLAC\FLAC.EXE
Additional command line options : -6 -V -T "ARTIST=%artist%" -T "TITLE=%title%" -T "ALBUM=%albumtitle%" -T "DATE=%year%" -T "TRACKNUMBER=%tracknr%" -T "GENRE=%genre%" -T "COMMENT=%comment%" -T "BAND=%albuminterpret%" -T "ALBUMARTIST=%albuminterpret%" -T "COMPOSER=%composer%" %haslyrics%–tag-from-file=LYRICS="%lyricsfile%"%haslyrics% -T "DISCNUMBER=%cdnumber%" -T "TOTALDISCS=%totalcds%" -T "TOTALTRACKS=%numtracks%" %hascover%–picture="%coverfile%"%hascover% %source% -o %dest%


TOC of the extracted CD

Track | Start | Length | Start sector | End sector
––––––––––––––––––––––––––––-
1 | 0:00.00 | 4:08.11 | 0 | 18610
2 | 4:08.11 | 4:19.23 | 18611 | 38058
3 | 8:27.34 | 4:33.60 | 38059 | 58593
4 | 13:01.19 | 4:24.39 | 58594 | 78432
5 | 17:25.58 | 4:46.45 | 78433 | 99927
6 | 22:12.28 | 5:46.71 | 99928 | 125948
7 | 27:59.24 | 3:48.00 | 125949 | 143048
8 | 31:47.24 | 5:46.28 | 143049 | 169026
9 | 37:33.52 | 6:21.03 | 169027 | 197604
10 | 43:54.55 | 1:27.35 | 197605 | 204164
11 | 45:22.15 | 3:02.12 | 204165 | 217826
12 | 48:24.27 | 4:09.40 | 217827 | 236541
13 | 52:33.67 | 4:35.24 | 236542 | 257190
14 | 57:09.16 | 4:06.00 | 257191 | 275640


Range status and errors

Selected range

Filename F:\muzyka\upload\Tori Amos - Gold Dust.wav

Peak level 99.9 %
Extraction speed 4.6 X
Range quality 99.9 %
Copy CRC 2D9901EB
Copy OK

No errors occurred


AccurateRip summary

Track 1 accurately ripped (confidence 164) [C8A1BAAE] (AR v2)
Track 2 accurately ripped (confidence 167) [93F95264] (AR v2)
Track 3 accurately ripped (confidence 166) [47AFB112] (AR v2)
Track 4 accurately ripped (confidence 165) [B7AD5CB4] (AR v2)
Track 5 accurately ripped (confidence 166) [47076EE7] (AR v2)
Track 6 accurately ripped (confidence 167) [553422A9] (AR v2)
Track 7 accurately ripped (confidence 167) [6A899C9A] (AR v2)
Track 8 accurately ripped (confidence 159) [EFF87F31] (AR v2)
Track 9 accurately ripped (confidence 165) [885FD245] (AR v2)
Track 10 accurately ripped (confidence 166) [C39C445D] (AR v2)
Track 11 accurately ripped (confidence 165) [E3CC7E44] (AR v2)
Track 12 accurately ripped (confidence 165) [50DECBE8] (AR v2)
Track 13 accurately ripped (confidence 164) [3195F6A4] (AR v2)
Track 14 accurately ripped (confidence 166) [33CD183D] (AR v2)

All tracks accurately ripped

End of status report

–– CUETools DB Plugin V2.1.6

[CTDB TOCID: pH.mFozg_JS4I7FEidiNSrs227c-] found
Submit result: pH.mFozg_JS4I7FEidiNSrs227c- has been confirmed
Track | CTDB Status
1 | (176/176) Accurately ripped
2 | (176/176) Accurately ripped
3 | (176/176) Accurately ripped
4 | (176/176) Accurately ripped
5 | (176/176) Accurately ripped
6 | (176/176) Accurately ripped
7 | (176/176) Accurately ripped
8 | (174/176) Accurately ripped
9 | (176/176) Accurately ripped
10 | (175/176) Accurately ripped
11 | (175/176) Accurately ripped
12 | (175/176) Accurately ripped
13 | (176/176) Accurately ripped
14 | (175/176) Accurately ripped


==== Log checksum C98B79D7B4D6AD0340F21D14E69339B46D2D59C7E9643BC5989D3EFCBFADC0EB ====


DVD Tracklist:
Flavor
Gold Dust
Behind Scenes of Flavor
Tori Amos - Gold Dust [CD+DVD] (2012) Re-up
Tori Amos - Gold Dust [CD+DVD] (2012) Re-up