Subcategories

U.S. Navy Band Commodores Jazz Ensemble - Three Shades Of Blue (2005)

Posted By: Domestos
U.S. Navy Band Commodores Jazz Ensemble - Three Shades Of Blue (2005)

U.S. Navy Band Commodores Jazz Ensemble - Three Shades Of Blue (2005)
XLD Rip | FLAC (tracks+.cue, log) ~ 420.92 Mb | 01:12:22 | Cover
Big Band, Straight-ahead Jazz | Country: USA | Label: Not On Label ‎– 0434A

While the Army and Air Force have a number of world-class jazz ensembles garrisoned here in the States and abroad, the Navy has essentially one, the Commodores, so it had better be good. It is.

In fact, the Commodores are better than good, boasting enough seagoing firepower to stare down such well-equipped armadas as the Airmen of Note, Army Blues and other topnotch service bands without blinking, as they prove again on Three Shades of Blue. I've been a fan of the Commodores since I heard them perform in concert a number of years ago at the National Institute for Mental Health in Bethesda, Maryland, and afterward listened to their impressive recordings M Street SE, Here and Now and Live!, and there's nothing on Blue to darken that glowing opinion.

On the contrary, these gentlemen (and one lady) not only play marvelously, collectively and individually, they write superbly as well. Half of the dozen selections on Blue and all of the arrangements were inscribed by members of the ensemble. Baritone saxophonist Robert Holmes composed "Blues for a Change, "The Green Umbrella and "If the Shoe Fits ; tenor Stephen Williams "Tuning Up the Hurricane and "Cathal Brugha Blues ; pianist Dan LaMaestra "Revell's Reverie. LaMaestra arranged Dizzy's "A Night in Tunisia, while Williams did the same for Jim Snidero's "Ventura and Stevie Wonder's "Overjoyed, Holmes for Rodgers and Hart's "I'll Take Romance, the last two nicely sung by Yolanda Pelzer. Another tenor, Philip Burlin, doubles as arranger and soloist on Ellington's "In a Sentimental Mood, as does trombonist Jennifer Krupa (one of the IAJE's "Sisters in Jazz a few years back) on Tommy Flanagan's "Freight Trane.

Soprano saxophonist Michael Mulligan dances happily beneath the sturdy "Green Umbrella, and mention must be made of lead trombonist David Perkel's lustrous tone on the cozy "Shoe (which encloses a graceful solo by flugel Timothy Stanley). Tenor Luis Hernandez offers snappy remarks on the blustery "Hurricane and (with Holmes) on "Cathal Brugha, while LaMaestra is a standout with Stanley (trumpet) on "Tunisia, Williams (alto) on "Ventura, Mulligan (soprano) and bassist Randy Mattson on "Reverie. Krupa's charming muted trombone solo on "Trane is complemented by Burlin's tenor and Stanley's trumpet. Each of the originals is admirable, with high marks as well for the persuasive charts by Krupa ("Trane ), Williams ("Ventura ) and Burlin ("Sentimental Mood ).

In sum, another thoroughly pleasurable and stress-free voyage by the unsinkable Navy Commodores.
~ By JACK BOWERS



Track List:
1. Blues For A Change (05:21)
2. The Green Umbrella (05:59)
3. A Night In Tunisia (07:13)
4. Tuning Up The Hurricane (06:32)
5. If The Shoe Fits (05:27)
6. I'll Take Romance (03:24)
7. Revell's Reverie (06:56)
8. Freight Trane (06:16)
9. Ventura (07:45)
10. Overjoyed (03:54)
11. In A Sentimantal Mood (06:04)
12. Cathal Brugha Blues (07:00)

William Moore, Thomas Palance, Christopher Walker, Timothy Stanley: trumpet;
Philip Burlin, Stephen Williams, Luis Hernandez, Robert Holmes, William Mulligan: reeds;
Jamie Way, Jennifer Krupa, Mark Morgan, David Perkel: trombone;
Dan LaMaestra: piano;
David Malvaso: guitar;
Randy Mattson: bass;
John Parsons: drums;
Yolanda Pelzer: vocals.

X Lossless Decoder version 20151214 (149.1)

XLD extraction logfile from 2016-09-05 19:48:28 -0400

United States Navy Band Commodores Jazz Ensemble / Three Shades of Blue

Used drive : MATSHITA DVD-R UJ-8A8 (revision HB14)
Media type : Pressed CD

Ripper mode : XLD Secure Ripper
Disable audio cache : OK for the drive with a cache less than 1375KiB
Make use of C2 pointers : NO
Read offset correction : 102
Max retry count : 20
Gap status : Analyzed, Appended (except HTOA)

TOC of the extracted CD
Track | Start | Length | Start sector | End sector
––––––––––––––––––––––––––––-
1 | 00:00:00 | 05:24:54 | 0 | 24353
2 | 05:24:54 | 06:02:39 | 24354 | 51542
3 | 11:27:18 | 07:15:24 | 51543 | 84191
4 | 18:42:42 | 06:35:30 | 84192 | 113846
5 | 25:17:72 | 05:28:44 | 113847 | 138490
6 | 30:46:41 | 03:26:44 | 138491 | 153984
7 | 34:13:10 | 06:58:34 | 153985 | 185368
8 | 41:11:44 | 06:18:67 | 185369 | 213785
9 | 47:30:36 | 07:48:13 | 213786 | 248898
10 | 55:18:49 | 03:56:53 | 248899 | 266651
11 | 59:15:27 | 06:06:40 | 266652 | 294141
12 | 65:21:67 | 07:00:21 | 294142 | 325662

AccurateRip Summary (DiscID: 00200ebb-012b3c45-ab10f60c)
Track 01 : OK (v2, confidence 1/1)
Track 02 : OK (v2, confidence 1/1)
Track 03 : OK (v2, confidence 1/1)
Track 04 : OK (v2, confidence 1/1)
Track 05 : OK (v2, confidence 1/1)
Track 06 : OK (v2, confidence 1/1)
Track 07 : OK (v2, confidence 1/1)
Track 08 : OK (v2, confidence 1/1)
Track 09 : OK (v2, confidence 1/1)
Track 10 : OK (v2, confidence 1/1)
Track 11 : OK (v2, confidence 1/1)
Track 12 : OK (v2, confidence 1/1)
->All tracks accurately ripped.

All Tracks
Album gain : -2.71 dB
Peak : 0.990417
Statistics
Read error : 0
Jitter error (maybe fixed) : 0
Retry sector count : 0
Damaged sector count : 0

Track 01
Filename : /Users/brad/Downloads/rips/United States Navy Band Commodores Jazz Ensemble - Three Shades of Blue (2005) [FLAC]/01 Blues for a Change.flac
/Users/brad/Downloads/rips/United States Navy Band Commodores Jazz Ensemble - Three Shades of Blue (2005) [320]/01 Blues for a Change.mp3
Pre-gap length : 00:02:00

Track gain : -3.53 dB
Peak : 0.965118
CRC32 hash (test run) : 9E8C7B3B
CRC32 hash : 9E8C7B3B
CRC32 hash (skip zero) : 15D5D6A2
AccurateRip v1 signature : A5B2F080
AccurateRip v2 signature : 4536C788
->Accurately ripped (v2, confidence 1/1)
Statistics
Read error : 0
Jitter error (maybe fixed) : 0
Retry sector count : 0
Damaged sector count : 0

Track 02
Filename : /Users/brad/Downloads/rips/United States Navy Band Commodores Jazz Ensemble - Three Shades of Blue (2005) [FLAC]/02 The Green Umbrella.flac
/Users/brad/Downloads/rips/United States Navy Band Commodores Jazz Ensemble - Three Shades of Blue (2005) [320]/02 The Green Umbrella.mp3
Pre-gap length : 00:02:65

Track gain : -2.86 dB
Peak : 0.971313
CRC32 hash (test run) : F6E7249F
CRC32 hash : F6E7249F
CRC32 hash (skip zero) : CC7AD795
AccurateRip v1 signature : E53F1EF4
AccurateRip v2 signature : B630F74B
->Accurately ripped (v2, confidence 1/1)
Statistics
Read error : 0
Jitter error (maybe fixed) : 0
Retry sector count : 0
Damaged sector count : 0

Track 03
Filename : /Users/brad/Downloads/rips/United States Navy Band Commodores Jazz Ensemble - Three Shades of Blue (2005) [FLAC]/03 A Night in Tunisia.flac
/Users/brad/Downloads/rips/United States Navy Band Commodores Jazz Ensemble - Three Shades of Blue (2005) [320]/03 A Night in Tunisia.mp3
Pre-gap length : 00:03:00

Track gain : -3.09 dB
Peak : 0.965118
CRC32 hash (test run) : 6D28C530
CRC32 hash : 6D28C530
CRC32 hash (skip zero) : BED24579
AccurateRip v1 signature : 2AAF373D
AccurateRip v2 signature : 3B175B1F
->Accurately ripped (v2, confidence 1/1)
Statistics
Read error : 0
Jitter error (maybe fixed) : 0
Retry sector count : 0
Damaged sector count : 0

Track 04
Filename : /Users/brad/Downloads/rips/United States Navy Band Commodores Jazz Ensemble - Three Shades of Blue (2005) [FLAC]/04 Tuning Up the Hurricane.flac
/Users/brad/Downloads/rips/United States Navy Band Commodores Jazz Ensemble - Three Shades of Blue (2005) [320]/04 Tuning Up the Hurricane.mp3
Pre-gap length : 00:01:25

Track gain : -2.81 dB
Peak : 0.971191
CRC32 hash (test run) : 05F48610
CRC32 hash : 05F48610
CRC32 hash (skip zero) : CAF4FBD7
AccurateRip v1 signature : 96FF7BEF
AccurateRip v2 signature : 22DF3B4E
->Accurately ripped (v2, confidence 1/1)
Statistics
Read error : 0
Jitter error (maybe fixed) : 0
Retry sector count : 0
Damaged sector count : 0

Track 05
Filename : /Users/brad/Downloads/rips/United States Navy Band Commodores Jazz Ensemble - Three Shades of Blue (2005) [FLAC]/05 If the Shoe Fits.flac
/Users/brad/Downloads/rips/United States Navy Band Commodores Jazz Ensemble - Three Shades of Blue (2005) [320]/05 If the Shoe Fits.mp3
Pre-gap length : 00:02:67

Track gain : -0.88 dB
Peak : 0.816620
CRC32 hash (test run) : 80EDB895
CRC32 hash : 80EDB895
CRC32 hash (skip zero) : F52E94DB
AccurateRip v1 signature : C2D7B0D0
AccurateRip v2 signature : 7AFA97B7
->Accurately ripped (v2, confidence 1/1)
Statistics
Read error : 0
Jitter error (maybe fixed) : 0
Retry sector count : 0
Damaged sector count : 0

Track 06
Filename : /Users/brad/Downloads/rips/United States Navy Band Commodores Jazz Ensemble - Three Shades of Blue (2005) [FLAC]/06 I'll Take Romance.flac
/Users/brad/Downloads/rips/United States Navy Band Commodores Jazz Ensemble - Three Shades of Blue (2005) [320]/06 I'll Take Romance.mp3
Pre-gap length : 00:01:38

Track gain : -3.76 dB
Peak : 0.969727
CRC32 hash (test run) : 42206E05
CRC32 hash : 42206E05
CRC32 hash (skip zero) : 3708B804
AccurateRip v1 signature : 2AAED929
AccurateRip v2 signature : 5DBE9D5D
->Accurately ripped (v2, confidence 1/1)
Statistics
Read error : 0
Jitter error (maybe fixed) : 0
Retry sector count : 0
Damaged sector count : 0

Track 07
Filename : /Users/brad/Downloads/rips/United States Navy Band Commodores Jazz Ensemble - Three Shades of Blue (2005) [FLAC]/07 Revell's Reverie.flac
/Users/brad/Downloads/rips/United States Navy Band Commodores Jazz Ensemble - Three Shades of Blue (2005) [320]/07 Revell's Reverie.mp3
Pre-gap length : 00:02:09

Track gain : -1.82 dB
Peak : 0.965851
CRC32 hash (test run) : C79C3784
CRC32 hash : C79C3784
CRC32 hash (skip zero) : 8DC30F5F
AccurateRip v1 signature : E63AEFE7
AccurateRip v2 signature : CE3079A6
->Accurately ripped (v2, confidence 1/1)
Statistics
Read error : 0
Jitter error (maybe fixed) : 0
Retry sector count : 0
Damaged sector count : 0

Track 08
Filename : /Users/brad/Downloads/rips/United States Navy Band Commodores Jazz Ensemble - Three Shades of Blue (2005) [FLAC]/08 Freight Trane.flac
/Users/brad/Downloads/rips/United States Navy Band Commodores Jazz Ensemble - Three Shades of Blue (2005) [320]/08 Freight Trane.mp3
Pre-gap length : 00:01:73

Track gain : -1.05 dB
Peak : 0.964630
CRC32 hash (test run) : 156A5171
CRC32 hash : 156A5171
CRC32 hash (skip zero) : FFAF71FD
AccurateRip v1 signature : C6F6DB72
AccurateRip v2 signature : A911F4CD
->Accurately ripped (v2, confidence 1/1)
Statistics
Read error : 0
Jitter error (maybe fixed) : 0
Retry sector count : 0
Damaged sector count : 0

Track 09
Filename : /Users/brad/Downloads/rips/United States Navy Band Commodores Jazz Ensemble - Three Shades of Blue (2005) [FLAC]/09 Ventura.flac
/Users/brad/Downloads/rips/United States Navy Band Commodores Jazz Ensemble - Three Shades of Blue (2005) [320]/09 Ventura.mp3
Pre-gap length : 00:02:48

Track gain : -2.29 dB
Peak : 0.973297
CRC32 hash (test run) : 627EC3AF
CRC32 hash : 627EC3AF
CRC32 hash (skip zero) : 7FA1F324
AccurateRip v1 signature : 85F53E08
AccurateRip v2 signature : 62C4BA3B
->Accurately ripped (v2, confidence 1/1)
Statistics
Read error : 0
Jitter error (maybe fixed) : 0
Retry sector count : 0
Damaged sector count : 0

Track 10
Filename : /Users/brad/Downloads/rips/United States Navy Band Commodores Jazz Ensemble - Three Shades of Blue (2005) [FLAC]/10 Overjoyed.flac
/Users/brad/Downloads/rips/United States Navy Band Commodores Jazz Ensemble - Three Shades of Blue (2005) [320]/10 Overjoyed.mp3
Pre-gap length : 00:02:26

Track gain : -3.66 dB
Peak : 0.961060
CRC32 hash (test run) : 136F5EC8
CRC32 hash : 136F5EC8
CRC32 hash (skip zero) : 80C84450
AccurateRip v1 signature : E42BE02C
AccurateRip v2 signature : 66D34DD4
->Accurately ripped (v2, confidence 1/1)
Statistics
Read error : 0
Jitter error (maybe fixed) : 0
Retry sector count : 0
Damaged sector count : 0

Track 11
Filename : /Users/brad/Downloads/rips/United States Navy Band Commodores Jazz Ensemble - Three Shades of Blue (2005) [FLAC]/11 In a Sentimental Mood.flac
/Users/brad/Downloads/rips/United States Navy Band Commodores Jazz Ensemble - Three Shades of Blue (2005) [320]/11 In a Sentimental Mood.mp3
Pre-gap length : 00:02:51

Track gain : -1.28 dB
Peak : 0.968201
CRC32 hash (test run) : 581C5C7A
CRC32 hash : 581C5C7A
CRC32 hash (skip zero) : 147DA02C
AccurateRip v1 signature : F95A396F
AccurateRip v2 signature : 27DEFAE6
->Accurately ripped (v2, confidence 1/1)
Statistics
Read error : 0
Jitter error (maybe fixed) : 0
Retry sector count : 0
Damaged sector count : 0

Track 12
Filename : /Users/brad/Downloads/rips/United States Navy Band Commodores Jazz Ensemble - Three Shades of Blue (2005) [FLAC]/12 Cathal Brugha Blues.flac
/Users/brad/Downloads/rips/United States Navy Band Commodores Jazz Ensemble - Three Shades of Blue (2005) [320]/12 Cathal Brugha Blues.mp3
Pre-gap length : 00:01:42

Track gain : -3.99 dB
Peak : 0.990417
CRC32 hash (test run) : 0541C80B
CRC32 hash : 0541C80B
CRC32 hash (skip zero) : F14244D3
AccurateRip v1 signature : E2D79826
AccurateRip v2 signature : B1FC7319
->Accurately ripped (v2, confidence 1/1)
Statistics
Read error : 0
Jitter error (maybe fixed) : 0
Retry sector count : 0
Damaged sector count : 0

No errors occurred

End of status report

––-BEGIN XLD SIGNATURE––-
PQoxD4pRYnCssZaqTwb.scpv3aZ5J01v_fmXxHOls8h7Ylaz5PykEwh6CqkkX9A2JQuv6JI7sYjoVlYhPC0yjhyw2fqScmjEq2WXUhe
––-END XLD SIGNATURE––-

All thanks go to the deuxchatons

More Music in My Blog
Follow My RSS Channel