Subcategories

VA - Happy Christmas From Motown (1998)

Posted By: El Misha
VA - Happy Christmas From Motown (1998)

VA - Happy Christmas From Motown (1998)
EAC Rip | FLAC (image & cue & log) -> 324 MB | Scans included | 52:20
Genre: Soul, Rhythm & Blues, Vocal, Easy Listening | Label: Tamla Motown ‎– 554 6592

18 tracks, original Tamla-Motown recordings, 1963-1986, with Stevie Wonder, Diana Ross & The Supremes, The Jackson 5, The Temptations, Smokey Robinson, a.m.o.



Tracklist:

1. Diana Ross & Supremes — Rudolph The Red Nosed Reindeer 02:43
02. Jackson 5 — Frosty The Snowman 02:40
03. Smokey Robinson & Miracles — Santa Claus Is Coming To Town 01:54
04. Stevie Wonder — The Christmas Song 03:09
05. Smokey Robinson & Miracles — Jingle Bells 02:48
06. Jackson 5 — I Saw Mommy Kissing Santa Claus 03:01
07. Stevie Wonder — Christmastime 02:34
08. Diana Ross — Silver Bells 02:59
09. Jackson 5 — The Little Drummer Boy 03:14
10. Stevie Wonder — What Christmas Means To Me 02:30
11. Jackson 5 — Up On The House Top 03:12
12. Diana Ross & Supremes — Children's Christmas Song 02:47
13. Smokey Robinson & Miracles — Let It Snow 01:42
14. Diana Ross & Supremes — Joy To The World 02:10
15. Temptations — Someday At Christmas 03:25
16. Jackson 5 — Christmas Won't Be The Same This Year 02:30
17. Diana Ross & Supremes — White Christmas 03:56
18. Commodores — Jesus Is Love 04:56

Exact Audio Copy V0.99 prebeta 4 from 23. January 2008

Отчёт EAC об извлечении, выполненном 8. декабря 2009, 12:22

Various / Happy Christmas From Motown

Дисковод: Optiarc DVD RW AD-7203S Adapter: 1 ID: 1

Режим чтения : Достоверность
Использование точного потока : Да
Отключение кэша аудио : Да
Использование указателей C2 : Нет

Коррекция смещения при чтении : 48
Способность читать области Lead-in и Lead-out : Нет
Заполнение пропущенных сэмплов тишиной : Да
Удаление блоков с тишиной в начале и конце : Нет
При вычислениях CRC использовались нулевые сэмплы : Да
Интерфейс : Встроенный Win32-интерфейс для Win NT/2000

Выходной формат : Пользовательский кодировщик
Выбранный битрейт : 1024 kBit/s
Качество : Высокий
Добавление ID3-тэга : Нет
Утилита сжатия : C:\Program Files\Exact Audio Copy\Flac\flac.exe
Дополнительные параметры : -V -8 -T "artist=%a" -T "title=%t" -T "album=%g" -T "date=%y" -T "tracknumber=%n" -T "genre=%m" %s

TOC извлечённого CD

Трек | Старт | Длительность | Начальный сектор | Конечный сектор
––––––––––––––––––––––––––––––––––-
1 | 0:00.00 | 2:43.42 | 0 | 12266
2 | 2:43.42 | 2:40.20 | 12267 | 24286
3 | 5:23.62 | 1:54.25 | 24287 | 32861
4 | 7:18.12 | 3:09.05 | 32862 | 47041
5 | 10:27.17 | 2:48.53 | 47042 | 59694
6 | 13:15.70 | 3:01.45 | 59695 | 73314
7 | 16:17.40 | 2:34.17 | 73315 | 84881
8 | 18:51.57 | 2:59.33 | 84882 | 98339
9 | 21:51.15 | 3:14.62 | 98340 | 112951
10 | 25:06.02 | 2:30.23 | 112952 | 124224
11 | 27:36.25 | 3:12.72 | 124225 | 138696
12 | 30:49.22 | 2:47.55 | 138697 | 151276
13 | 33:37.02 | 1:42.33 | 151277 | 158959
14 | 35:19.35 | 2:10.37 | 158960 | 168746
15 | 37:29.72 | 3:25.63 | 168747 | 184184
16 | 40:55.60 | 2:30.72 | 184185 | 195506
17 | 43:26.57 | 3:56.63 | 195507 | 213269
18 | 47:23.45 | 4:56.30 | 213270 | 235499

Характеристики диапазона извлечения и сообщения об ошибках

Выбранный диапазон

Имя файла D:\EAC-FOLDER\VA- Happy Christmas From Motown\VA- Happy Christmas From Motown\Wes Montgomery - A Day In The Life_ Down Here On The Ground.wav

Пиковый уровень 98.3 %
Качество диапазона 99.9 %
CRC теста D860E378
CRC копии D860E378
Копирование… OK

Ошибок не произошло

AccurateRip: сводка

Трек 1 точное извлечение (доверие 1) [A7CC1163]
Трек 2 точное извлечение (доверие 1) [E92C48B4]
Трек 3 точное извлечение (доверие 1) [CD10D3D8]
Трек 4 точное извлечение (доверие 1) [F135BA88]
Трек 5 точное извлечение (доверие 1) [3F206830]
Трек 6 точное извлечение (доверие 1) [A53A4155]
Трек 7 точное извлечение (доверие 1) [66FD1D70]
Трек 8 точное извлечение (доверие 1) [A6B61472]
Трек 9 точное извлечение (доверие 1) [5FA0A884]
Трек 10 точное извлечение (доверие 1) [DC8C22CD]
Трек 11 точное извлечение (доверие 1) [70A7B986]
Трек 12 точное извлечение (доверие 1) [ECFDDB1D]
Трек 13 точное извлечение (доверие 1) [4B79D330]
Трек 14 точное извлечение (доверие 1) [F97963E9]
Трек 15 точное извлечение (доверие 1) [0CED6451]
Трек 16 точное извлечение (доверие 1) [BAD2C4A0]
Трек 17 точное извлечение (доверие 1) [6FE1E111]
Трек 18 точное извлечение (доверие 1) [8CDBADCC]

Все треки извлечены точно

Конец отчёта


All thanks to original releaser!