Tags
Language
Tags
May 2024
Su Mo Tu We Th Fr Sa
28 29 30 1 2 3 4
5 6 7 8 9 10 11
12 13 14 15 16 17 18
19 20 21 22 23 24 25
26 27 28 29 30 31 1

VA - Heavy Soul Vol. 2 (Mojo Presents 15 Hits Of Psychedelic Funk, Black Rock And Cosmic Slop...) (2020)

Posted By: aasana
VA - Heavy Soul Vol. 2 (Mojo Presents 15 Hits Of Psychedelic Funk, Black Rock And Cosmic Slop...) (2020)

Funkadelic - MOJO Presents: Heavy Soul Vol. 2 (2020)
XLD Rip | FLAC (tracks+.cue) | 01:10:49 | 423,42 MB
soul, psychedelic funk, black rock | Label: Mojo Magazine

Mojo presents 15 hits of psychedelic funk, black rock and cosmic slop with this belated follow-up to Mojo's 2010 Heavy Soul compilation.

Tracklist:
01. Funkadelic - Cosmic Slop (6:27)
02. Betty Davis - Walkin' Up The Road (2:48)
03. Ike & Tina Turner - You Got What You Wanted (2:20)
04. Lightnin' Rod - Doriella Du Fontaine (8:47)
05. Pure Hell - Lame Brain (3:08)
06. Death - Politicians In My Eyes (5:48)
07. Shuggie Otis - Ice Cold Daydream (3:53)
08. Love - Young & Able (Good & Evil) (3:21)
09. Swamp Dogg - Family Pain (3:06)
10. Sir Stanley - I Believe (2:47)
11. Leon's Creation - This Is The Beginning (4:58)
12. Musi-O-Tunya - Musi-O-Tunya (4:09)
13. Mdou Moctar - Tarhatazed (8:25)
14. Stone Coal White - Stone Coal White (2:40)
15. The Last Poets - For The Millions (8:12)

X Lossless Decoder version 20170729 (150.3)

XLD extraction logfile from 2020-03-14 19:59:58 -0400

Various Artists / MOJO Presents: Heavy Soul Vol. 2

Used drive : Apple SuperDrive (revision 2.03)
Media type : Pressed CD

Ripper mode : XLD Secure Ripper
Disable audio cache : OK for the drive with a cache less than 1375KiB
Make use of C2 pointers : NO
Read offset correction : 6
Max retry count : 100
Gap status : Analyzed, Appended (except HTOA)

TOC of the extracted CD
Track | Start | Length | Start sector | End sector
––––––––––––––––––––––––––––-
1 | 00:00:00 | 06:26:39 | 0 | 28988
2 | 06:26:39 | 02:48:36 | 28989 | 41624
3 | 09:15:00 | 02:20:21 | 41625 | 52145
4 | 11:35:21 | 08:46:54 | 52146 | 91649
5 | 20:22:00 | 03:08:37 | 91650 | 105786
6 | 23:30:37 | 05:47:38 | 105787 | 131849
7 | 29:18:00 | 03:53:37 | 131850 | 149361
8 | 33:11:37 | 03:20:38 | 149362 | 164399
9 | 36:32:00 | 03:06:00 | 164400 | 178349
10 | 39:38:00 | 02:47:00 | 178350 | 190874
11 | 42:25:00 | 04:58:00 | 190875 | 213224
12 | 47:23:00 | 04:09:00 | 213225 | 231899
13 | 51:32:00 | 08:25:11 | 231900 | 269785
14 | 59:57:11 | 02:40:26 | 269786 | 281811
15 | 62:37:37 | 08:12:00 | 281812 | 318711

AccurateRip Summary
Disc not found in AccurateRip DB.

All Tracks
Album gain : -6.84 dB
Peak : 0.961334
Statistics
Read error : 0
Jitter error (maybe fixed) : 0
Retry sector count : 0
Damaged sector count : 0

Track 01
Filename : /Users/johnpadgett/Documents/Compilations - MOJO Presents_ Heavy Soul Vol. 2 [FLAC]/01 Cosmic Slop.flac
Pre-gap length : 00:02:00

Track gain : -7.00 dB
Peak : 0.780975
CRC32 hash (test run) : 56250FA6
CRC32 hash : 56250FA6
CRC32 hash (skip zero) : FBCA7D0F
AccurateRip v1 signature : E3B05111
AccurateRip v2 signature : 9B7FB13E
->Track not present in AccurateRip database.
Statistics
Read error : 0
Jitter error (maybe fixed) : 0
Retry sector count : 0
Damaged sector count : 0

Track 02
Filename : /Users/johnpadgett/Documents/Compilations - MOJO Presents_ Heavy Soul Vol. 2 [FLAC]/02 Walkin' Up The Road.flac

Track gain : -6.22 dB
Peak : 0.751282
CRC32 hash (test run) : 7B162B6D
CRC32 hash : 7B162B6D
CRC32 hash (skip zero) : 9882A646
AccurateRip v1 signature : 47C562D0
AccurateRip v2 signature : 2C48D5E8
->Track not present in AccurateRip database.
Statistics
Read error : 0
Jitter error (maybe fixed) : 0
Retry sector count : 0
Damaged sector count : 0

Track 03
Filename : /Users/johnpadgett/Documents/Compilations - MOJO Presents_ Heavy Soul Vol. 2 [FLAC]/03 You Got What You Wanted.flac

Track gain : -7.58 dB
Peak : 0.961243
CRC32 hash (test run) : 0B06CE29
CRC32 hash : 0B06CE29
CRC32 hash (skip zero) : 7875A351
AccurateRip v1 signature : 7CA516C0
AccurateRip v2 signature : D7E586F3
->Track not present in AccurateRip database.
Statistics
Read error : 0
Jitter error (maybe fixed) : 0
Retry sector count : 0
Damaged sector count : 0

Track 04
Filename : /Users/johnpadgett/Documents/Compilations - MOJO Presents_ Heavy Soul Vol. 2 [FLAC]/04 Doriella Du Fontaine.flac

Track gain : -4.57 dB
Peak : 0.961243
CRC32 hash (test run) : 9EF3406A
CRC32 hash : 9EF3406A
CRC32 hash (skip zero) : B665950F
AccurateRip v1 signature : 78042A64
AccurateRip v2 signature : 97104FD0
->Track not present in AccurateRip database.
Statistics
Read error : 0
Jitter error (maybe fixed) : 0
Retry sector count : 0
Damaged sector count : 0

Track 05
Filename : /Users/johnpadgett/Documents/Compilations - MOJO Presents_ Heavy Soul Vol. 2 [FLAC]/05 Lame Brain.flac

Track gain : -5.91 dB
Peak : 0.625946
CRC32 hash (test run) : 5D7A96F7
CRC32 hash : 5D7A96F7
CRC32 hash (skip zero) : 7DDB5728
AccurateRip v1 signature : 9578CAB3
AccurateRip v2 signature : 06F1AE34
->Track not present in AccurateRip database.
Statistics
Read error : 0
Jitter error (maybe fixed) : 0
Retry sector count : 0
Damaged sector count : 0

Track 06
Filename : /Users/johnpadgett/Documents/Compilations - MOJO Presents_ Heavy Soul Vol. 2 [FLAC]/06 Politicians In My Eyes.flac

Track gain : -6.64 dB
Peak : 0.671204
CRC32 hash (test run) : 63F2776A
CRC32 hash : 63F2776A
CRC32 hash (skip zero) : 7BE85B2E
AccurateRip v1 signature : 7853A6B0
AccurateRip v2 signature : D2000895
->Track not present in AccurateRip database.
Statistics
Read error : 0
Jitter error (maybe fixed) : 0
Retry sector count : 0
Damaged sector count : 0

Track 07
Filename : /Users/johnpadgett/Documents/Compilations - MOJO Presents_ Heavy Soul Vol. 2 [FLAC]/07 Ice Cold Daydream.flac

Track gain : -5.77 dB
Peak : 0.961243
CRC32 hash (test run) : 9C3784C8
CRC32 hash : 9C3784C8
CRC32 hash (skip zero) : 1C2B3FB1
AccurateRip v1 signature : 81970BC7
AccurateRip v2 signature : B3308F90
->Track not present in AccurateRip database.
Statistics
Read error : 0
Jitter error (maybe fixed) : 0
Retry sector count : 0
Damaged sector count : 0

Track 08
Filename : /Users/johnpadgett/Documents/Compilations - MOJO Presents_ Heavy Soul Vol. 2 [FLAC]/08 Young _ Able (Good _ Evil).flac

Track gain : -7.56 dB
Peak : 0.688538
CRC32 hash (test run) : 49C17F84
CRC32 hash : 49C17F84
CRC32 hash (skip zero) : B765130B
AccurateRip v1 signature : F4B9F8EA
AccurateRip v2 signature : B1871E33
->Track not present in AccurateRip database.
Statistics
Read error : 0
Jitter error (maybe fixed) : 0
Retry sector count : 0
Damaged sector count : 0

Track 09
Filename : /Users/johnpadgett/Documents/Compilations - MOJO Presents_ Heavy Soul Vol. 2 [FLAC]/09 Family Pain.flac

Track gain : -4.95 dB
Peak : 0.925751
CRC32 hash (test run) : 0C5042BA
CRC32 hash : 0C5042BA
CRC32 hash (skip zero) : 715A7134
AccurateRip v1 signature : 80CF604C
AccurateRip v2 signature : 3B8820CD
->Track not present in AccurateRip database.
Statistics
Read error : 0
Jitter error (maybe fixed) : 0
Retry sector count : 0
Damaged sector count : 0

Track 10
Filename : /Users/johnpadgett/Documents/Compilations - MOJO Presents_ Heavy Soul Vol. 2 [FLAC]/10 I Believe.flac

Track gain : -9.61 dB
Peak : 0.888245
CRC32 hash (test run) : 0A4A2135
CRC32 hash : 0A4A2135
CRC32 hash (skip zero) : 6878F635
AccurateRip v1 signature : CC8CFA5E
AccurateRip v2 signature : 2904AF68
->Track not present in AccurateRip database.
Statistics
Read error : 0
Jitter error (maybe fixed) : 0
Retry sector count : 0
Damaged sector count : 0

Track 11
Filename : /Users/johnpadgett/Documents/Compilations - MOJO Presents_ Heavy Soul Vol. 2 [FLAC]/11 This Is The Beginning.flac

Track gain : -5.96 dB
Peak : 0.961273
CRC32 hash (test run) : A6390370
CRC32 hash : A6390370
CRC32 hash (skip zero) : 740949E9
AccurateRip v1 signature : DA86839B
AccurateRip v2 signature : 598E125B
->Track not present in AccurateRip database.
Statistics
Read error : 0
Jitter error (maybe fixed) : 0
Retry sector count : 0
Damaged sector count : 0

Track 12
Filename : /Users/johnpadgett/Documents/Compilations - MOJO Presents_ Heavy Soul Vol. 2 [FLAC]/12 Musi-O-Tunya.flac

Track gain : -6.95 dB
Peak : 0.961212
CRC32 hash (test run) : 1AF1EDAF
CRC32 hash : 1AF1EDAF
CRC32 hash (skip zero) : A3C9DEF9
AccurateRip v1 signature : BF63A468
AccurateRip v2 signature : 26DF674F
->Track not present in AccurateRip database.
Statistics
Read error : 0
Jitter error (maybe fixed) : 0
Retry sector count : 0
Damaged sector count : 0

Track 13
Filename : /Users/johnpadgett/Documents/Compilations - MOJO Presents_ Heavy Soul Vol. 2 [FLAC]/13 Tarhatazed.flac

Track gain : -3.87 dB
Peak : 0.781036
CRC32 hash (test run) : 6AC9FEA2
CRC32 hash : 6AC9FEA2
CRC32 hash (skip zero) : EE5C4AC4
AccurateRip v1 signature : CE0BC749
AccurateRip v2 signature : 7FDB3AE3
->Track not present in AccurateRip database.
Statistics
Read error : 0
Jitter error (maybe fixed) : 0
Retry sector count : 0
Damaged sector count : 0

Track 14
Filename : /Users/johnpadgett/Documents/Compilations - MOJO Presents_ Heavy Soul Vol. 2 [FLAC]/14 Stone Coal White.flac

Track gain : -8.37 dB
Peak : 0.961334
CRC32 hash (test run) : 84C22B4B
CRC32 hash : 84C22B4B
CRC32 hash (skip zero) : A3024E2E
AccurateRip v1 signature : 70B80FF2
AccurateRip v2 signature : 9D7434AA
->Track not present in AccurateRip database.
Statistics
Read error : 0
Jitter error (maybe fixed) : 0
Retry sector count : 0
Damaged sector count : 0

Track 15
Filename : /Users/johnpadgett/Documents/Compilations - MOJO Presents_ Heavy Soul Vol. 2 [FLAC]/15 For The Millions.flac

Track gain : -2.93 dB
Peak : 0.958282
CRC32 hash (test run) : A27444E3
CRC32 hash : A27444E3
CRC32 hash (skip zero) : 62D8BF16
AccurateRip v1 signature : E510A93B
AccurateRip v2 signature : 2C665216
->Track not present in AccurateRip database.
Statistics
Read error : 0
Jitter error (maybe fixed) : 0
Retry sector count : 0
Damaged sector count : 0

No errors occurred

End of status report

––-BEGIN XLD SIGNATURE––-
yekJJpgp8f_72ciYp1gLaRuFm.IaTXeNEwW0qNf1OSSKatWg_eLqCHkYXNYE09X6p032K4FZAx0TRP6IHjxQnntAIvBc5WKaKi_X9Pm
––-END XLD SIGNATURE––-