Tags
Language
Tags

VA - Listen All Around: The Golden Age of Central and East African Music (2018)

Posted By: aasana
VA - Listen All Around: The Golden Age of Central and East African Music (2018)

VA - Listen All Around: The Golden Age of Central and East African Music (2018)
EAC Rip | FLAC (tracks+.cue+.log) & Artwork, booklet | 2:12:26 | 418 MB
World, Ethnic, African | Label: Dust-to-digital

Legendary ethnomusicologist and field-recording pioneer, Hugh Tracey founded the International Library of African Music (ILAM) in 1954. Today, ILAM preserves thousands of historical recordings and has become the greatest repository of African music in the world. Dust-to-Digital have partnered with ILAM to present “Listen All Around” – a compilation of newly-transferred and remastered recordings that Hugh Tracey made between 1950-1958.

"The recordings presented here were made in central and eastern Africa – specifically, the Belgian Congo (now the Democratic Republic of the Congo), Kenya, Tanganyika and Zanzibar (now Tanzania). The genre of music Tracey documented, and the focus of this double album and book is rumba and its variations – Congolese rumba, dansi and benga. The recordings, photographs and detailed liner notes included in this set provide a rich point of immersion into the mid-20th-century music of eastern and central Africa."

Tracklist:
01. Kalenga Antonance - Mamboleyo (Affairs of Today)
02. Ilunga Patrice, Misomba Victor and Friends - Mamwana Kufika Munda (My Love Is Upset)
03. Vijana wa Mbeya with Jim D. Gondwe - Siwezi Kuiacha Rumba (I Cannot Give Up Rumba)
04. Henri Bembele and Orchestra Tinapa - Stanleyville Putulú (Stanleyville is Dusty)
05. Dar es Salaam Jazz Band - Kwa Jinsi Ninavyokupenda (How I Love You)
06. Lang Obiero - Pini Ochama (I Was Without Hope)
07. Joseph Eluka and Soldiers - Sͻkͻ Olingi Na-Boma (If You Want to Kill Me)
08. Yemba Jean Batiste and Soldiers - Caroline Zibula Bango
09. Société Edemi de Stanleyville, led by Elise Edemi - Tála Bango (Watch Them)
10. Bakia Pierre - Gitari na Congo (Guitar of the Congo)
11. Morris Kalala - Birima
12. Tauni Mwenasasu and Friend - Mangwasi
13. Coast Social Orchestra. Leader, Alexander Ayub - Napenda (I Love)
14. Coast Social Orchestra. Leader, Alexander Ayub - Mamie Sistah Mai Deah (Mommy, Sister My Dear)
15. Chemutoi Ketienya and Kipsigis Girls - Chemirocha III
16. Sunderland String Band. Leader, Louis Mellito - Mpenzi Wangu Wanitupa (My Sweetheart Left Me)
17. Lang Obiero - Mpenzi Wangu, Umepotea Mjini (My Love, You Have Disappeared in Town)
18. Lang Obiero - Jumamosi Kuna Vigelegele (On Saturday, There Is Celebration)
19. ORCLOS. Leader, Ombiza Charles - Maivuno ni Kilema (Jealousy Is a Vice)
20. Kimambo Brothers - Kisima cha Wivu (Well of Jealousy)
21. Coast Social Orchestra. Leader, Alexander Ayub - Moyo Wanitanga-Tanga (My Heart Is Troubled)
22. Coast Social Orchestra. Leader, Alexander Ayub - Nali Kisafiri (As I Was Traveling)
23. ECO (East Coast Orchestra) African Band - Wapenzi Kuwaona (We Are Pleased to See You and to Be Together)
24. Ilunga Patrice, Misomba Victor, and Friends - Mama Josefina (Mama Josefina)
25. ORCLOS. Leader, Ombiza Charles - Jean Ndjela ku Parquet (Jean Ndjela before the High Court)
26. Norbert de Magaro - Pipi na Dongo (Candy and Okra)
27. Ezekiel Kamenga and Luba Men - Kilio Mama (Mother’s Cries)
28. Mwenda Jean Bosco and Singers - Mwendo Tulikwenda (The Journey That We Took)
29. ECO (East Coast Orchestra) African Band - Doa Jeupe (White Spot)
30. Sunderland String Band - Eh, Mwajuma Wanikataa (Eh, Mwajuma, You Have Turned Me Down)
31. Samuel Colon and Baninga Baye - Marie Wabolingo (Marie, My Love)
32. Dar es Salaam Jazz Band - Hayo Siyakweli (It’s Not True)
33. Dar es Salaam Jazz Band - Nimepata Mpenzi, Mtoto, Mdogo, Mzuri Simwachi (I Got a Young, Beautiful Girl that I Won’t Leave)
34. Chipukizi Rumba - Nimepata Mpenzi, Mtoto Mzuri (I Got a Young, Beautiful Girl)
35. Vijana wa Mbeya - Mtoto Mzuri Simwachi (I Won’t Leave a Young, Beautiful Girl)
36. Merry Black Birds - Chineno (Little Speech)
37. Merry Black Birds - Chaupele Mpenzi (Chaupele, My Love)
38. ORCLOS - Ushuru wa Guitare (Payments for [Playing] Guitar)
39. Katanga Dance Orchestra - Mapani (Mapani’s Band)
40. Salum's Brass Band with Salum Seliman - Mahaba Matamu (How Sweet Is Our Love)
41. Salum's Brass Band with Salum Seliman - Shukurani (Give Thanks)
42. Salum's Brass Band with Salum Seliman - Hawana Kazi Makarani (They Have No Work, Those Clerks)
43. Chipukizi Rumba - Dada Mwajuma Nifichie Siri Yangu (Sister Mwajuma, Keep My Secret)
44. Chibanda Baudouin - Skoot (Scouts)
45. Lake Victoria Band - Dhi Dala U (Go Back to Your Home)
46. Kamwema Jean and His Friends - Nabela
47. ORCLOS - Tulale Ngonga Imelia (The Time Has Come to Sleep)

Exact Audio Copy V1.3 from 2. September 2016

EAC extraction logfile from 3. August 2018, 22:55

Various Artists / Listen All Around: The Golden Age of Central and East African Music

Used drive : HL-DT-STDVD+-RW GSA-H73N Adapter: 1 ID: 0

Read mode : Secure
Utilize accurate stream : Yes
Defeat audio cache : Yes
Make use of C2 pointers : No

Read offset correction : 102
Overread into Lead-In and Lead-Out : No
Fill up missing offset samples with silence : Yes
Delete leading and trailing silent blocks : No
Null samples used in CRC calculations : Yes
Used interface : Native Win32 interface for Win NT & 2000
Gap handling : Appended to previous track

Used output format : User Defined Encoder
Selected bitrate : 896 kBit/s
Quality : High
Add ID3 tag : No
Command line compressor : C:\EAC\Flac\flac.exe
Additional command line options : -8 -e -p -V -T "ARTIST=%artist%" -T "TITLE=%title%" -T "ALBUM=%albumtitle%" -T "DATE=%year%" -T "TRACKNUMBER=%tracknr%" -T "GENRE=%genre%" -T "PERFORMER=%albuminterpret%" -T "COMPOSER=%composer%" %haslyrics%–tag-from-file=LYRICS="%lyricsfile%"%haslyrics% -T "ALBUMARTIST=%albumartist%" -T "DISCNUMBER=%cdnumber%" -T "TOTALDISCS=%totalcds%" -T "TOTALTRACKS=%numtracks%" -T "COMMENT=%comment%" %source% -o %dest%


TOC of the extracted CD

Track | Start | Length | Start sector | End sector
––––––––––––––––––––––––––––-
1 | 0:00.00 | 2:48.63 | 0 | 12662
2 | 2:48.63 | 2:46.49 | 12663 | 25161
3 | 5:35.37 | 2:47.71 | 25162 | 37757
4 | 8:23.33 | 3:02.00 | 37758 | 51407
5 | 11:25.33 | 2:34.42 | 51408 | 62999
6 | 14:00.00 | 2:47.31 | 63000 | 75555
7 | 16:47.31 | 3:00.72 | 75556 | 89127
8 | 19:48.28 | 2:53.68 | 89128 | 102170
9 | 22:42.21 | 2:53.26 | 102171 | 115171
10 | 25:35.47 | 2:45.58 | 115172 | 127604
11 | 28:21.30 | 2:43.29 | 127605 | 139858
12 | 31:04.59 | 2:54.32 | 139859 | 152940
13 | 33:59.16 | 2:37.25 | 152941 | 164740
14 | 36:36.41 | 3:16.72 | 164741 | 179512
15 | 39:53.38 | 1:26.43 | 179513 | 186005
16 | 41:20.06 | 2:53.68 | 186006 | 199048
17 | 44:13.74 | 3:16.35 | 199049 | 213783
18 | 47:30.34 | 2:51.67 | 213784 | 226675
19 | 50:22.26 | 3:00.43 | 226676 | 240218
20 | 53:22.69 | 2:58.26 | 240219 | 253594
21 | 56:21.20 | 2:44.28 | 253595 | 265922
22 | 59:05.48 | 2:50.01 | 265923 | 278673
23 | 61:55.49 | 3:08.40 | 278674 | 292813


Track 1

Filename C:\Rips\Listen All Around - The Golden Age of Central and East African Music (2018) [FLAC] {DTD-52}\Disc 1\01 - Kalenga Antonance - Mamboleyo (Affairs of Today).wav

Pre-gap length 0:00:02.00

Peak level 92.0 %
Extraction speed 0.8 X
Track quality 99.7 %
Test CRC 8700E414
Copy CRC 8700E414
Track not present in AccurateRip database
Copy OK

Track 2

Filename C:\Rips\Listen All Around - The Golden Age of Central and East African Music (2018) [FLAC] {DTD-52}\Disc 1\02 - Ilunga Patrice, Misomba Victor and Friends - Mamwana Kufika Munda (My Love Is Upset).wav

Peak level 94.4 %
Extraction speed 1.2 X
Track quality 99.8 %
Test CRC 59204163
Copy CRC 59204163
Track not present in AccurateRip database
Copy OK

Track 3

Filename C:\Rips\Listen All Around - The Golden Age of Central and East African Music (2018) [FLAC] {DTD-52}\Disc 1\03 - Vijana wa Mbeya with Jim D. Gondwe - Siwezi Kuiacha Rumba (I Cannot Give Up Rumba).wav

Peak level 94.4 %
Extraction speed 1.3 X
Track quality 99.8 %
Test CRC FBDA45EF
Copy CRC FBDA45EF
Track not present in AccurateRip database
Copy OK

Track 4

Filename C:\Rips\Listen All Around - The Golden Age of Central and East African Music (2018) [FLAC] {DTD-52}\Disc 1\04 - Henri Bembele and Orchestra Tinapa - Stanleyville Putulú (Stanleyville is Dusty).wav

Peak level 84.1 %
Extraction speed 1.9 X
Track quality 100.0 %
Test CRC CC593300
Copy CRC CC593300
Track not present in AccurateRip database
Copy OK

Track 5

Filename C:\Rips\Listen All Around - The Golden Age of Central and East African Music (2018) [FLAC] {DTD-52}\Disc 1\05 - Dar es Salaam Jazz Band - Kwa Jinsi Ninavyokupenda (How I Love You).wav

Peak level 83.1 %
Extraction speed 1.9 X
Track quality 100.0 %
Test CRC 326DD019
Copy CRC 326DD019
Track not present in AccurateRip database
Copy OK

Track 6

Filename C:\Rips\Listen All Around - The Golden Age of Central and East African Music (2018) [FLAC] {DTD-52}\Disc 1\06 - Lang Obiero - Pini Ochama (I Was Without Hope).wav

Peak level 94.3 %
Extraction speed 2.0 X
Track quality 100.0 %
Test CRC 91A433A8
Copy CRC 91A433A8
Track not present in AccurateRip database
Copy OK

Track 7

Filename C:\Rips\Listen All Around - The Golden Age of Central and East African Music (2018) [FLAC] {DTD-52}\Disc 1\07 - Joseph Eluka and Soldiers - Sͻkͻ Olingi Na-Boma (If You Want to Kill Me).wav

Peak level 94.2 %
Extraction speed 2.1 X
Track quality 100.0 %
Test CRC 0D9B2947
Copy CRC 0D9B2947
Track not present in AccurateRip database
Copy OK

Track 8

Filename C:\Rips\Listen All Around - The Golden Age of Central and East African Music (2018) [FLAC] {DTD-52}\Disc 1\08 - Yemba Jean Batiste and Soldiers - Caroline Zibula Bango.wav

Peak level 94.3 %
Extraction speed 2.2 X
Track quality 100.0 %
Test CRC 6CBC6F2D
Copy CRC 6CBC6F2D
Track not present in AccurateRip database
Copy OK

Track 9

Filename C:\Rips\Listen All Around - The Golden Age of Central and East African Music (2018) [FLAC] {DTD-52}\Disc 1\09 - Société Edemi de Stanleyville, led by Elise Edemi - Tála Bango (Watch Them).wav

Peak level 79.9 %
Extraction speed 2.3 X
Track quality 100.0 %
Test CRC BA0D6C95
Copy CRC BA0D6C95
Track not present in AccurateRip database
Copy OK

Track 10

Filename C:\Rips\Listen All Around - The Golden Age of Central and East African Music (2018) [FLAC] {DTD-52}\Disc 1\10 - Bakia Pierre - Gitari na Congo (Guitar of the Congo).wav

Peak level 94.4 %
Extraction speed 2.4 X
Track quality 100.0 %
Test CRC 69011C73
Copy CRC 69011C73
Track not present in AccurateRip database
Copy OK

Track 11

Filename C:\Rips\Listen All Around - The Golden Age of Central and East African Music (2018) [FLAC] {DTD-52}\Disc 1\11 - Morris Kalala - Birima.wav

Peak level 74.9 %
Extraction speed 2.4 X
Track quality 100.0 %
Test CRC 2C5F9650
Copy CRC 2C5F9650
Track not present in AccurateRip database
Copy OK

Track 12

Filename C:\Rips\Listen All Around - The Golden Age of Central and East African Music (2018) [FLAC] {DTD-52}\Disc 1\12 - Tauni Mwenasasu and Friend - Mangwasi.wav

Peak level 85.3 %
Extraction speed 2.6 X
Track quality 100.0 %
Test CRC EB4B2D7D
Copy CRC EB4B2D7D
Track not present in AccurateRip database
Copy OK

Track 13

Filename C:\Rips\Listen All Around - The Golden Age of Central and East African Music (2018) [FLAC] {DTD-52}\Disc 1\13 - Coast Social Orchestra. Leader, Alexander Ayub - Napenda (I Love).wav

Peak level 94.4 %
Extraction speed 2.1 X
Track quality 99.9 %
Test CRC 2F47935E
Copy CRC 2F47935E
Track not present in AccurateRip database
Copy OK

Track 14

Filename C:\Rips\Listen All Around - The Golden Age of Central and East African Music (2018) [FLAC] {DTD-52}\Disc 1\14 - Coast Social Orchestra. Leader, Alexander Ayub - Mamie Sistah Mai Deah (Mommy, Sister My Dear).wav

Peak level 94.4 %
Extraction speed 2.8 X
Track quality 100.0 %
Test CRC 73AF1E64
Copy CRC 73AF1E64
Track not present in AccurateRip database
Copy OK

Track 15

Filename C:\Rips\Listen All Around - The Golden Age of Central and East African Music (2018) [FLAC] {DTD-52}\Disc 1\15 - Chemutoi Ketienya and Kipsigis Girls - Chemirocha III.wav

Peak level 72.9 %
Extraction speed 2.3 X
Track quality 100.0 %
Test CRC D1F8D47F
Copy CRC D1F8D47F
Track not present in AccurateRip database
Copy OK

Track 16

Filename C:\Rips\Listen All Around - The Golden Age of Central and East African Music (2018) [FLAC] {DTD-52}\Disc 1\16 - Sunderland String Band. Leader, Louis Mellito - Mpenzi Wangu Wanitupa (My Sweetheart Left Me).wav

Peak level 87.6 %
Extraction speed 2.8 X
Track quality 100.0 %
Test CRC 9A3AF37D
Copy CRC 9A3AF37D
Track not present in AccurateRip database
Copy OK

Track 17

Filename C:\Rips\Listen All Around - The Golden Age of Central and East African Music (2018) [FLAC] {DTD-52}\Disc 1\17 - Lang Obiero - Mpenzi Wangu, Umepotea Mjini (My Love, You Have Disappeared in Town).wav

Peak level 94.2 %
Extraction speed 2.9 X
Track quality 100.0 %
Test CRC 965FA3C1
Copy CRC 965FA3C1
Track not present in AccurateRip database
Copy OK

Track 18

Filename C:\Rips\Listen All Around - The Golden Age of Central and East African Music (2018) [FLAC] {DTD-52}\Disc 1\18 - Lang Obiero - Jumamosi Kuna Vigelegele (On Saturday, There Is Celebration).wav

Peak level 86.1 %
Extraction speed 2.9 X
Track quality 100.0 %
Test CRC A366E10F
Copy CRC A366E10F
Track not present in AccurateRip database
Copy OK

Track 19

Filename C:\Rips\Listen All Around - The Golden Age of Central and East African Music (2018) [FLAC] {DTD-52}\Disc 1\19 - ORCLOS. Leader, Ombiza Charles - Maivuno ni Kilema (Jealousy Is a Vice).wav

Peak level 81.9 %
Extraction speed 2.6 X
Track quality 99.9 %
Test CRC D502D47D
Copy CRC D502D47D
Track not present in AccurateRip database
Copy OK

Track 20

Filename C:\Rips\Listen All Around - The Golden Age of Central and East African Music (2018) [FLAC] {DTD-52}\Disc 1\20 - Kimambo Brothers - Kisima cha Wivu (Well of Jealousy).wav

Peak level 79.1 %
Extraction speed 3.1 X
Track quality 100.0 %
Test CRC 972D057F
Copy CRC 972D057F
Track not present in AccurateRip database
Copy OK

Track 21

Filename C:\Rips\Listen All Around - The Golden Age of Central and East African Music (2018) [FLAC] {DTD-52}\Disc 1\21 - Coast Social Orchestra. Leader, Alexander Ayub - Moyo Wanitanga-Tanga (My Heart Is Troubled).wav

Peak level 94.3 %
Extraction speed 3.1 X
Track quality 100.0 %
Test CRC 95E8AB10
Copy CRC 95E8AB10
Track not present in AccurateRip database
Copy OK

Track 22

Filename C:\Rips\Listen All Around - The Golden Age of Central and East African Music (2018) [FLAC] {DTD-52}\Disc 1\22 - Coast Social Orchestra. Leader, Alexander Ayub - Nali Kisafiri (As I Was Traveling).wav

Peak level 94.4 %
Extraction speed 3.1 X
Track quality 100.0 %
Test CRC 2A49C335
Copy CRC 2A49C335
Track not present in AccurateRip database
Copy OK

Track 23

Filename C:\Rips\Listen All Around - The Golden Age of Central and East African Music (2018) [FLAC] {DTD-52}\Disc 1\23 - ECO (East Coast Orchestra) African Band - Wapenzi Kuwaona (We Are Pleased to See You and to Be Together).wav

Peak level 92.8 %
Extraction speed 3.3 X
Track quality 100.0 %
Test CRC 1FEB1098
Copy CRC 1FEB1098
Track not present in AccurateRip database
Copy OK


None of the tracks are present in the AccurateRip database

No errors occurred

End of status report

==== Log checksum 08F3D2643BFB8D1D1ABAE913088875B9F98D7B6ABE0A703AD5D8C8EBF3E7CCAF ====

Exact Audio Copy V1.3 from 2. September 2016

EAC extraction logfile from 4. August 2018, 8:09

Various Artists / Listen All Around: The Golden Age Of Central And East African Music

Used drive : HL-DT-STDVD+-RW GSA-H73N Adapter: 1 ID: 0

Read mode : Secure
Utilize accurate stream : Yes
Defeat audio cache : Yes
Make use of C2 pointers : No

Read offset correction : 102
Overread into Lead-In and Lead-Out : No
Fill up missing offset samples with silence : Yes
Delete leading and trailing silent blocks : No
Null samples used in CRC calculations : Yes
Used interface : Native Win32 interface for Win NT & 2000
Gap handling : Appended to previous track

Used output format : User Defined Encoder
Selected bitrate : 896 kBit/s
Quality : High
Add ID3 tag : No
Command line compressor : C:\EAC\Flac\flac.exe
Additional command line options : -8 -e -p -V -T "ARTIST=%artist%" -T "TITLE=%title%" -T "ALBUM=%albumtitle%" -T "DATE=%year%" -T "TRACKNUMBER=%tracknr%" -T "GENRE=%genre%" -T "PERFORMER=%albuminterpret%" -T "COMPOSER=%composer%" %haslyrics%–tag-from-file=LYRICS="%lyricsfile%"%haslyrics% -T "ALBUMARTIST=%albumartist%" -T "DISCNUMBER=%cdnumber%" -T "TOTALDISCS=%totalcds%" -T "TOTALTRACKS=%numtracks%" -T "COMMENT=%comment%" %source% -o %dest%


TOC of the extracted CD

Track | Start | Length | Start sector | End sector
––––––––––––––––––––––––––––-
1 | 0:00.00 | 2:52.66 | 0 | 12965
2 | 2:52.66 | 3:04.61 | 12966 | 26826
3 | 5:57.52 | 2:54.06 | 26827 | 39882
4 | 8:51.58 | 2:51.33 | 39883 | 52740
5 | 11:43.16 | 2:38.22 | 52741 | 64612
6 | 14:21.38 | 2:38.01 | 64613 | 76463
7 | 16:59.39 | 2:57.19 | 76464 | 89757
8 | 19:56.58 | 2:46.58 | 89758 | 102265
9 | 22:43.41 | 3:04.01 | 102266 | 116066
10 | 25:47.42 | 2:48.15 | 116067 | 128681
11 | 28:35.57 | 3:01.56 | 128682 | 142312
12 | 31:37.38 | 2:36.29 | 142313 | 154041
13 | 34:13.67 | 3:01.32 | 154042 | 167648
14 | 37:15.24 | 2:40.69 | 167649 | 179717
15 | 39:56.18 | 2:52.21 | 179718 | 192638
16 | 42:48.39 | 2:45.60 | 192639 | 205073
17 | 45:34.24 | 2:33.49 | 205074 | 216597
18 | 48:07.73 | 2:31.35 | 216598 | 227957
19 | 50:39.33 | 2:52.64 | 227958 | 240921
20 | 53:32.22 | 2:43.48 | 240922 | 253194
21 | 56:15.70 | 2:58.61 | 253195 | 266605
22 | 59:14.56 | 2:37.52 | 266606 | 278432
23 | 61:52.33 | 2:42.30 | 278433 | 290612
24 | 64:34.63 | 2:47.56 | 290613 | 303193


Track 1

Filename C:\Rips\Listen All Around - The Golden Age of Central and East African Music (2018) [FLAC] {DTD-52}\Disc 2\01 - Patrice Ilunga, Victor Misomba And Friends - Mama Josefina (Mama Josefina).wav

Pre-gap length 0:00:02.00

Peak level 94.3 %
Extraction speed 1.0 X
Track quality 99.8 %
Test CRC 8663CDB8
Copy CRC 8663CDB8
Track not present in AccurateRip database
Copy OK

Track 2

Filename C:\Rips\Listen All Around - The Golden Age of Central and East African Music (2018) [FLAC] {DTD-52}\Disc 2\02 - ORCLOS, Ombiza Charles - Jean Ndjela Ku Parquet (Jean Ndjela Before The High Court).wav

Peak level 86.1 %
Extraction speed 1.7 X
Track quality 100.0 %
Test CRC 2E30400F
Copy CRC 2E30400F
Track not present in AccurateRip database
Copy OK

Track 3

Filename C:\Rips\Listen All Around - The Golden Age of Central and East African Music (2018) [FLAC] {DTD-52}\Disc 2\03 - Norbert De Magaro - Pipi Na Dongo (Candy And Okra).wav

Peak level 94.3 %
Extraction speed 1.8 X
Track quality 100.0 %
Test CRC 5CC61840
Copy CRC 5CC61840
Track not present in AccurateRip database
Copy OK

Track 4

Filename C:\Rips\Listen All Around - The Golden Age of Central and East African Music (2018) [FLAC] {DTD-52}\Disc 2\04 - Ezekiel Kamenga & Luba Men - Kilio Mama (Mother’s Cries).wav

Peak level 60.1 %
Extraction speed 1.9 X
Track quality 100.0 %
Test CRC E82BA924
Copy CRC E82BA924
Track not present in AccurateRip database
Copy OK

Track 5

Filename C:\Rips\Listen All Around - The Golden Age of Central and East African Music (2018) [FLAC] {DTD-52}\Disc 2\05 - Mwenda Jean Bosco and Singers - Mwendo Tulikwenda (The Journey That We Took).wav

Peak level 79.7 %
Extraction speed 2.0 X
Track quality 100.0 %
Test CRC BC32EDAD
Copy CRC BC32EDAD
Track not present in AccurateRip database
Copy OK

Track 6

Filename C:\Rips\Listen All Around - The Golden Age of Central and East African Music (2018) [FLAC] {DTD-52}\Disc 2\06 - ECO African Band - Doa Jeupe (White Spot).wav

Peak level 86.5 %
Extraction speed 1.7 X
Track quality 99.9 %
Test CRC 6FBC2478
Copy CRC 6FBC2478
Track not present in AccurateRip database
Copy OK

Track 7

Filename C:\Rips\Listen All Around - The Golden Age of Central and East African Music (2018) [FLAC] {DTD-52}\Disc 2\07 - Sunderland String Band - Eh, Mwajuma Wanikataa (Eh, Mwajuma, You Have Turned Me Down).wav

Peak level 67.8 %
Extraction speed 1.8 X
Track quality 99.9 %
Test CRC C76A5E28
Copy CRC C76A5E28
Track not present in AccurateRip database
Copy OK

Track 8

Filename C:\Rips\Listen All Around - The Golden Age of Central and East African Music (2018) [FLAC] {DTD-52}\Disc 2\08 - Samuel Colon And Baninga Baye - Marie Wabolingo (Marie, My Love).wav

Peak level 72.7 %
Extraction speed 2.2 X
Track quality 100.0 %
Test CRC FCD8E0FA
Copy CRC FCD8E0FA
Track not present in AccurateRip database
Copy OK

Track 9

Filename C:\Rips\Listen All Around - The Golden Age of Central and East African Music (2018) [FLAC] {DTD-52}\Disc 2\09 - Dar Es Salaam Jazz Band - Hayo Siyakweli (It’s Not True).wav

Peak level 69.3 %
Extraction speed 2.3 X
Track quality 100.0 %
Test CRC 834BA7A6
Copy CRC 834BA7A6
Track not present in AccurateRip database
Copy OK

Track 10

Filename C:\Rips\Listen All Around - The Golden Age of Central and East African Music (2018) [FLAC] {DTD-52}\Disc 2\10 - Dar Es Salaam Jazz Band - Nimepata Mpenzi, Mtoto, Mdogo, Mzuri Simwachi (I Got A Young, Beautiful Girl That I Won’t Leave).wav

Peak level 84.3 %
Extraction speed 2.3 X
Track quality 100.0 %
Test CRC 076FC066
Copy CRC 076FC066
Track not present in AccurateRip database
Copy OK

Track 11

Filename C:\Rips\Listen All Around - The Golden Age of Central and East African Music (2018) [FLAC] {DTD-52}\Disc 2\11 - Chipukizi Rumba - Nimepata Mpenzi, Mtoto Mzuri (I Got A Young, Beautiful Girl).wav

Peak level 94.3 %
Extraction speed 2.5 X
Track quality 100.0 %
Test CRC 0E56B2FB
Copy CRC 0E56B2FB
Track not present in AccurateRip database
Copy OK

Track 12

Filename C:\Rips\Listen All Around - The Golden Age of Central and East African Music (2018) [FLAC] {DTD-52}\Disc 2\12 - Vijana Wa Mbeya - Mtoto Mzuri Simwachi (I Won’t Leave A Young, Beautiful Girl).wav

Peak level 83.3 %
Extraction speed 2.1 X
Track quality 99.9 %
Test CRC 84AA7F3A
Copy CRC 84AA7F3A
Track not present in AccurateRip database
Copy OK

Track 13

Filename C:\Rips\Listen All Around - The Golden Age of Central and East African Music (2018) [FLAC] {DTD-52}\Disc 2\13 - Merry Black Birds - Chineno (Little Speech).wav

Peak level 84.0 %
Extraction speed 2.6 X
Track quality 100.0 %
Test CRC D3D32B75
Copy CRC D3D32B75
Track not present in AccurateRip database
Copy OK

Track 14

Filename C:\Rips\Listen All Around - The Golden Age of Central and East African Music (2018) [FLAC] {DTD-52}\Disc 2\14 - Merry Black Birds - Chaupele Mpenzi (Chaupele, My Love).wav

Peak level 66.5 %
Extraction speed 2.6 X
Track quality 100.0 %
Test CRC CC561A09
Copy CRC CC561A09
Track not present in AccurateRip database
Copy OK

Track 15

Filename C:\Rips\Listen All Around - The Golden Age of Central and East African Music (2018) [FLAC] {DTD-52}\Disc 2\15 - ORCLOS - Ushuru Wa Guitare (Payments For [Playing] Guitar).wav

Peak level 94.4 %
Extraction speed 2.3 X
Track quality 99.9 %
Test CRC 3DDAD10C
Copy CRC 3DDAD10C
Track not present in AccurateRip database
Copy OK

Track 16

Filename C:\Rips\Listen All Around - The Golden Age of Central and East African Music (2018) [FLAC] {DTD-52}\Disc 2\16 - Katanga Dance Orchestra - Mapani (Mapani’s Band).wav

Peak level 91.6 %
Extraction speed 2.8 X
Track quality 100.0 %
Test CRC 7B7FBB25
Copy CRC 7B7FBB25
Track not present in AccurateRip database
Copy OK

Track 17

Filename C:\Rips\Listen All Around - The Golden Age of Central and East African Music (2018) [FLAC] {DTD-52}\Disc 2\17 - Salum's Brass Band with Salum Seliman - Mahaba Matamu (How Sweet Is Our Love).wav

Peak level 88.1 %
Extraction speed 2.8 X
Track quality 100.0 %
Test CRC E41D2040
Copy CRC E41D2040
Track not present in AccurateRip database
Copy OK

Track 18

Filename C:\Rips\Listen All Around - The Golden Age of Central and East African Music (2018) [FLAC] {DTD-52}\Disc 2\18 - Salum's Brass Band with Salum Seliman - Shukurani (Give Thanks).wav

Peak level 91.6 %
Extraction speed 2.9 X
Track quality 100.0 %
Test CRC 5228FA60
Copy CRC 5228FA60
Track not present in AccurateRip database
Copy OK

Track 19

Filename C:\Rips\Listen All Around - The Golden Age of Central and East African Music (2018) [FLAC] {DTD-52}\Disc 2\19 - Salum's Brass Band with Salum Seliman - Hawana Kazi Makarani (They Have No Work, Those Clerks).wav

Peak level 71.4 %
Extraction speed 3.0 X
Track quality 100.0 %
Test CRC CA5F1D3F
Copy CRC CA5F1D3F
Track not present in AccurateRip database
Copy OK

Track 20

Filename C:\Rips\Listen All Around - The Golden Age of Central and East African Music (2018) [FLAC] {DTD-52}\Disc 2\20 - Chipukizi Rumba - Dada Mwajuma Nifichie Siri Yangu (Sister Mwajuma, Keep My Secret).wav

Peak level 90.2 %
Extraction speed 2.5 X
Track quality 99.9 %
Test CRC 110684E9
Copy CRC 110684E9
Track not present in AccurateRip database
Copy OK

Track 21

Filename C:\Rips\Listen All Around - The Golden Age of Central and East African Music (2018) [FLAC] {DTD-52}\Disc 2\21 - Chibanda Baudouin - Skoot (Scouts).wav

Peak level 82.8 %
Extraction speed 3.2 X
Track quality 100.0 %
Test CRC C36D8BF1
Copy CRC C36D8BF1
Track not present in AccurateRip database
Copy OK

Track 22

Filename C:\Rips\Listen All Around - The Golden Age of Central and East African Music (2018) [FLAC] {DTD-52}\Disc 2\22 - Lake Victoria Band - Dhi Dala U (Go Back To Your Home).wav

Peak level 92.2 %
Extraction speed 2.6 X
Track quality 99.9 %
Test CRC BD0FC5DC
Copy CRC BD0FC5DC
Track not present in AccurateRip database
Copy OK

Track 23

Filename C:\Rips\Listen All Around - The Golden Age of Central and East African Music (2018) [FLAC] {DTD-52}\Disc 2\23 - Kamwema Jean and His Friends - Nabela.wav

Peak level 93.1 %
Extraction speed 3.2 X
Track quality 100.0 %
Test CRC D6238580
Copy CRC D6238580
Track not present in AccurateRip database
Copy OK

Track 24

Filename C:\Rips\Listen All Around - The Golden Age of Central and East African Music (2018) [FLAC] {DTD-52}\Disc 2\24 - ORCLOS - Tulale Ngonga Imelia (The Time Has Come to Sleep).wav

Peak level 87.4 %
Extraction speed 3.3 X
Track quality 100.0 %
Test CRC 405F4126
Copy CRC 405F4126
Track not present in AccurateRip database
Copy OK


None of the tracks are present in the AccurateRip database

No errors occurred

End of status report

==== Log checksum 62254BFCECFDE97D271DF7340CE70820843EEFA872FC9B416C242247B851E9AD ====