Tags
Language
Tags

VA - Yellow Pills: The Best Of American Pop! Vol.1-4 (1993-1997)

Posted By: El Misha
VA - Yellow Pills: The Best Of American Pop! Vol.1-4 (1993-1997)

VA - Yellow Pills: The Best Of American Pop! Vol.1-4 (1993-1997)
EAC Rip | FLAC (tracks & cue & log) -> 1.87 GB | Scans included | 04:41:42
Genre: Power Pop | Label: Big Deal

Power pop is a form of pop rock based on the early music of bands such as the Who, the Beatles, the Beach Boys, and the Byrds. It originated in the mid 1960s as young music fans began to rebel against the emerging pretensions of rock music, and developed mainly among American musicians who came of age during the British Invasion. The genre typically incorporates melodic hooks, vocal harmonies, an energetic performance, and "happy"-sounding music underpinned by a sense of yearning, longing, or despair.



VA - Yellow Pills: The Best Of American Pop! Vol.1-4 (1993-1997)


VA - Yellow Pills: The Best Of American Pop! Vol.1 (1993)
EAC Rip | FLAC (tracks & cue & log) -> 464 MB | Scans included | 01:09:01
Genre: Power Pop | Label: Big Deal




Tracklist:

01. Dwight Twilley - Remedies
02. Shoes - I Miss You
03. Adam Schmitt - Speed Kills
04. The Cowsills - Is It Any Wonder
05. 20-20 - Song Of The Universe
06. Enuff Z'Nuff - Fingers On It
07. Devin Hill - Stars
08. Critics - You Can't Lie
09. Jim Basnight - Rest Up
10. Chris Von Sneidern - Open Wide
11. The Spongetones - Skinny
12. The Rubinoos - The Girl
13. Tommy Keene - Disarray
14. Ken Sharp - Break Down The Walls
15. The Flashcubes - It's You Tonight
16. Elliot Kendall - No Romance Today
17. The Vandalias - Get To Know You
18. Wallop (With Wally Bryson) - When Is Your Dream
19. Buddy Love - Why Can't We Make Believe We're In Love
20. Three Hour Tour - Love Sick Trip
21. Mark Johnson - I Like The World

Exact Audio Copy V1.0 beta 3 from 29. August 2011

EAC extraction logfile from 4. May 2013, 15:52

Various / Yellow Pills The Best Of Ameican Pop! Vol 1

Used drive : SlimtypeDVDRW SOSW-833S Adapter: 1 ID: 0

Read mode : Secure
Utilize accurate stream : Yes
Defeat audio cache : Yes
Make use of C2 pointers : No

Read offset correction : 6
Overread into Lead-In and Lead-Out : No
Fill up missing offset samples with silence : Yes
Delete leading and trailing silent blocks : No
Null samples used in CRC calculations : Yes
Used interface : Native Win32 interface for Win NT & 2000
Gap handling : Appended to previous track

Used output format : User Defined Encoder
Selected bitrate : 1024 kBit/s
Quality : High
Add ID3 tag : No
Command line compressor : C:\Program Files\Exact Audio Copy\FLAC\FLAC.EXE
Additional command line options : -8 -V -T "ARTIST=%artist%" -T "TITLE=%title%" -T "ALBUM=%albumtitle%" -T "DATE=%year%" -T "TRACKNUMBER=%tracknr%" -T "GENRE=%genre%" -T "PERFORMER=%albuminterpret%" -T "COMPOSER=%composer%" %haslyrics%–tag-from-file=LYRICS="%lyricsfile%"%haslyrics% -T "ALBUMARTIST=%albumartist%" -T "DISCNUMBER=%cdnumber%" -T "TOTALDISCS=%totalcds%" -T "TOTALTRACKS=%numtracks%" -T "COMMENT=%comment%" %source% -o %dest%


TOC of the extracted CD

Track | Start | Length | Start sector | End sector
––––––––––––––––––––––––––––-
1 | 0:00.12 | 3:32.50 | 12 | 15961
2 | 3:32.62 | 3:08.20 | 15962 | 30081
3 | 6:41.07 | 4:11.13 | 30082 | 48919
4 | 10:52.20 | 3:16.12 | 48920 | 63631
5 | 14:08.32 | 3:41.03 | 63632 | 80209
6 | 17:49.35 | 4:10.52 | 80210 | 99011
7 | 22:00.12 | 2:16.68 | 99012 | 109279
8 | 24:17.05 | 3:18.30 | 109280 | 124159
9 | 27:35.35 | 3:43.70 | 124160 | 140954
10 | 31:19.30 | 2:35.37 | 140955 | 152616
11 | 33:54.67 | 3:03.58 | 152617 | 166399
12 | 36:58.50 | 2:23.52 | 166400 | 177176
13 | 39:22.27 | 3:06.45 | 177177 | 191171
14 | 42:28.72 | 3:36.03 | 191172 | 207374
15 | 46:05.00 | 3:39.67 | 207375 | 223866
16 | 49:44.67 | 3:20.10 | 223867 | 238876
17 | 53:05.02 | 3:03.33 | 238877 | 252634
18 | 56:08.35 | 2:06.32 | 252635 | 262116
19 | 58:14.67 | 2:45.73 | 262117 | 274564
20 | 61:00.65 | 4:34.07 | 274565 | 295121
21 | 65:34.72 | 3:26.00 | 295122 | 310571


Track 1

Filename E:\Music\EAC\[01] Dwight Twilley - Remedies.wav

Pre-gap length 0:00:02.16

Peak level 90.1 %
Extraction speed 2.9 X
Track quality 100.0 %
Test CRC 584A77C2
Copy CRC 584A77C2
Track not present in AccurateRip database
Copy OK

Track 2

Filename E:\Music\EAC\[02] Shoes - I Miss You.wav

Peak level 92.7 %
Extraction speed 3.0 X
Track quality 100.0 %
Test CRC BE297F45
Copy CRC BE297F45
Track not present in AccurateRip database
Copy OK

Track 3

Filename E:\Music\EAC\[03] Adam Schmitt - Speed Kills.wav

Peak level 92.2 %
Extraction speed 3.4 X
Track quality 100.0 %
Test CRC 5B7B8013
Copy CRC 5B7B8013
Track not present in AccurateRip database
Copy OK

Track 4

Filename E:\Music\EAC\[04] The Cowsills - Is It Any Wonder.wav

Pre-gap length 0:00:01.40

Peak level 98.8 %
Extraction speed 3.5 X
Track quality 100.0 %
Test CRC 48373A78
Copy CRC 48373A78
Track not present in AccurateRip database
Copy OK

Track 5

Filename E:\Music\EAC\[05] 20-20 - Song Of The Universe.wav

Peak level 90.7 %
Extraction speed 3.8 X
Track quality 100.0 %
Test CRC B3B12FF8
Copy CRC B3B12FF8
Track not present in AccurateRip database
Copy OK

Track 6

Filename E:\Music\EAC\[06] Enuff Z'Nuff - Fingers On It.wav

Peak level 98.7 %
Extraction speed 4.1 X
Track quality 100.0 %
Test CRC BA52510D
Copy CRC BA52510D
Track not present in AccurateRip database
Copy OK

Track 7

Filename E:\Music\EAC\[07] Devin Hill - Stars.wav

Pre-gap length 0:00:00.45

Peak level 97.9 %
Extraction speed 3.8 X
Track quality 100.0 %
Test CRC 1D126B93
Copy CRC 1D126B93
Track not present in AccurateRip database
Copy OK

Track 8

Filename E:\Music\EAC\[08] Critics - You Can't Lie.wav

Peak level 98.8 %
Extraction speed 4.3 X
Track quality 100.0 %
Test CRC 1D3DB694
Copy CRC 1D3DB694
Track not present in AccurateRip database
Copy OK

Track 9

Filename E:\Music\EAC\[09] Jim Basnight - Rest Up.wav

Peak level 98.8 %
Extraction speed 4.5 X
Track quality 100.0 %
Test CRC 47CF734F
Copy CRC 47CF734F
Track not present in AccurateRip database
Copy OK

Track 10

Filename E:\Music\EAC\[10] Chris Von Sneidern - Open Wide.wav

Peak level 98.8 %
Extraction speed 4.3 X
Track quality 100.0 %
Test CRC 73264603
Copy CRC 73264603
Track not present in AccurateRip database
Copy OK

Track 11

Filename E:\Music\EAC\[11] The Spongetones - Skinny.wav

Pre-gap length 0:00:00.78

Peak level 98.8 %
Extraction speed 4.6 X
Track quality 100.0 %
Test CRC 8B42D6A4
Copy CRC 8B42D6A4
Track not present in AccurateRip database
Copy OK

Track 12

Filename E:\Music\EAC\[12] The Rubinoos - The Girl.wav

Peak level 98.8 %
Extraction speed 4.4 X
Track quality 100.0 %
Test CRC 18C8C163
Copy CRC 18C8C163
Track not present in AccurateRip database
Copy OK

Track 13

Filename E:\Music\EAC\[13] Tommy Keene - Disarray.wav

Peak level 73.0 %
Extraction speed 4.6 X
Track quality 100.0 %
Test CRC 7A937C19
Copy CRC 7A937C19
Track not present in AccurateRip database
Copy OK

Track 14

Filename E:\Music\EAC\[14] Ken Sharp - Break Down The Walls.wav

Peak level 98.8 %
Extraction speed 4.8 X
Track quality 100.0 %
Test CRC EA679CE5
Copy CRC EA679CE5
Track not present in AccurateRip database
Copy OK

Track 15

Filename E:\Music\EAC\[15] The Flashcubes - It's You Tonight.wav

Peak level 94.0 %
Extraction speed 4.8 X
Track quality 100.0 %
Test CRC 7877C78A
Copy CRC 7877C78A
Track not present in AccurateRip database
Copy OK

Track 16

Filename E:\Music\EAC\[16] Elliot Kendall - No Romance Today.wav

Pre-gap length 0:00:00.18

Peak level 98.8 %
Extraction speed 4.7 X
Track quality 100.0 %
Test CRC 0C0D69BB
Copy CRC 0C0D69BB
Track not present in AccurateRip database
Copy OK

Track 17

Filename E:\Music\EAC\[17] The Vandalias - Get To Know You.wav

Peak level 98.8 %
Extraction speed 4.7 X
Track quality 100.0 %
Test CRC 754BFC4E
Copy CRC 754BFC4E
Track not present in AccurateRip database
Copy OK

Track 18

Filename E:\Music\EAC\[18] Wallop (With Wally Bryson) - When Is Your Dream.wav

Pre-gap length 0:00:00.01

Peak level 66.6 %
Extraction speed 4.3 X
Track quality 100.0 %
Test CRC 9DF52A89
Copy CRC 9DF52A89
Track not present in AccurateRip database
Copy OK

Track 19

Filename E:\Music\EAC\[19] Buddy Love - Why Can't We Make Believe We're In Love.wav

Peak level 98.8 %
Extraction speed 3.9 X
Track quality 99.9 %
Test CRC 118C7C90
Copy CRC 118C7C90
Track not present in AccurateRip database
Copy OK

Track 20

Filename E:\Music\EAC\[20] Three Hour Tour - Love Sick Trip.wav

Pre-gap length 0:00:00.69

Peak level 98.8 %
Extraction speed 4.9 X
Track quality 100.0 %
Test CRC 812B6E56
Copy CRC 812B6E56
Track not present in AccurateRip database
Copy OK

Track 21

Filename E:\Music\EAC\[21] Mark Johnson - I Like The World.wav

Peak level 98.8 %
Extraction speed 4.7 X
Track quality 100.0 %
Test CRC 40C914C3
Copy CRC 40C914C3
Track not present in AccurateRip database
Copy OK


None of the tracks are present in the AccurateRip database

No errors occurred

End of status report

==== Log checksum F7FD723BB41798DA984F1F1DA754771A6112B13889128E49094ED4983D250695 ====


VA - Yellow Pills: The Best Of American Pop! Vol.1-4 (1993-1997)


VA - Yellow Pills: More Of The Best Of American Pop! Vol.2 (1994)
EAC Rip | FLAC (tracks & cue & log) -> 493 MB | Scans included | 01:13:49
Genre: Power Pop | Label: Big Deal




Tracklist:

01. Shoes - A Thing Of The Past
02. 20-20 - Nothing At All
03. Material Issue - Something Happened To Catherine
04. Parthenon Huxley - Bazooka Joe
05. Brian Stevens & The Flip - A Little Bird Told Me So
06. The Sighs - Situations
07. Jim Basnight - Tonight
08. Randell Kirsch - Just Kidding
09. The Posies - Saying Sorry To Myself
10. The Nicoteens - You're Gonna Save Me
11. Kyle Vincent - Just A Matter Of Time
12. Gladhands - Sisters
13. Wondermints - Carnival Of Souls
14. Redd Kross - Switchblade Sister
15. Bill Lloyd - There's A Lot Of Love In This Room
16. Chris Von Sneidern - Call Out My Name
17. Matthew Sweet - Bovine Connection
18. Lane Steinberg - Empty Boy
19. The Underground Cartoons - Head First
20. 20-20 - Watching The Headlights Burn
21. The Rubinoos - Stop Before We Start

Exact Audio Copy V1.0 beta 3 from 29. August 2011

EAC extraction logfile from 27. February 2012, 18:39

Various / Yellow Pills Vol 2 - More Of The Best Of American Pop!

Used drive : HL-DT-STDVDRAM GSA-T40N Adapter: 1 ID: 0

Read mode : Secure
Utilize accurate stream : Yes
Defeat audio cache : Yes
Make use of C2 pointers : No

Read offset correction : 667
Overread into Lead-In and Lead-Out : No
Fill up missing offset samples with silence : Yes
Delete leading and trailing silent blocks : No
Null samples used in CRC calculations : Yes
Used interface : Native Win32 interface for Win NT & 2000
Gap handling : Appended to previous track

Used output format : User Defined Encoder
Selected bitrate : 1024 kBit/s
Quality : High
Add ID3 tag : No
Command line compressor : C:\Program Files\Exact Audio Copy\Flac\flac.exe
Additional command line options : -8 -V -T "ARTIST=%artist%" -T "TITLE=%title%" -T "ALBUM=%albumtitle%" -T "DATE=%year%" -T "TRACKNUMBER=%tracknr%" -T "GENRE=%genre%" -T "PERFORMER=%albuminterpret%" -T "COMPOSER=%composer%" %haslyrics%–tag-from-file=LYRICS="%lyricsfile%"%haslyrics% -T "ALBUMARTIST=%albumartist%" -T "ALBUM ARTIST=%albumartist%" -T "DISCNUMBER=%cdnumber%" -T "TOTALDISCS=%totalcds%" -T "TOTALTRACKS=%numtracks%" -T "COMMENT=EAC V1.0 beta 2, Secure Mode, Test & Copy, AccurateRip, FLAC -8" %source% -o %dest%


TOC of the extracted CD

Track | Start | Length | Start sector | End sector
––––––––––––––––––––––––––––-
1 | 0:00.50 | 3:53.20 | 50 | 17544
2 | 3:53.70 | 3:55.22 | 17545 | 35191
3 | 7:49.17 | 3:03.15 | 35192 | 48931
4 | 10:52.32 | 2:49.60 | 48932 | 61666
5 | 13:42.17 | 3:36.40 | 61667 | 77906
6 | 17:18.57 | 4:09.23 | 77907 | 96604
7 | 21:28.05 | 2:55.62 | 96605 | 109791
8 | 24:23.67 | 3:56.15 | 109792 | 127506
9 | 28:20.07 | 3:47.45 | 127507 | 144576
10 | 32:07.52 | 3:28.05 | 144577 | 160181
11 | 35:35.57 | 3:31.43 | 160182 | 176049
12 | 39:07.25 | 4:59.70 | 176050 | 198544
13 | 44:07.20 | 4:19.52 | 198545 | 218021
14 | 48:26.72 | 2:54.28 | 218022 | 231099
15 | 51:21.25 | 3:19.02 | 231100 | 246026
16 | 54:40.27 | 3:19.63 | 246027 | 261014
17 | 58:00.15 | 1:42.05 | 261015 | 268669
18 | 59:42.20 | 3:47.52 | 268670 | 285746
19 | 63:29.72 | 3:44.38 | 285747 | 302584
20 | 67:14.35 | 3:34.02 | 302585 | 318636
21 | 70:48.37 | 3:01.10 | 318637 | 332221


Track 1

Filename E:\Video\Audio\[01] Shoes - A Thing Of The Past.wav

Pre-gap length 0:00:02.66

Peak level 100.0 %
Extraction speed 2.4 X
Track quality 100.0 %
Test CRC 4E5F66DE
Copy CRC 4E5F66DE
Track not present in AccurateRip database
Copy OK

Track 2

Filename E:\Video\Audio\[02] 20-20 - Nothing At All.wav

Pre-gap length 0:00:01.66

Peak level 100.0 %
Extraction speed 2.6 X
Track quality 100.0 %
Test CRC 0E48BD7C
Copy CRC 0E48BD7C
Track not present in AccurateRip database
Copy OK

Track 3

Filename E:\Video\Audio\[03] Material Issue - Something Happened To Catherine.wav

Peak level 100.0 %
Extraction speed 2.7 X
Track quality 100.0 %
Test CRC 6899DDF5
Copy CRC 6899DDF5
Track not present in AccurateRip database
Copy OK

Track 4

Filename E:\Video\Audio\[04] Parthenon Huxley - Bazooka Joe.wav

Pre-gap length 0:00:01.13

Peak level 100.0 %
Extraction speed 2.9 X
Track quality 100.0 %
Test CRC F2AFC31A
Copy CRC F2AFC31A
Track not present in AccurateRip database
Copy OK

Track 5

Filename E:\Video\Audio\[05] Brian Stevens & The Flip - A Little Bird Told Me So.wav

Pre-gap length 0:00:00.80

Peak level 100.0 %
Extraction speed 3.1 X
Track quality 100.0 %
Test CRC 3E93D14E
Copy CRC 3E93D14E
Track not present in AccurateRip database
Copy OK

Track 6

Filename E:\Video\Audio\[06] The Sighs - Situations.wav

Pre-gap length 0:00:00.66

Peak level 100.0 %
Extraction speed 2.9 X
Track quality 99.9 %
Test CRC 3AC6B7CE
Copy CRC 3AC6B7CE
Track not present in AccurateRip database
Copy OK

Track 7

Filename E:\Video\Audio\[07] Jim Basnight - Tonight.wav

Peak level 97.1 %
Extraction speed 3.3 X
Track quality 100.0 %
Test CRC 36E05DF3
Copy CRC 36E05DF3
Track not present in AccurateRip database
Copy OK

Track 8

Filename E:\Video\Audio\[08] Randell Kirsch - Just Kidding.wav

Pre-gap length 0:00:01.09

Peak level 100.0 %
Extraction speed 3.6 X
Track quality 100.0 %
Test CRC E8562753
Copy CRC E8562753
Track not present in AccurateRip database
Copy OK

Track 9

Filename E:\Video\Audio\[09] The Posies - Saying Sorry To Myself.wav

Peak level 100.0 %
Extraction speed 3.7 X
Track quality 100.0 %
Test CRC 0C6800D6
Copy CRC 0C6800D6
Track not present in AccurateRip database
Copy OK

Track 10

Filename E:\Video\Audio\[10] The Nicoteens - You're Gonna Save Me.wav

Pre-gap length 0:00:01.33

Peak level 100.0 %
Extraction speed 3.8 X
Track quality 100.0 %
Test CRC 88AD74B7
Copy CRC 88AD74B7
Track not present in AccurateRip database
Copy OK

Track 11

Filename E:\Video\Audio\[11] Kyle Vincent - Just A Matter Of Time.wav

Peak level 100.0 %
Extraction speed 4.0 X
Track quality 100.0 %
Test CRC B2605700
Copy CRC B2605700
Track not present in AccurateRip database
Copy OK

Track 12

Filename E:\Video\Audio\[12] Gladhands - Sisters.wav

Peak level 100.0 %
Extraction speed 4.3 X
Track quality 100.0 %
Test CRC AF1E86F9
Copy CRC AF1E86F9
Track not present in AccurateRip database
Copy OK

Track 13

Filename E:\Video\Audio\[13] Wondermints - Carnival Of Souls.wav

Peak level 100.0 %
Extraction speed 4.4 X
Track quality 100.0 %
Test CRC D6194632
Copy CRC D6194632
Track not present in AccurateRip database
Copy OK

Track 14

Filename E:\Video\Audio\[14] Redd Kross - Switchblade Sister.wav

Pre-gap length 0:00:00.29

Peak level 100.0 %
Extraction speed 4.3 X
Track quality 100.0 %
Test CRC C2DEC2CE
Copy CRC C2DEC2CE
Track not present in AccurateRip database
Copy OK

Track 15

Filename E:\Video\Audio\[15] Bill Lloyd - There's A Lot Of Love In This Room.wav

Peak level 99.8 %
Extraction speed 4.5 X
Track quality 100.0 %
Test CRC DEDF366D
Copy CRC DEDF366D
Track not present in AccurateRip database
Copy OK

Track 16

Filename E:\Video\Audio\[16] Chris Von Sneidern - Call Out My Name.wav

Pre-gap length 0:00:00.42

Peak level 100.0 %
Extraction speed 3.9 X
Track quality 99.9 %
Test CRC 73BF0692
Copy CRC 73BF0692
Track not present in AccurateRip database
Copy OK

Track 17

Filename E:\Video\Audio\[17] Matthew Sweet - Bovine Connection.wav

Peak level 100.0 %
Extraction speed 4.0 X
Track quality 100.0 %
Test CRC F1CFC6B1
Copy CRC F1CFC6B1
Track not present in AccurateRip database
Copy OK

Track 18

Filename E:\Video\Audio\[18] Lane Steinberg - Empty Boy.wav

Pre-gap length 0:00:00.24

Peak level 100.0 %
Extraction speed 4.7 X
Track quality 100.0 %
Test CRC 259CEBCE
Copy CRC 259CEBCE
Track not present in AccurateRip database
Copy OK

Track 19

Filename E:\Video\Audio\[19] The Underground Cartoons - Head First.wav

Pre-gap length 0:00:00.16

Peak level 100.0 %
Extraction speed 4.9 X
Track quality 100.0 %
Test CRC E49A3134
Copy CRC E49A3134
Track not present in AccurateRip database
Copy OK

Track 20

Filename E:\Video\Audio\[20] 20-20 - Watching The Headlights Burn.wav

Pre-gap length 0:00:00.57

Peak level 100.0 %
Extraction speed 4.9 X
Track quality 100.0 %
Test CRC FA0B49A4
Copy CRC FA0B49A4
Track not present in AccurateRip database
Copy OK

Track 21

Filename E:\Video\Audio\[21] The Rubinoos - Stop Before We Start.wav

Pre-gap length 0:00:00.26

Peak level 99.6 %
Extraction speed 4.9 X
Track quality 100.0 %
Test CRC 7601488C
Copy CRC 7601488C
Track not present in AccurateRip database
Copy OK


None of the tracks are present in the AccurateRip database

No errors occurred

End of status report

==== Log checksum 8BFFA834B19760229AAED8AA95EA0FEA31BE6199E878873B017C65408A9BE518 ====


VA - Yellow Pills: The Best Of American Pop! Vol.1-4 (1993-1997)


VA - Yellow Pills: More Great Pop! Vol.3 (1995)
EAC Rip | FLAC (tracks & cue & log) -> 492 MB | Scans included | 01:11:35
Genre: Power Pop | Label: Big Deal




Tracklist:

01. Her Majesty's Buzz - Penelope Baker
02. Michael Guthrie Band - Do What You're Doing
03. Material Issue - The Problem With Jill
04. Brad Jones - The Blunderbuss
05. Martin Luther Lennon - Nobody I Know
06. John Wicks - Her Stars Are My Stars
07. The Finns - Sky Vue
08. John McMullan - Taking Me Somewhere
09. Gigolo Aunts - Weird Sister
10. Black And Blonde - Just In Time
11. The Greenberry Woods - You Know The Real
12. The Blow Pops - Pt. 1
13. Feet Of Clay - Dear Prudence
14. Wonderboy - Skidmarks
15. Paul Collins' Beat - I've Always Got You On My Mind
16. The Scruffs - This Can't Go On
17. The Rock Club - Time Will Tell On You
18. Cherry Twister - Blue Summer
19. Something Happens - Be The One
20. Scott McCarl - Nobody Knows
21. Craig Pearlman - Let's Take A Chance

Exact Audio Copy V1.0 beta 3 from 29. August 2011

EAC extraction logfile from 11. November 2011, 13:49

Various / Yellow Pills - Volume 3

Used drive : SlimtypeDVDRW SOSW-833S Adapter: 1 ID: 0

Read mode : Secure
Utilize accurate stream : Yes
Defeat audio cache : Yes
Make use of C2 pointers : No

Read offset correction : 6
Overread into Lead-In and Lead-Out : No
Fill up missing offset samples with silence : Yes
Delete leading and trailing silent blocks : No
Null samples used in CRC calculations : Yes
Used interface : Native Win32 interface for Win NT & 2000
Gap handling : Appended to previous track

Used output format : User Defined Encoder
Selected bitrate : 1024 kBit/s
Quality : High
Add ID3 tag : No
Command line compressor : C:\Program Files\Exact Audio Copy\FLAC\FLAC.EXE
Additional command line options : -8 -V -T "ARTIST=%artist%" -T "TITLE=%title%" -T "ALBUM=%albumtitle%" -T "DATE=%year%" -T "TRACKNUMBER=%tracknr%" -T "GENRE=%genre%" -T "PERFORMER=%albuminterpret%" -T "COMPOSER=%composer%" %haslyrics%–tag-from-file=LYRICS="%lyricsfile%"%haslyrics% -T "ALBUMARTIST=%albumartist%" -T "DISCNUMBER=%cdnumber%" -T "TOTALDISCS=%totalcds%" -T "TOTALTRACKS=%numtracks%" -T "COMMENT=%comment%" %source% -o %dest%


TOC of the extracted CD

Track | Start | Length | Start sector | End sector
––––––––––––––––––––––––––––-
1 | 0:00.00 | 3:05.57 | 0 | 13931
2 | 3:05.57 | 3:27.68 | 13932 | 29524
3 | 6:33.50 | 2:52.22 | 29525 | 42446
4 | 9:25.72 | 3:13.20 | 42447 | 56941
5 | 12:39.17 | 3:40.60 | 56942 | 73501
6 | 16:20.02 | 4:31.28 | 73502 | 93854
7 | 20:51.30 | 4:19.50 | 93855 | 113329
8 | 25:11.05 | 3:33.12 | 113330 | 129316
9 | 28:44.17 | 3:50.13 | 129317 | 146579
10 | 32:34.30 | 3:39.42 | 146580 | 163046
11 | 36:13.72 | 2:35.03 | 163047 | 174674
12 | 38:49.00 | 4:10.00 | 174675 | 193424
13 | 42:59.00 | 4:08.37 | 193425 | 212061
14 | 47:07.37 | 2:31.65 | 212062 | 223451
15 | 49:39.27 | 3:08.03 | 223452 | 237554
16 | 52:47.30 | 2:40.45 | 237555 | 249599
17 | 55:28.00 | 3:33.65 | 249600 | 265639
18 | 59:01.65 | 3:08.37 | 265640 | 279776
19 | 62:10.27 | 3:43.13 | 279777 | 296514
20 | 65:53.40 | 2:21.35 | 296515 | 307124
21 | 68:15.00 | 3:20.02 | 307125 | 322126


Track 1

Filename E:\NEW\EAC\[01] Her Majesty's Buzz - Penelope Baker.wav

Pre-gap length 0:00:02.00

Peak level 97.0 %
Extraction speed 2.8 X
Track quality 100.0 %
Test CRC D766EF02
Copy CRC D766EF02
Track not present in AccurateRip database
Copy OK

Track 2

Filename E:\NEW\EAC\[02] Michael Guthrie Band - Do What You're Doing.wav

Peak level 100.0 %
Extraction speed 3.1 X
Track quality 100.0 %
Test CRC 20B38FFC
Copy CRC 20B38FFC
Track not present in AccurateRip database
Copy OK

Track 3

Filename E:\NEW\EAC\[03] Material Issue - The Problem With Jill.wav

Peak level 100.0 %
Extraction speed 2.6 X
Track quality 99.9 %
Test CRC 915D5F73
Copy CRC 915D5F73
Track not present in AccurateRip database
Copy OK

Track 4

Filename E:\NEW\EAC\[04] Brad Jones - The Blunderbuss.wav

Peak level 100.0 %
Extraction speed 3.4 X
Track quality 100.0 %
Test CRC A1315E26
Copy CRC A1315E26
Track not present in AccurateRip database
Copy OK

Track 5

Filename E:\NEW\EAC\[05] Martin Luther Lennon - Nobody I Know.wav

Peak level 91.7 %
Extraction speed 3.7 X
Track quality 100.0 %
Test CRC 7B11C19D
Copy CRC 7B11C19D
Track not present in AccurateRip database
Copy OK

Track 6

Filename E:\NEW\EAC\[06] John Wicks - Her Stars Are My Stars.wav

Peak level 100.0 %
Extraction speed 4.1 X
Track quality 100.0 %
Test CRC BBC1488E
Copy CRC BBC1488E
Track not present in AccurateRip database
Copy OK

Track 7

Filename E:\NEW\EAC\[07] The Finns - Sky Vue.wav

Peak level 100.0 %
Extraction speed 4.2 X
Track quality 100.0 %
Test CRC 5415085E
Copy CRC 5415085E
Track not present in AccurateRip database
Copy OK

Track 8

Filename E:\NEW\EAC\[08] John McMullan - Taking Me Somewhere.wav

Peak level 100.0 %
Extraction speed 4.3 X
Track quality 100.0 %
Test CRC 9862CBC8
Copy CRC 9862CBC8
Track not present in AccurateRip database
Copy OK

Track 9

Filename E:\NEW\EAC\[09] Gigolo Aunts - Weird Sister.wav

Peak level 100.0 %
Extraction speed 4.6 X
Track quality 100.0 %
Test CRC 136FAF63
Copy CRC 136FAF63
Track not present in AccurateRip database
Copy OK

Track 10

Filename E:\NEW\EAC\[10] Black And Blonde - Just In Time.wav

Peak level 100.0 %
Extraction speed 4.7 X
Track quality 100.0 %
Test CRC 3069D8A3
Copy CRC 3069D8A3
Track not present in AccurateRip database
Copy OK

Track 11

Filename E:\NEW\EAC\[11] The Greenberry Woods - You Know The Real.wav

Peak level 100.0 %
Extraction speed 3.6 X
Track quality 99.9 %
Test CRC DBE26C84
Copy CRC DBE26C84
Track not present in AccurateRip database
Copy OK

Track 12

Filename E:\NEW\EAC\[12] The Blow Pops - Pt. 1.wav

Peak level 100.0 %
Extraction speed 4.3 X
Track quality 99.9 %
Test CRC 78F6AEEB
Copy CRC 78F6AEEB
Track not present in AccurateRip database
Copy OK

Track 13

Filename E:\NEW\EAC\[13] Feet Of Clay - Dear Prudence.wav

Peak level 100.0 %
Extraction speed 5.0 X
Track quality 100.0 %
Test CRC DE650590
Copy CRC DE650590
Track not present in AccurateRip database
Copy OK

Track 14

Filename E:\NEW\EAC\[14] Wonderboy - Skidmarks.wav

Peak level 80.9 %
Extraction speed 4.6 X
Track quality 100.0 %
Test CRC E3DECCFD
Copy CRC E3DECCFD
Track not present in AccurateRip database
Copy OK

Track 15

Filename E:\NEW\EAC\[15] Paul Collins' Beat - I've Always Got You On My Mind.wav

Peak level 100.0 %
Extraction speed 4.8 X
Track quality 100.0 %
Test CRC 48A7A051
Copy CRC 48A7A051
Track not present in AccurateRip database
Copy OK

Track 16

Filename E:\NEW\EAC\[16] The Scruffs - This Can't Go On.wav

Peak level 100.0 %
Extraction speed 4.6 X
Track quality 100.0 %
Test CRC 73E3E105
Copy CRC 73E3E105
Track not present in AccurateRip database
Copy OK

Track 17

Filename E:\NEW\EAC\[17] The Rock Club - Time Will Tell On You.wav

Peak level 100.0 %
Extraction speed 4.8 X
Track quality 100.0 %
Test CRC 91F1904C
Copy CRC 91F1904C
Track not present in AccurateRip database
Copy OK

Track 18

Filename E:\NEW\EAC\[18] Cherry Twister - Blue Summer.wav

Peak level 100.0 %
Extraction speed 4.7 X
Track quality 100.0 %
Test CRC E8D9BCC9
Copy CRC E8D9BCC9
Track not present in AccurateRip database
Copy OK

Track 19

Filename E:\NEW\EAC\[19] Something Happens - Be The One.wav

Peak level 100.0 %
Extraction speed 4.9 X
Track quality 100.0 %
Test CRC 7E338EA9
Copy CRC 7E338EA9
Track not present in AccurateRip database
Copy OK

Track 20

Filename E:\NEW\EAC\[20] Scott McCarl - Nobody Knows.wav

Peak level 100.0 %
Extraction speed 4.5 X
Track quality 100.0 %
Test CRC 0EDB8D2B
Copy CRC 0EDB8D2B
Track not present in AccurateRip database
Copy OK

Track 21

Filename E:\NEW\EAC\[21] Craig Pearlman - Let's Take A Chance.wav

Peak level 100.0 %
Extraction speed 4.7 X
Track quality 100.0 %
Test CRC 7AD5B444
Copy CRC 7AD5B444
Track not present in AccurateRip database
Copy OK


None of the tracks are present in the AccurateRip database

No errors occurred

End of status report

==== Log checksum B874183030AE5D13689BFE76558BC4DA075DEF86215CE573DA12A37373033FE5 ====


VA - Yellow Pills: The Best Of American Pop! Vol.1-4 (1993-1997)


VA - Yellow Pills Vol.4 (1997)
EAC Rip | FLAC (tracks & cue & log) -> 462 MB | Scans included | 01:07:18
Genre: Power Pop | Label: Big Deal




Tracklist:

01. Four O'Clock Balloon - Stood in the Rain
02. The Plimsouls - Playing with Jack
03. John Velora - Coming Home
04. Buzzed Meg - They're My Friends
05. Chris Von Sneidern - Circles
06. Wanderlust - I'm Not You
07. Joe, Marc's Brother - She's Gonna Be My Girl
08. David Grahame - I Love You Better
09. The Nines - I Would Never
10. The Pop Files - Caroline
11. Material Issue - I'd Wait a Million Years
12. John McMullan - The Thought of Your Name
13. Andrew Gold - Love Tonight
14. Dan Markell - You Mighta Made the Sun
15. Jason Falkner - My Home Is Not a House
16. The Loud Family - Chicago and Miss Jovan's Land-O-Mat
17. Mod Lang - Jill
18. Anton Barbeau - Octagon
19. Richard Barone - Show and Tell
20. DM3 - Show You
21. Love Nut - If You Go Away

Exact Audio Copy V1.3 from 2. September 2016

EAC extraction logfile from 22. February 2017, 18:17

Various / Yellow Pills, Volume 4

Used drive : TSSTcorpCDDVDW SN-208FB Adapter: 1 ID: 0

Read mode : Secure
Utilize accurate stream : Yes
Defeat audio cache : Yes
Make use of C2 pointers : No

Read offset correction : 6
Overread into Lead-In and Lead-Out : No
Fill up missing offset samples with silence : Yes
Delete leading and trailing silent blocks : No
Null samples used in CRC calculations : Yes
Used interface : Native Win32 interface for Win NT & 2000
Gap handling : Appended to previous track

Used output format : User Defined Encoder
Selected bitrate : 768 kBit/s
Quality : High
Add ID3 tag : No
Command line compressor : C:\Program Files (x86)\Exact Audio Copy\FLAC\FLAC.EXE
Additional command line options : -8 -V -T "ARTIST=%artist%" -T "TITLE=%title%" -T "ALBUM=%albumtitle%" -T "DATE=%year%" -T "TRACKNUMBER=%tracknr%" -T "GENRE=%genre%" -T "PERFORMER=%albuminterpret%" -T "COMPOSER=%composer%" %haslyrics%–tag-from-file=LYRICS="%lyricsfile%"%haslyrics% -T "ALBUMARTIST=%albumartist%" -T "DISCNUMBER=%cdnumber%" -T "TOTALDISCS=%totalcds%" -T "TOTALTRACKS=%numtracks%" -T "COMMENT=%comment%" %source% -o %dest%


TOC of the extracted CD

Track | Start | Length | Start sector | End sector
––––––––––––––––––––––––––––-
1 | 0:00.32 | 3:48.40 | 32 | 17171
2 | 3:48.72 | 3:10.10 | 17172 | 31431
3 | 6:59.07 | 4:09.28 | 31432 | 50134
4 | 11:08.35 | 2:36.72 | 50135 | 61906
5 | 13:45.32 | 4:03.30 | 61907 | 80161
6 | 17:48.62 | 3:11.43 | 80162 | 94529
7 | 21:00.30 | 2:38.12 | 94530 | 106391
8 | 23:38.42 | 2:36.30 | 106392 | 118121
9 | 26:14.72 | 2:51.35 | 118122 | 130981
10 | 29:06.32 | 2:56.50 | 130982 | 144231
11 | 32:03.07 | 2:08.05 | 144232 | 153836
12 | 34:11.12 | 2:44.68 | 153837 | 166204
13 | 36:56.05 | 5:05.07 | 166205 | 189086
14 | 42:01.12 | 3:34.73 | 189087 | 205209
15 | 45:36.10 | 3:24.52 | 205210 | 220561
16 | 49:00.62 | 3:40.45 | 220562 | 237106
17 | 52:41.32 | 2:55.35 | 237107 | 250266
18 | 55:36.67 | 3:43.48 | 250267 | 267039
19 | 59:20.40 | 2:36.52 | 267040 | 278791
20 | 61:57.17 | 2:33.10 | 278792 | 290276
21 | 64:30.27 | 2:47.43 | 290277 | 302844


Track 1

Filename E:\Video\Incoming Folder\EAC\[01] Four O'Clock Balloon - Stood in the Rain.wav

Pre-gap length 0:00:02.42

Peak level 97.8 %
Extraction speed 1.1 X
Track quality 100.0 %
Test CRC C3D649D5
Copy CRC C3D649D5
Accurately ripped (confidence 2) [5668B066] (AR v2)
Copy OK

Track 2

Filename E:\Video\Incoming Folder\EAC\[02] The Plimsouls - Playing with Jack.wav

Pre-gap length 0:00:02.66

Peak level 100.0 %
Extraction speed 1.2 X
Track quality 100.0 %
Test CRC 4F979D01
Copy CRC 4F979D01
Accurately ripped (confidence 2) [D5A06277] (AR v2)
Copy OK

Track 3

Filename E:\Video\Incoming Folder\EAC\[03] John Velora - Coming Home.wav

Pre-gap length 0:00:02.66

Peak level 100.0 %
Extraction speed 1.3 X
Track quality 100.0 %
Test CRC 8005281C
Copy CRC 8005281C
Accurately ripped (confidence 2) [4EABAD69] (AR v2)
Copy OK

Track 4

Filename E:\Video\Incoming Folder\EAC\[04] Buzzed Meg - They're My Friends.wav

Pre-gap length 0:00:02.68

Peak level 95.5 %
Extraction speed 1.3 X
Track quality 100.0 %
Test CRC FDCA79BB
Copy CRC FDCA79BB
Accurately ripped (confidence 2) [10A6E3CB] (AR v2)
Copy OK

Track 5

Filename E:\Video\Incoming Folder\EAC\[05] Chris Von Sneidern - Circles.wav

Pre-gap length 0:00:02.06

Peak level 98.8 %
Extraction speed 1.5 X
Track quality 100.0 %
Test CRC AC159879
Copy CRC AC159879
Accurately ripped (confidence 2) [B3440BEE] (AR v2)
Copy OK

Track 6

Filename E:\Video\Incoming Folder\EAC\[06] Wanderlust - I'm Not You.wav

Pre-gap length 0:00:02.66

Peak level 97.1 %
Extraction speed 1.3 X
Track quality 99.9 %
Test CRC 65C9B2CB
Copy CRC 65C9B2CB
Accurately ripped (confidence 2) [8EC46A6C] (AR v2)
Copy OK

Track 7

Filename E:\Video\Incoming Folder\EAC\[07] Joe, Marc's Brother - She's Gonna Be My Girl.wav

Pre-gap length 0:00:02.68

Peak level 98.1 %
Extraction speed 1.5 X
Track quality 100.0 %
Test CRC 59C52440
Copy CRC 59C52440
Accurately ripped (confidence 2) [6BCAE58B] (AR v2)
Copy OK

Track 8

Filename E:\Video\Incoming Folder\EAC\[08] David Grahame - I Love You Better.wav

Pre-gap length 0:00:02.66

Peak level 91.4 %
Extraction speed 1.5 X
Track quality 100.0 %
Test CRC 5C77BFCD
Copy CRC 5C77BFCD
Accurately ripped (confidence 2) [F7C0D2E1] (AR v2)
Copy OK

Track 9

Filename E:\Video\Incoming Folder\EAC\[09] The Nines - I Would Never.wav

Pre-gap length 0:00:02.66

Peak level 94.6 %
Extraction speed 1.6 X
Track quality 100.0 %
Test CRC 3AEF9DF1
Copy CRC 3AEF9DF1
Accurately ripped (confidence 2) [2C69B00A] (AR v2)
Copy OK

Track 10

Filename E:\Video\Incoming Folder\EAC\[10] The Pop Files - Caroline.wav

Pre-gap length 0:00:02.66

Peak level 96.8 %
Extraction speed 1.7 X
Track quality 100.0 %
Test CRC BD1C161F
Copy CRC BD1C161F
Accurately ripped (confidence 2) [C5A8EED3] (AR v2)
Copy OK

Track 11

Filename E:\Video\Incoming Folder\EAC\[11] Material Issue - I'd Wait a Million Years.wav

Pre-gap length 0:00:02.66

Peak level 99.9 %
Extraction speed 1.6 X
Track quality 100.0 %
Test CRC E7BAAE05
Copy CRC E7BAAE05
Accurately ripped (confidence 3) [C883CD6D] (AR v2)
Copy OK

Track 12

Filename E:\Video\Incoming Folder\EAC\[12] John McMullan - The Thought of Your Name.wav

Pre-gap length 0:00:02.66

Peak level 95.1 %
Extraction speed 1.8 X
Track quality 100.0 %
Test CRC 580CE43C
Copy CRC 580CE43C
Accurately ripped (confidence 2) [B3AA8033] (AR v2)
Copy OK

Track 13

Filename E:\Video\Incoming Folder\EAC\[13] Andrew Gold - Love Tonight.wav

Pre-gap length 0:00:02.41

Peak level 99.9 %
Extraction speed 1.8 X
Track quality 99.9 %
Test CRC 5C192F71
Copy CRC 5C192F71
Accurately ripped (confidence 2) [464E8695] (AR v2)
Copy OK

Track 14

Filename E:\Video\Incoming Folder\EAC\[14] Dan Markell - You Mighta Made the Sun.wav

Pre-gap length 0:00:02.06

Peak level 100.0 %
Extraction speed 2.0 X
Track quality 100.0 %
Test CRC E6AC02A6
Copy CRC E6AC02A6
Accurately ripped (confidence 2) [CD4EFA56] (AR v2)
Copy OK

Track 15

Filename E:\Video\Incoming Folder\EAC\[15] Jason Falkner - My Home Is Not a House.wav

Pre-gap length 0:00:02.68

Peak level 95.8 %
Extraction speed 2.0 X
Track quality 100.0 %
Test CRC C58457F1
Copy CRC C58457F1
Accurately ripped (confidence 2) [DDEC9E10] (AR v2)
Copy OK

Track 16

Filename E:\Video\Incoming Folder\EAC\[16] The Loud Family - Chicago and Miss Jovan's Land-O-Mat.wav

Pre-gap length 0:00:02.06

Peak level 95.7 %
Extraction speed 2.1 X
Track quality 100.0 %
Test CRC F7606FAC
Copy CRC F7606FAC
Accurately ripped (confidence 2) [AF11323F] (AR v2)
Copy OK

Track 17

Filename E:\Video\Incoming Folder\EAC\[17] Mod Lang - Jill.wav

Pre-gap length 0:00:02.66

Peak level 98.9 %
Extraction speed 2.1 X
Track quality 100.0 %
Test CRC F0083E03
Copy CRC F0083E03
Accurately ripped (confidence 2) [DDAC7884] (AR v2)
Copy OK

Track 18

Filename E:\Video\Incoming Folder\EAC\[18] Anton Barbeau - Octagon.wav

Pre-gap length 0:00:02.66

Peak level 99.2 %
Extraction speed 2.2 X
Track quality 100.0 %
Test CRC 94D143D2
Copy CRC 94D143D2
Accurately ripped (confidence 2) [035F6FC8] (AR v2)
Copy OK

Track 19

Filename E:\Video\Incoming Folder\EAC\[19] Richard Barone - Show and Tell.wav

Pre-gap length 0:00:02.68

Peak level 96.4 %
Extraction speed 1.7 X
Track quality 99.9 %
Test CRC 945BCD7A
Copy CRC 945BCD7A
Accurately ripped (confidence 2) [4FF38D0B] (AR v2)
Copy OK

Track 20

Filename E:\Video\Incoming Folder\EAC\[20] DM3 - Show You.wav

Pre-gap length 0:00:02.66

Peak level 95.3 %
Extraction speed 2.1 X
Track quality 100.0 %
Test CRC A39DF1DE
Copy CRC A39DF1DE
Accurately ripped (confidence 2) [98674A1E] (AR v2)
Copy OK

Track 21

Filename E:\Video\Incoming Folder\EAC\[21] Love Nut - If You Go Away.wav

Pre-gap length 0:00:02.66

Peak level 100.0 %
Extraction speed 2.2 X
Track quality 100.0 %
Test CRC E83D1457
Copy CRC E83D1457
Accurately ripped (confidence 2) [89E2B054] (AR v2)
Copy OK


All tracks accurately ripped

No errors occurred

End of status report

–– CUETools DB Plugin V2.1.6

[CTDB TOCID: CBWD_ZnCbllSW4hCz_xMynjK9iw-] disk not present in database
Submit result: CBWD_ZnCbllSW4hCz_xMynjK9iw- has been uploaded


==== Log checksum 3FFF875A6E7E0D55928A943128D88A69E847195CFE5B7995010AEB0644DFB758 ====


All thanks to original releaser!