Subcategories

VA - 100 Best 20th Century Classics (2009)

Posted By: delpotro
VA - 100 Best 20th Century Classics (2009)

VA - 100 Best 20th Century Classics (2009)
EAC Rip | FLAC (tracks+log+.cue) | 07:24:39 | 1,83 Gb
Classical | Label: Warner Classics, EMI Records

It's a tall order to compile the best classical music of the twentieth century, but EMI has selected its top 100 classics for this six-disc set, and it's difficult to argue with most of the choices. Without taking sides in the great ideological debates of the modern era – traditionalist vs. avant-garde, tonal vs. atonal, styles vs. schools, and so on – the label has picked the composers whose reputations seem most secure at the turn of the twenty-first century and has chosen representative excerpts of their music. Certainly, the titans of modernism are here, such as Igor Stravinsky, Arnold Schoenberg, Béla Bartók, Dmitry Shostakovich, Sergey Prokofiev, Claude Debussy, and Benjamin Britten, to name just a few masters, but they don't cast such a large shadow that they eclipse either their more backward-looking predecessors or their more experimental successors. If anything, a complaint could be made that certain post-Romantic composers, such as Sergey Rachmaninov and Ralph Vaughan Williams, are over-represented, to the exclusion of other significant figures. Yet this is perhaps understandable for a set designed for accessibility, and it is clear that this was not intended to be a thorough survey, for otherwise, the breakdown of the program would have been more consistently planned. With the discs organized to cover "The Last of the Romantics," "Innovators," " Brave New World," "America," "Instrumental and Chamber," and "Choral and Vocal," the themes seem ill-suited for an in-depth educational program, though good enough for making casual acquaintance with the music in understandable groupings. The performances date from 1963 to 2007, so the ADD and DDD recordings are fairly variable in quality, and there is also a noticeable difference between the live concert recordings and studio sessions. Still, for a quick run through the many styles and developmental phases of the century, this collection is pretty hard to beat for its variety and sheer quantity of examples.
Tracklist:
CD 1:
01. Lawrence Foster, Halle Orchestra & Jean-Bernard Pommier — Piano Concerto No. 2 In C Minor, Op. 18: I. Moderato (4:52)
02. London Symphony Orchestra & Andre Previn — Romeo and Juliet: Dance of the Knights (5:41)
03. Efrem Kurtz & Philharmonia Orchestra — Masquerade: Waltz (4:20)
04. London Philharmonic Orchestra & Klaus Tennstedt — Lieutenant Kije, Op. 60: IV. Troika (2:54)
05. Mariss Jansons, Mikhail Rudy & St Petersburg Philharmonic Orchestra — Piano Concerto No. 3 In D Minor: I. Allegro Ma non Tanto (Excerpt) (2:52)
06. Julian Bream, City Of Birmingham Symphony Orchestra & Sir Simon Rattle — Concierto de Aranjuez: Adagio — Opening (4:46)
07. John Fraser, Royal Philharmonic Orchestra & Yuri Temirkanov — Spartacus Ballet Suite No. 2: Adagio (4:45)
08. Sir John Barbirolli, Jacqueline Du Pre & London Symphony Orchestra — Cello Concerto In E Minor, Op. 85: I. Adagio — Moderato (8:01)
09. City Of Birmingham Symphony Orchestra, Cecile Ousset & Sir Simon Rattle — Rhapsody On a Theme of Paganini, Op. 43: Variation XVIII (Andante Cantabile, a Tempo Vivace) (3:01)
10. London Symphony Orchestra & Andre Previn — Images: II. Iberia: III. Le Matin D'un Jour de Fete (4:58)
11. Sir John Barbirolli & Halle Orchestra — I. Valse Triste from Kuolema — Incidental Music, Op. 44 (5:34)
12. Sir Adrian Boult, Hugh Bean & New Philharmonia Orchestra — The Lark Ascending (Opening) (6:25)
13. Rafael Fruhbeck de Burgos, Gonzalo Soriano & Orchestre De La Societe Des Concerts Du Conservatoire — Noches en los Jardines de Espana: En A Generalife (5:49)
14. Polish Radio Chorus Of Krakow, Polish Radio Orchestra Of Krakow & Antoni Wit — Harnasie, Op. 46 ExtrAct (Rural Scene) (2:29)
15. Dmitri Alexeev, English Chamber Orchestra & Jerzy Maksymiuk — Piano Concerto No. 2 In F: II. Andante (6:09)
16. Philharmonia Orchestra & Sir Simon Rattle — The Planets, Op. 32 (Jupiter, Concl.): Jupiter, the Bringer of Jolity (Conclusion) (4:47)

CD 2:
01. Chicago Symphony Orchestra & Seiji Ozawa — Sinfonietta: IV. Allegretto (2:45)
02. City Of Birmingham Symphony Orchestra & Sir Simon Rattle — SIX. Orchestral Pieces, Op. 6 (Revised Version): VI. Langsam (1:53)
03. City Of Birmingham Symphony Orchestra & Sir Simon Rattle — Five Orchestral Pieces, Op. 16 (Original Version): IV. Peripetie (Sehr Rasch) (2:37)
04. Sir Simon Rattle — Lulu Suite (Symphonic Pieces from the Opera 'Lulu'): IV. Variations (Moderato) (3:25)
05. City Of Birmingham Symphony Orchestra, Peter Donohoe & Sir Simon Rattle — Petrushka — Scenes Burlesques en Quatre Tableaux, Premiere Tableau: Le Tour de Passe-passe — Danse Russe (2:31)
06. Libor Pesek & Royal Liverpool Philharmonic Orchestra — 4 Sea Interludes, Op. 33a: Sunday Morning (3:48)
07. Herbert Blomstedt & Danish Radio Symphony Orchestra — Symphony No. 5 FS. 97 (Op. 50): Allegro (2:44)
08. Ambrosian Singers, Philharmonia Orchestra & Georges Pretre — Les Biches: Rondeau (3:37)
09. Chicago Symphony Orchestra & Seiji Ozawa — Concerto for Orchestra: IV. Intermezzo Interotto (Allegretto) (4:26)
10. London Symphony Orchestra, Yehudi Menuhin & Sir William Walton — Violin Concerto (Revised Version): II. Presto Capriccioso Alla Napolitana — Trio (Canzonetta) — Tempo I (6:48)
11. Lamberto Gardelli & London Symphony Orchestra — Pines of Rome: The Pines of the Villa Borghese (2:54)
12. James Conlon & Gurzenich-Orchester Kolner Philharmoniker — Sinfonietta, Op. 23: III. Rondo. Sehr Lebhaft (5:57)
13. City Of Birmingham Symphony Orchestra — The Rite of Spring, 'Le Sacre Du Printemps' (1947 Revised Version), Pt. 1: l'adoration de A Terre (5:02)
14. Berliner Philharmoniker & Mariss Jansons — Aufstieg Und Fall Der Stadt Mahagonny — Suite Aus Der Oper: No. 2 Moderato Assai (2:24)
15. Sir Adrian Boult & London Philharmonic Orchestra — Fantasia On a Theme By Thomas Tallis (Opening) (6:12)
16. Mariss Jansons & Oslo Philharmonic Orchestra — 3 Symphonic Movements, H. 53, H. 67, H. 83: Pacific 231 (6:33)
17. Berliner Philharmoniker & Claudio Abbado — Kammermusik No. 1 Fur 12 Solo-Intrumente, Op. 24, No. 1: IV. Finale: 1921 (Lebhaft) (6:05)
18. London Symphony Orchestra & Andre Previn — Bolero (Abbrev. Version — Arr. Bates) (5:15)

CD 3:
01. Bournemouth Sinfonietta & Richard Studt — Cantus In Memoriam BenjaMinor Britten for String Orchestra and Bell (6:13)
02. Mariss Jansons — Ballet Suite: Yugen, Dance of Men (2:40)
03. Japan Philharmonic Symphony Orchestra, Seiji Ozawa & Stomu Yamash'ta — Cassiopeia for Percussion Solo and Orchestra (1971), Scene (3:03)
04. Jacek Kasprzyk & Zofia Kilanowicz — Sinfonie No. 3, Op. 36 "sinfonie Der Klagelieder" ("Symphony of Sorrowful Songs"): II. Lento e Largo, Tranquillissimo (4:32)
05. London Symphony Orchestra & Krzysztof Penderecki — Anaklasis for Strings & Percussion (1959) (6:01)
06. City Of Birmingham Symphony Orchestra & Sir Simon Rattle — Symphony No. 8: Movement 2 (Conclusion) (4:40)
07. Serge Baudo — Et Expecto Resurrectionem Mortuorum, Pour Orchestre de Bois, Cuivres Et Percussions Metalliques (2:49)
08. City Of Birmingham Symphony Orchestra & Sir Simon Rattle — Drowned Out (5:11)
09. Witold Lutoslawski & Polish Radio National Symphony Orchestra — Symphony No. 1: I. Allegro Guisto (4:56)
10. Julian Bream & Sir Simon Rattle — Concierto de Aranjuez: I. Allegro con Spirito (6:25)
11. Michael Nyman — The Heart Asks Pleasure First / The Promise (Edit) (3:15)
12. Oliver Knussen & London Sinfonietta — Rain Coming for Chamber Orchestra (1982) (8:33)
13. Steven Isserlis, London Symphony Orchestra & Gennadi Rozhdestvensky — The Protecting Veil: The Protecting Veil (3:44)
14. John Alley, London Voices, Mstislav Rostropovich — The Canticle of the Sun — ExtrAct (5:21)
15. City Of Birmingham Symphony Orchestra & Sir Simon Rattle — Asyla (For Orchestra): IV (4:39)
16. City Of Birmingham Symphony Orchestra & Sir Simon Rattle — Flourish With Fireworks, Op. 22 (4:06)

CD 4:

01. London Symphony Orchestra & Andre Previn — Candide: Overture (4:18)
02. Ensemble Modern — A Set of Pieces for Theater or Chamber Orchestra: No. 3: In the Night (2:50)
03. Simon Haram, John Harle, London Chamber Orchestra — Facades (7:49)
04. Tasmin Little, New World Philharmonic Orchestra & Ian Sutherland — Schindler's List — Theme (5:06)
05. Enrique Batiz & Orquesta Filarmonica de la Ciudad de Mexico — Fanfare for the Common Man (3:42)
06. Eugene Ormandy & Philadelphia Orchestra — Adagio for Strings, Op. 11 (6:24)
07. David Abel & Orchestra — My Heart Will Go On (Love Theme from the Movie Titanic) (4:24)
08. Colin Currie & Sam Walton — Nagoya Marimbas (For Two Marimbas) (4:54)
09. City Of Birmingham Symphony Orchestra & Sir Simon Rattle — Three Occasions for Orchestra: A Celebration of Some 100 X 150 Notes (3:33)
10. Ralph Kirshbaum, Jukka-Pekka Saraste & Scottish Chamber Orchestra — Cello Concerto, Op. 22: II. Andante Sostenuto (7:47)
11. London Chamber Orchestra & Christopher Warren-Green — Shaker Loops (1983): A Final Shaking (3:47)
12. Leonard Slatkin — Rodeo: Hoe-Down (4:14)
13. City Of Birmingham Symphony Orchestra, Wayne Marshall — Rhapsody In Blue (Jazzband Version): Opening (4:40)
14. Michael Tilson-Thomas — Three Dances: Dance No. 1 (6:33)
15. Nikolaj Bloch & Sally Herbert — Any Other Name (American Beauty) (4:08)
16. City Of Birmingham Symphony Orchestra & Sir Simon Rattle — Short Ride In a Fast Machine — Fanfare for Orchestra (4:18)

CD 5:
01. Moura Lympany — El Amor Brujo: Ritual Fire Dance (4:07)
02. John Ogdon — Two Poemes, Op. 63: II.Etrangete (1:53)
03. Cecile Ousset — Estampes: I. Pagodes (5:12)
04. Piers Lane & Tasmin Little — Romance from the Gadfly (3:16)
05. Ian Brown & Maxim Vengerov — Liebesfreud (3:17)
06. Nell Gotkovsky & Yehudi Menuhin — 6 Duos for 2 Violins (From 44 Duos for 2 Violins): No. 28: Sorrow (2:49)
07. Tasmin Little & Martin Roscoe — Spiegel Im Spiegel for Violin and Piano (8:22)
08. Manuel Barrueco — Choro No. 1 E-moll · Fur Gitarre Solo (4:57)
09. Julian Bream — All In Twilight: I. Dotted Quaver = 80 (3:09)
10. Sharon Isbin — Zapateado (2:16)
11. Artemis Quartet — String Quartet No. 1 'Metamorphoses Nocturnes': Allegro Grazioso (1:34)
12. Alban Berg Quartett — Lyric Suite: III. Allegro Misterioso (3:13)
13. Thomas Kakuska, Artemis Quartet & Valentin Erben — Verklarte Nacht, Op. 4 (ExtrAct) (7:28)
14. Manuel Fischer-Dieskau, Yvonne Loriod — Quatuor Pour A Fin Du Temps, 'Quartet for the End of Time': Liturgie de Cristal (2:30)
15. Yuri Bashmet, Gidon Kremer & Mstislav Rostropovich — Minuet (2:49)
16. Belcea Quartet — String Quartet In F: II. Assez Vif: Tres Rythme (6:03)

CD 6:
01. Jose Carreras, Choeurs De L'Opera Du Rhin — Turandot (Act III): Nessun Dorma (4:10)
02. Riccardo Muti, Philharmonia Chorus & Philharmonia Orchestra — Carmina Burana: O Fortuna (2:47)
03. Tonu Kaljuste, Estonian National Symphony Orchestra — Beatus Petronius (5:07)
04. James Bowman, City Of London Sinfonia — Nunc dimittis (3:04)
05. Jane Gilchrist, Slovak Radio Symphony Orchestra, Kirk Trevor — Requiem: Pie Jesu (2:52)
06. Karl Jenkins — Agnus Dei (3:39)
07. David Hill & Winchester Cathedral Choir — Song for Athene (6:12)
08. Stephen Cleobury, King's College Choir, Cambridge & Sinfonia of London — Requiem: III. Pie Jesu (Edward Saklatvala, Treble) (3:35)
09. Cambridge Boys Of King's College Choir, Academy of St. Martin-in-the-Fields — Ecce Cor Meum (2:50)
10. Berliner Symphoniker, Natalie Dessay & Michael Schonwandt — Vocalise, Op. 43 / No. 4 (5:22)
11. Orchestre de l'Opera National de Lyon & Ernst Theo Richter — Arlecchino, Oder Die Fenster, Op. 50: III. SATZ: Wie Ist Ihr Schlaf, Madame? (Arlecchino / Colombina) (2:25)
12. Linda Hirst, London Sinfonietta & Diego Masson — 11 Folk Songs: Ballo (Italy) (1:45)
13. Arleen Auger, English Chamber Orchestra & Yan-Pascal Tortelier — Chants D'Auvergne: Bailero (Series 1, No. 2) (6:43)
14. Orchestra of the Royal Opera House, Covent Garden, Antonio Pappano & Nina Stemme — Vier Letzte Lieder AV150 (Op. Posth): III. Beim Schlafengehen (Hesse) (5:14)
15. Enrique Batiz, Barbara Hendricks & Royal Philharmonic Orchestra — Bachianas Brasileiras No. 5 (For Soprano and 8 Cellos): I. Aria (Cantilena): Adagio (6:08)
16. Pierre Boulez, BBC Chorus, BBC Symphony Orchestra, Louis Devos — Les Soleil Des Eaux: A Sorgue (4:21)
17. Angela Gheorghiu, London Symphony Orchestra & Antonio Pappano — Gianni Schicchi: O Mio Babbino Caro (Lauretta) (2:08)
18. Philharmonia Orchestra, Julius Rudel & Kiri Te Kanawa — Die Tote Stadt: Mariettas Lied: Gluck, Das Mir Verblieb (5:38)

Exact Audio Copy V1.3 from 2. September 2016

EAC extraction logfile from 18. December 2016, 17:11

Various Artists / 100 Best 20th Century Classics

Used drive : TSSTcorpCDDVDW SH-222AB Adapter: 1 ID: 0

Read mode : Secure
Utilize accurate stream : Yes
Defeat audio cache : Yes
Make use of C2 pointers : No

Read offset correction : 6
Overread into Lead-In and Lead-Out : No
Fill up missing offset samples with silence : Yes
Delete leading and trailing silent blocks : No
Null samples used in CRC calculations : Yes
Used interface : Native Win32 interface for Win NT & 2000
Gap handling : Appended to previous track

Used output format : User Defined Encoder
Selected bitrate : 1024 kBit/s
Quality : High
Add ID3 tag : No
Command line compressor : C:\Program Files (x86)\Exact Audio Copy\Flac\flac.exe
Additional command line options : -8 -e -p -V -T "ARTIST=%artist%" -T "TITLE=%title%" -T "ALBUM=%albumtitle%" -T "DATE=%year%" -T "TRACKNUMBER=%tracknr%" -T "GENRE=%genre%" -T "PERFORMER=%albuminterpret%" -T "COMPOSER=%composer%" %haslyrics%–tag-from-file=LYRICS="%lyricsfile%"%haslyrics% -T "ALBUMARTIST=%albumartist%" -T "DISCNUMBER=%cdnumber%" -T "TOTALDISCS=%totalcds%" -T "TOTALTRACKS=%numtracks%" -T "COMMENT=%comment%" %source% -o %dest%


TOC of the extracted CD

Track | Start | Length | Start sector | End sector
––––––––––––––––––––––––––––-
1 | 0:00.00 | 4:52.29 | 0 | 21928
2 | 4:52.29 | 5:41.34 | 21929 | 47537
3 | 10:33.63 | 4:20.21 | 47538 | 67058
4 | 14:54.09 | 2:54.67 | 67059 | 80175
5 | 17:49.01 | 2:52.68 | 80176 | 93143
6 | 20:41.69 | 4:46.67 | 93144 | 114660
7 | 25:28.61 | 4:45.30 | 114661 | 136065
8 | 30:14.16 | 8:01.02 | 136066 | 172142
9 | 38:15.18 | 3:01.38 | 172143 | 185755
10 | 41:16.56 | 4:58.66 | 185756 | 208171
11 | 46:15.47 | 5:34.38 | 208172 | 233259
12 | 51:50.10 | 6:25.53 | 233260 | 262187
13 | 58:15.63 | 5:49.25 | 262188 | 288387
14 | 64:05.13 | 2:29.62 | 288388 | 299624
15 | 66:35.00 | 6:09.58 | 299625 | 327357
16 | 72:44.58 | 4:47.37 | 327358 | 348919


Track 1

Filename E:\Various Artists - 100 Best 20th Century Classics (2009) [FLAC]\CD1\01 - Jean-Bernard Pommier - Piano Concerto No. 2 in C Minor- I. Moderato (Opening).wav

Pre-gap length 0:00:02.00

Peak level 96.9 %
Extraction speed 4.9 X
Track quality 100.0 %
Test CRC 22C73B23
Copy CRC 22C73B23
Cannot be verified as accurate (confidence 5) [62E2AF37], AccurateRip returned [9BD05648] (AR v2)
Copy OK

Track 2

Filename E:\Various Artists - 100 Best 20th Century Classics (2009) [FLAC]\CD1\02 - London Symphony Orchestra - Romeo and Juliet- Dance of the Knights.wav

Pre-gap length 0:00:02.70

Peak level 75.5 %
Extraction speed 5.5 X
Track quality 100.0 %
Test CRC 9DA262F3
Copy CRC 9DA262F3
Cannot be verified as accurate (confidence 5) [18DD7FDA], AccurateRip returned [72F7AECF] (AR v2)
Copy OK

Track 3

Filename E:\Various Artists - 100 Best 20th Century Classics (2009) [FLAC]\CD1\03 - Philharmonia Orchestra - Masquerada- Waltz.wav

Pre-gap length 0:00:03.78

Peak level 92.1 %
Extraction speed 4.7 X
Track quality 99.9 %
Test CRC F9945E4A
Copy CRC F9945E4A
Cannot be verified as accurate (confidence 5) [FE2DF922], AccurateRip returned [BE662E0F] (AR v2)
Copy OK

Track 4

Filename E:\Various Artists - 100 Best 20th Century Classics (2009) [FLAC]\CD1\04 - London Philharmonic Orchestra - Lieutenant Kijé Suite- Troika.wav

Pre-gap length 0:00:02.73

Peak level 83.0 %
Extraction speed 5.7 X
Track quality 100.0 %
Test CRC 854171F3
Copy CRC 854171F3
Cannot be verified as accurate (confidence 5) [3F18E1CE], AccurateRip returned [5396A68B] (AR v2)
Copy OK

Track 5

Filename E:\Various Artists - 100 Best 20th Century Classics (2009) [FLAC]\CD1\05 - Mikhail Rudy, St. Petersburg Philharmonic Orchestra - Piano Concerto No. 3 in D Minor- I. Allegro ma non Tanto (Opening).wav

Pre-gap length 0:00:02.70

Peak level 66.2 %
Extraction speed 5.8 X
Track quality 100.0 %
Test CRC 8D9B3162
Copy CRC 8D9B3162
Cannot be verified as accurate (confidence 5) [1865823B], AccurateRip returned [B6FB7F81] (AR v2)
Copy OK

Track 6

Filename E:\Various Artists - 100 Best 20th Century Classics (2009) [FLAC]\CD1\06 - Julian Bream, City of Birmingham Symphony Orchestra - Concierto de Aranjuez- II. Adagio (Opening).wav

Pre-gap length 0:00:03.48

Peak level 77.0 %
Extraction speed 6.5 X
Track quality 100.0 %
Test CRC 1882632E
Copy CRC 1882632E
Cannot be verified as accurate (confidence 5) [ABC3CEDB], AccurateRip returned [2ECF2037] (AR v2)
Copy OK

Track 7

Filename E:\Various Artists - 100 Best 20th Century Classics (2009) [FLAC]\CD1\07 - Royal Philharmonic Orchestra - Spartacus- Adagio of Spartacus and Phrygia (Extract).wav

Pre-gap length 0:00:03.12

Peak level 87.9 %
Extraction speed 6.9 X
Track quality 100.0 %
Test CRC 4F4B78A1
Copy CRC 4F4B78A1
Cannot be verified as accurate (confidence 5) [B4F669E5], AccurateRip returned [FCE27733] (AR v2)
Copy OK

Track 8

Filename E:\Various Artists - 100 Best 20th Century Classics (2009) [FLAC]\CD1\08 - Jacqueline du Pré, London Symphony Orchestra - Cello Concerto in E Minor- I. Adagio - Moderato.wav

Pre-gap length 0:00:02.82

Peak level 87.4 %
Extraction speed 6.9 X
Track quality 99.9 %
Test CRC B771C978
Copy CRC B771C978
Cannot be verified as accurate (confidence 5) [CD6F2C7A], AccurateRip returned [6EB46242] (AR v2)
Copy OK

Track 9

Filename E:\Various Artists - 100 Best 20th Century Classics (2009) [FLAC]\CD1\09 - Cécile Ousset, City of Birmingham Orchestra - Rhapsody on a Theme of Paganini- Variation 18.wav

Pre-gap length 0:00:04.13

Peak level 98.0 %
Extraction speed 4.6 X
Track quality 99.8 %
Test CRC C6B320F9
Copy CRC C6B320F9
Cannot be verified as accurate (confidence 5) [7A61FD09], AccurateRip returned [C962E562] (AR v2)
Copy OK

Track 10

Filename E:\Various Artists - 100 Best 20th Century Classics (2009) [FLAC]\CD1\10 - London Symphony Orchestra - Images- II. Ibéria- 3. Le Matin d'un Jour de Fête.wav

Pre-gap length 0:00:04.06

Peak level 96.9 %
Extraction speed 8.1 X
Track quality 100.0 %
Test CRC B6C05C16
Copy CRC B6C05C16
Cannot be verified as accurate (confidence 5) [19AA189D], AccurateRip returned [E61B3AC4] (AR v2)
Copy OK

Track 11

Filename E:\Various Artists - 100 Best 20th Century Classics (2009) [FLAC]\CD1\11 - Hallé Orchestra - Valse Triste.wav

Pre-gap length 0:00:04.30

Peak level 71.0 %
Extraction speed 8.4 X
Track quality 100.0 %
Test CRC 5DF16F29
Copy CRC 5DF16F29
Cannot be verified as accurate (confidence 5) [8525C73C], AccurateRip returned [9ED030DA] (AR v2)
Copy OK

Track 12

Filename E:\Various Artists - 100 Best 20th Century Classics (2009) [FLAC]\CD1\12 - Hugh Bean, New Philharmonia Orchestra - The Lark Ascending (Opening).wav

Pre-gap length 0:00:03.22

Peak level 68.9 %
Extraction speed 8.8 X
Track quality 100.0 %
Test CRC 226CFAD1
Copy CRC 226CFAD1
Cannot be verified as accurate (confidence 5) [7B2BD812], AccurateRip returned [02CF0DCC] (AR v2)
Copy OK

Track 13

Filename E:\Various Artists - 100 Best 20th Century Classics (2009) [FLAC]\CD1\13 - Gonzalo Soriano, Orchestre de la Société des Concerts du Conservatoire - Nights in the Gardens of Spain- I. In the Generalife (Extract).wav

Pre-gap length 0:00:03.85

Peak level 64.7 %
Extraction speed 6.2 X
Track quality 99.9 %
Test CRC 7F078D3A
Copy CRC 7F078D3A
Cannot be verified as accurate (confidence 5) [535ED03B], AccurateRip returned [FEE38808] (AR v2)
Copy OK

Track 14

Filename E:\Various Artists - 100 Best 20th Century Classics (2009) [FLAC]\CD1\14 - Polish Radio Symphony Orchestra of Kraków - Harnasie- Rural Scene (Extract).wav

Pre-gap length 0:00:03.77

Peak level 72.2 %
Extraction speed 8.2 X
Track quality 100.0 %
Test CRC C7E38947
Copy CRC C7E38947
Cannot be verified as accurate (confidence 5) [7F444CF5], AccurateRip returned [60FCA4F5] (AR v2)
Copy OK

Track 15

Filename E:\Various Artists - 100 Best 20th Century Classics (2009) [FLAC]\CD1\15 - Dmitri Alexeev, English Chamber Orchestra - Piano Concerto No. 2 in F- II. Andante.wav

Pre-gap length 0:00:03.53

Peak level 38.4 %
Extraction speed 9.6 X
Track quality 100.0 %
Test CRC D0918FDF
Copy CRC D0918FDF
Cannot be verified as accurate (confidence 5) [4998B080], AccurateRip returned [20ADC686] (AR v2)
Copy OK

Track 16

Filename E:\Various Artists - 100 Best 20th Century Classics (2009) [FLAC]\CD1\16 - Philharmonia Orchestra - The Planets- Jupiter, the Bringer of Jollity (Conclusion).wav

Pre-gap length 0:00:03.85

Peak level 97.8 %
Extraction speed 7.7 X
Track quality 99.9 %
Test CRC 4252E652
Copy CRC 4252E652
Cannot be verified as accurate (confidence 5) [2BED31B2], AccurateRip returned [3DE47749] (AR v2)
Copy OK


No tracks could be verified as accurate
You may have a different pressing from the one(s) in the database

No errors occurred

End of status report

–– CUETools DB Plugin V2.1.6

[CTDB TOCID: qCscDJqxEi3fHIsyGYKtUdDM1Kg-] found
Submit result: qCscDJqxEi3fHIsyGYKtUdDM1Kg- has been confirmed
Track | CTDB Status
1 | (12/12) Accurately ripped
2 | (12/12) Accurately ripped
3 | (12/12) Accurately ripped
4 | (12/12) Accurately ripped
5 | (12/12) Accurately ripped
6 | (12/12) Accurately ripped
7 | (12/12) Accurately ripped
8 | (12/12) Accurately ripped
9 | (12/12) Accurately ripped
10 | (12/12) Accurately ripped
11 | (12/12) Accurately ripped
12 | (12/12) Accurately ripped
13 | (12/12) Accurately ripped
14 | (12/12) Accurately ripped
15 | (12/12) Accurately ripped
16 | (12/12) Accurately ripped


==== Log checksum 29B042E86E7E2621FBF83AE54FA38A5D3271277CBBAE5FEA5B3D45D96EB58854 ====

Exact Audio Copy V1.3 from 2. September 2016

EAC extraction logfile from 18. December 2016, 18:23

Various Artists / 100 Best 20th Century Classics

Used drive : TSSTcorpCDDVDW SH-222AB Adapter: 1 ID: 0

Read mode : Secure
Utilize accurate stream : Yes
Defeat audio cache : Yes
Make use of C2 pointers : No

Read offset correction : 6
Overread into Lead-In and Lead-Out : No
Fill up missing offset samples with silence : Yes
Delete leading and trailing silent blocks : No
Null samples used in CRC calculations : Yes
Used interface : Native Win32 interface for Win NT & 2000
Gap handling : Appended to previous track

Used output format : User Defined Encoder
Selected bitrate : 1024 kBit/s
Quality : High
Add ID3 tag : No
Command line compressor : C:\Program Files (x86)\Exact Audio Copy\Flac\flac.exe
Additional command line options : -8 -e -p -V -T "ARTIST=%artist%" -T "TITLE=%title%" -T "ALBUM=%albumtitle%" -T "DATE=%year%" -T "TRACKNUMBER=%tracknr%" -T "GENRE=%genre%" -T "PERFORMER=%albuminterpret%" -T "COMPOSER=%composer%" %haslyrics%–tag-from-file=LYRICS="%lyricsfile%"%haslyrics% -T "ALBUMARTIST=%albumartist%" -T "DISCNUMBER=%cdnumber%" -T "TOTALDISCS=%totalcds%" -T "TOTALTRACKS=%numtracks%" -T "COMMENT=%comment%" %source% -o %dest%


TOC of the extracted CD

Track | Start | Length | Start sector | End sector
––––––––––––––––––––––––––––-
1 | 0:00.00 | 2:45.43 | 0 | 12417
2 | 2:45.43 | 1:53.02 | 12418 | 20894
3 | 4:38.45 | 2:37.26 | 20895 | 32695
4 | 7:15.71 | 3:25.70 | 32696 | 48140
5 | 10:41.66 | 2:31.23 | 48141 | 59488
6 | 13:13.14 | 3:48.12 | 59489 | 76600
7 | 17:01.26 | 2:44.49 | 76601 | 88949
8 | 19:46.00 | 3:37.32 | 88950 | 105256
9 | 23:23.32 | 4:26.06 | 105257 | 125212
10 | 27:49.38 | 6:48.05 | 125213 | 155817
11 | 34:37.43 | 2:54.57 | 155818 | 168924
12 | 37:32.25 | 5:57.25 | 168925 | 195724
13 | 43:29.50 | 5:02.40 | 195725 | 218414
14 | 48:32.15 | 2:24.27 | 218415 | 229241
15 | 50:56.42 | 6:12.46 | 229242 | 257187
16 | 57:09.13 | 6:33.25 | 257188 | 286687
17 | 63:42.38 | 6:05.38 | 286688 | 314100
18 | 69:48.01 | 5:15.54 | 314101 | 337779


Track 1

Filename E:\Various Artists - 100 Best 20th Century Classics (2009) [FLAC]\CD2\01 - Chicago Symphony Orchestra - Sinfonietta- IV. Allegretto.wav

Pre-gap length 0:00:02.00

Peak level 90.6 %
Extraction speed 4.1 X
Track quality 100.0 %
Test CRC C19EBEE9
Copy CRC C19EBEE9
Cannot be verified as accurate (confidence 5) [A75E3402], AccurateRip returned [459DCD90] (AR v2)
Copy OK

Track 2

Filename E:\Various Artists - 100 Best 20th Century Classics (2009) [FLAC]\CD2\02 - City of Birmingham Symphony Orchestra - 6 Orchestral Pieces Op. 6- VI. Langsam.wav

Pre-gap length 0:00:03.68

Peak level 12.9 %
Extraction speed 4.1 X
Track quality 100.0 %
Test CRC 6DEDAD1F
Copy CRC 6DEDAD1F
Cannot be verified as accurate (confidence 5) [B244E430], AccurateRip returned [ED3C89D2] (AR v2)
Copy OK

Track 3

Filename E:\Various Artists - 100 Best 20th Century Classics (2009) [FLAC]\CD2\03 - City of Birmingham Symphony Orchestra - 5 Orchestral Pieces Op. 16- IV. Peripetie (Sehr Rasch).wav

Pre-gap length 0:00:02.86

Peak level 97.6 %
Extraction speed 3.3 X
Track quality 99.9 %
Test CRC EE5B341A
Copy CRC EE5B341A
Cannot be verified as accurate (confidence 5) [ACE8D2EE], AccurateRip returned [753981DD] (AR v2)
Copy OK

Track 4

Filename E:\Various Artists - 100 Best 20th Century Classics (2009) [FLAC]\CD2\04 - City of Birmingham Symphony Orchestra - Lulu-Suite- IV. Variationen- Moderato.wav

Pre-gap length 0:00:03.76

Peak level 99.1 %
Extraction speed 5.2 X
Track quality 100.0 %
Test CRC 3311065B
Copy CRC 3311065B
Cannot be verified as accurate (confidence 5) [AA97A86E], AccurateRip returned [4707FB6E] (AR v2)
Copy OK

Track 5

Filename E:\Various Artists - 100 Best 20th Century Classics (2009) [FLAC]\CD2\05 - Peter Donohoe, City of Birmingham Symphony Orchestra - Petrushka- Russian Dance.wav

Pre-gap length 0:00:03.97

Peak level 99.8 %
Extraction speed 5.1 X
Track quality 100.0 %
Test CRC C6F65B4B
Copy CRC C6F65B4B
Cannot be verified as accurate (confidence 5) [311E16E5], AccurateRip returned [06379638] (AR v2)
Copy OK

Track 6

Filename E:\Various Artists - 100 Best 20th Century Classics (2009) [FLAC]\CD2\06 - Royal Liverpool Philharmonic Orchestra - Peter Grimes- Sunday Morning (Four Sea Interludes).wav

Pre-gap length 0:00:02.25

Peak level 98.0 %
Extraction speed 5.8 X
Track quality 100.0 %
Test CRC 1CD16795
Copy CRC 1CD16795
Cannot be verified as accurate (confidence 5) [55435AFD], AccurateRip returned [B8F4FCE2] (AR v2)
Copy OK

Track 7

Filename E:\Various Artists - 100 Best 20th Century Classics (2009) [FLAC]\CD2\07 - Danish Radio Symphony Orchestra - Symphony No. 5- II. Allegro (Conclusion).wav

Pre-gap length 0:00:03.81

Peak level 93.7 %
Extraction speed 4.3 X
Track quality 99.9 %
Test CRC D970BFBB
Copy CRC D970BFBB
Cannot be verified as accurate (confidence 5) [227FD515], AccurateRip returned [B1042E88] (AR v2)
Copy OK

Track 8

Filename E:\Various Artists - 100 Best 20th Century Classics (2009) [FLAC]\CD2\08 - Philharmonia Orchestra - Les Biches- Rondeau.wav

Pre-gap length 0:00:04.20

Peak level 99.7 %
Extraction speed 4.9 X
Track quality 99.9 %
Test CRC 89F8D9BF
Copy CRC 89F8D9BF
Cannot be verified as accurate (confidence 5) [A614987C], AccurateRip returned [648FB1D9] (AR v2)
Copy OK

Track 9

Filename E:\Various Artists - 100 Best 20th Century Classics (2009) [FLAC]\CD2\09 - Chicago Symphony Orchestra - Concerto for Orchestra- IV. Intermezzo Interrotto- Allegretto.wav

Pre-gap length 0:00:04.68

Peak level 77.0 %
Extraction speed 6.6 X
Track quality 100.0 %
Test CRC F2A823DD
Copy CRC F2A823DD
Cannot be verified as accurate (confidence 5) [6269CA54], AccurateRip returned [8D9C6DD5] (AR v2)
Copy OK

Track 10

Filename E:\Various Artists - 100 Best 20th Century Classics (2009) [FLAC]\CD2\10 - Yehudi Menuhin, London Symphony Orchestra - Violin Concerto- II. Presto Capriccioso alla Napolitana & Trio (Canzonetta).wav

Pre-gap length 0:00:03.65

Peak level 54.8 %
Extraction speed 7.4 X
Track quality 100.0 %
Test CRC E370BC58
Copy CRC E370BC58
Cannot be verified as accurate (confidence 5) [D0AA5036], AccurateRip returned [F19E98F3] (AR v2)
Copy OK

Track 11

Filename E:\Various Artists - 100 Best 20th Century Classics (2009) [FLAC]\CD2\11 - London Symphony Orchestra - Pini di Roma- III. I Pini di Villa Borghese.wav

Pre-gap length 0:00:02.88

Peak level 68.2 %
Extraction speed 6.9 X
Track quality 100.0 %
Test CRC 0E8BD887
Copy CRC 0E8BD887
Cannot be verified as accurate (confidence 5) [55F21768], AccurateRip returned [64B3E573] (AR v2)
Copy OK

Track 12

Filename E:\Various Artists - 100 Best 20th Century Classics (2009) [FLAC]\CD2\12 - Gürzenich-Orchester Köln - Sinfonietta Op. 23- Rondo. Sehr Lebhaft.wav

Pre-gap length 0:00:04.33

Peak level 98.0 %
Extraction speed 7.9 X
Track quality 100.0 %
Test CRC 67CE934E
Copy CRC 67CE934E
Cannot be verified as accurate (confidence 5) [EEC29C96], AccurateRip returned [82C9252E] (AR v2)
Copy OK

Track 13

Filename E:\Various Artists - 100 Best 20th Century Classics (2009) [FLAC]\CD2\13 - City of Birmingham Symphony Orchestra - Le Sacre du Printemps- L'Adoration de la Terre (Opening).wav

Pre-gap length 0:00:05.42

Peak level 87.3 %
Extraction speed 7.8 X
Track quality 100.0 %
Test CRC 5B3A2DA7
Copy CRC 5B3A2DA7
Cannot be verified as accurate (confidence 5) [90F5DD4D], AccurateRip returned [BBB4EBCA] (AR v2)
Copy OK

Track 14

Filename E:\Various Artists - 100 Best 20th Century Classics (2009) [FLAC]\CD2\14 - Berliner Philharmoniker - The Rise and Fall of the City of Mahagonny - Suite- II. Moderato Assai.wav

Pre-gap length 0:00:04.58

Peak level 62.8 %
Extraction speed 7.0 X
Track quality 100.0 %
Test CRC 44F2D2CE
Copy CRC 44F2D2CE
Cannot be verified as accurate (confidence 5) [90A95CCB], AccurateRip returned [40D98CAB] (AR v2)
Copy OK

Track 15

Filename E:\Various Artists - 100 Best 20th Century Classics (2009) [FLAC]\CD2\15 - London Philharmonic Orchestra - Fantasia on a Theme by Thomas Tallis (Opening).wav

Pre-gap length 0:00:03.80

Peak level 83.2 %
Extraction speed 8.6 X
Track quality 100.0 %
Test CRC 32C47CAE
Copy CRC 32C47CAE
Cannot be verified as accurate (confidence 5) [D85133F8], AccurateRip returned [2FD70633] (AR v2)
Copy OK

Track 16

Filename E:\Various Artists - 100 Best 20th Century Classics (2009) [FLAC]\CD2\16 - Oslo Philharmonic Orchestra - Pacific 231.wav

Pre-gap length 0:00:03.48

Peak level 99.9 %
Extraction speed 8.9 X
Track quality 100.0 %
Test CRC 1259F66C
Copy CRC 1259F66C
Cannot be verified as accurate (confidence 5) [2E22407F], AccurateRip returned [837047E4] (AR v2)
Copy OK

Track 17

Filename E:\Various Artists - 100 Best 20th Century Classics (2009) [FLAC]\CD2\17 - Berliner Philharmoniker - Kammermusik No. 1- IV. Finale- 1921. Lebhaft.wav

Pre-gap length 0:00:01.74

Peak level 99.8 %
Extraction speed 7.8 X
Track quality 99.9 %
Test CRC F60C2D01
Copy CRC F60C2D01
Cannot be verified as accurate (confidence 5) [76D8B66C], AccurateRip returned [32D1E408] (AR v2)
Copy OK

Track 18

Filename E:\Various Artists - 100 Best 20th Century Classics (2009) [FLAC]\CD2\18 - London Symphony Orchestra - Boléro (Conclusion).wav

Pre-gap length 0:00:02.68

Peak level 99.5 %
Extraction speed 7.8 X
Track quality 99.9 %
Test CRC 426C5295
Copy CRC 426C5295
Cannot be verified as accurate (confidence 5) [8783FE88], AccurateRip returned [09688EB7] (AR v2)
Copy OK


No tracks could be verified as accurate
You may have a different pressing from the one(s) in the database

No errors occurred

End of status report

–– CUETools DB Plugin V2.1.6

[CTDB TOCID: 2_v5NHZu.FYSibeGuuaKaoBaVVM-] found
Submit result: 2_v5NHZu.FYSibeGuuaKaoBaVVM- has been confirmed
Track | CTDB Status
1 | (20/20) Accurately ripped
2 | (20/20) Accurately ripped
3 | (20/20) Accurately ripped
4 | (20/20) Accurately ripped
5 | (20/20) Accurately ripped
6 | (20/20) Accurately ripped
7 | (20/20) Accurately ripped
8 | (20/20) Accurately ripped
9 | (20/20) Accurately ripped
10 | (20/20) Accurately ripped
11 | (20/20) Accurately ripped
12 | (20/20) Accurately ripped
13 | (20/20) Accurately ripped
14 | (19/20) Accurately ripped
15 | (20/20) Accurately ripped
16 | (20/20) Accurately ripped
17 | (20/20) Accurately ripped
18 | (20/20) Accurately ripped


==== Log checksum 239468AE275F22BF64D84480401F1146B2B067C64E27C98843E7FB2171F2DD37 ====

Exact Audio Copy V1.3 from 2. September 2016

EAC extraction logfile from 18. December 2016, 20:46

Various Artists / 100 Best 20th Century Classics

Used drive : TSSTcorpCDDVDW SH-222AB Adapter: 1 ID: 0

Read mode : Secure
Utilize accurate stream : Yes
Defeat audio cache : Yes
Make use of C2 pointers : No

Read offset correction : 6
Overread into Lead-In and Lead-Out : No
Fill up missing offset samples with silence : Yes
Delete leading and trailing silent blocks : No
Null samples used in CRC calculations : Yes
Used interface : Native Win32 interface for Win NT & 2000
Gap handling : Appended to previous track

Used output format : User Defined Encoder
Selected bitrate : 1024 kBit/s
Quality : High
Add ID3 tag : No
Command line compressor : C:\Program Files (x86)\Exact Audio Copy\Flac\flac.exe
Additional command line options : -8 -e -p -V -T "ARTIST=%artist%" -T "TITLE=%title%" -T "ALBUM=%albumtitle%" -T "DATE=%year%" -T "TRACKNUMBER=%tracknr%" -T "GENRE=%genre%" -T "PERFORMER=%albuminterpret%" -T "COMPOSER=%composer%" %haslyrics%–tag-from-file=LYRICS="%lyricsfile%"%haslyrics% -T "ALBUMARTIST=%albumartist%" -T "DISCNUMBER=%cdnumber%" -T "TOTALDISCS=%totalcds%" -T "TOTALTRACKS=%numtracks%" -T "COMMENT=%comment%" %source% -o %dest%


TOC of the extracted CD

Track | Start | Length | Start sector | End sector
––––––––––––––––––––––––––––-
1 | 0:00.00 | 6:13.43 | 0 | 28017
2 | 6:13.43 | 2:40.35 | 28018 | 40052
3 | 8:54.03 | 3:03.71 | 40053 | 53848
4 | 11:57.74 | 4:32.52 | 53849 | 74300
5 | 16:30.51 | 6:01.37 | 74301 | 101412
6 | 22:32.13 | 4:40.24 | 101413 | 122436
7 | 27:12.37 | 2:49.15 | 122437 | 135126
8 | 30:01.52 | 5:11.17 | 135127 | 158468
9 | 35:12.69 | 4:56.31 | 158469 | 180699
10 | 40:09.25 | 6:25.19 | 180700 | 209593
11 | 46:34.44 | 3:15.19 | 209594 | 224237
12 | 49:49.63 | 8:33.63 | 224238 | 262775
13 | 58:23.51 | 3:44.58 | 262776 | 279633
14 | 62:08.34 | 5:21.54 | 279634 | 303762
15 | 67:30.13 | 4:39.08 | 303763 | 324695
16 | 72:09.21 | 4:06.54 | 324696 | 343199


Track 1

Filename E:\Various Artists - 100 Best 20th Century Classics (2009) [FLAC]\CD3\01 - Bournemouth Sinfonietta - Cantus in Memoriam Benjamin Britten.wav

Pre-gap length 0:00:02.00

Peak level 55.9 %
Extraction speed 3.0 X
Track quality 100.0 %
Test CRC 1ACBB263
Copy CRC 1ACBB263
Accurately ripped (confidence 4) [DA4520FA] (AR v2)
Copy OK

Track 2

Filename E:\Various Artists - 100 Best 20th Century Classics (2009) [FLAC]\CD3\02 - Oslo Philharmonic Orchestra - Dance of Men (Ballet Suite - Yugen).wav

Pre-gap length 0:00:01.70

Peak level 99.1 %
Extraction speed 2.9 X
Track quality 100.0 %
Test CRC F09B31E0
Copy CRC F09B31E0
Accurately ripped (confidence 4) [9FC95910] (AR v2)
Copy OK

Track 3

Filename E:\Various Artists - 100 Best 20th Century Classics (2009) [FLAC]\CD3\03 - Stomu Yamash'ta, Japan Philharmonic Orchestra - Cassiopeia- Scene.wav

Pre-gap length 0:00:03.40

Peak level 49.6 %
Extraction speed 2.3 X
Track quality 99.9 %
Test CRC 513CF6B8
Copy CRC 513CF6B8
Accurately ripped (confidence 4) [D301A7E2] (AR v2)
Copy OK

Track 4

Filename E:\Various Artists - 100 Best 20th Century Classics (2009) [FLAC]\CD3\04 - Zofia Kilanowicz, Kraków Symphony Orchestra - Symphony No. 3- ''Symphony of Sorrowful Songs''- II. Lento e Largo, Tranquillissimo (Extract).wav

Pre-gap length 0:00:03.50

Peak level 70.3 %
Extraction speed 3.6 X
Track quality 100.0 %
Test CRC 8AA52065
Copy CRC 8AA52065
Accurately ripped (confidence 4) [CD414E44] (AR v2)
Copy OK

Track 5

Filename E:\Various Artists - 100 Best 20th Century Classics (2009) [FLAC]\CD3\05 - London Symphony Orchestra - Anaklasis.wav

Pre-gap length 0:00:03.74

Peak level 99.8 %
Extraction speed 4.0 X
Track quality 100.0 %
Test CRC B6D50656
Copy CRC B6D50656
Accurately ripped (confidence 4) [1BC16259] (AR v2)
Copy OK

Track 6

Filename E:\Various Artists - 100 Best 20th Century Classics (2009) [FLAC]\CD3\06 - City of Birmingham Symphony Orchestra - Symphony No. 8- II. Ballabile (Conclusion).wav

Pre-gap length 0:00:03.78

Peak level 98.5 %
Extraction speed 4.1 X
Track quality 100.0 %
Test CRC 26ECB817
Copy CRC 26ECB817
Accurately ripped (confidence 4) [CBF158A5] (AR v2)
Copy OK

Track 7

Filename E:\Various Artists - 100 Best 20th Century Classics (2009) [FLAC]\CD3\07 - Orchestre de Paris - Et Expecto Resurrectionem Mortuorum- III. Des Profondeurs de l'Abîme.wav

Pre-gap length 0:00:01.50

Peak level 74.9 %
Extraction speed 4.0 X
Track quality 100.0 %
Test CRC 4BD48E0F
Copy CRC 4BD48E0F
Accurately ripped (confidence 4) [3D3DA6B7] (AR v2)
Copy OK

Track 8

Filename E:\Various Artists - 100 Best 20th Century Classics (2009) [FLAC]\CD3\08 - City of Birmingham Symphony Orchestra - Drowned Out (Excerpt).wav

Pre-gap length 0:00:03.37

Peak level 98.8 %
Extraction speed 4.5 X
Track quality 100.0 %
Test CRC B51AEF1A
Copy CRC B51AEF1A
Accurately ripped (confidence 4) [432A0FD1] (AR v2)
Copy OK

Track 9

Filename E:\Various Artists - 100 Best 20th Century Classics (2009) [FLAC]\CD3\09 - Polish Radio National Symphony Orchestra - Symphony No. 1- I. Allegro Giusto.wav

Pre-gap length 0:00:03.53

Peak level 97.7 %
Extraction speed 4.7 X
Track quality 100.0 %
Test CRC EECCB092
Copy CRC EECCB092
Accurately ripped (confidence 4) [0C602466] (AR v2)
Copy OK

Track 10

Filename E:\Various Artists - 100 Best 20th Century Classics (2009) [FLAC]\CD3\10 - Julian Bream, Members of the City of Birmingham Symphony Orchestra - Guitar Concerto- I. Allegro.wav

Pre-gap length 0:00:03.60

Peak level 74.8 %
Extraction speed 5.1 X
Track quality 100.0 %
Test CRC 2D8F8D5D
Copy CRC 2D8F8D5D
Accurately ripped (confidence 4) [ABB4CEB7] (AR v2)
Copy OK

Track 11

Filename E:\Various Artists - 100 Best 20th Century Classics (2009) [FLAC]\CD3\11 - Michael Nyman - The Heart Asks Pleasure First , The Promise (The Piano).wav

Pre-gap length 0:00:04.45

Peak level 63.3 %
Extraction speed 4.8 X
Track quality 100.0 %
Test CRC 8B873AC8
Copy CRC 8B873AC8
Accurately ripped (confidence 4) [8138AB45] (AR v2)
Copy OK

Track 12

Filename E:\Various Artists - 100 Best 20th Century Classics (2009) [FLAC]\CD3\12 - London Sinfonietta - Rain Coming (1982).wav

Pre-gap length 0:00:03.72

Peak level 87.1 %
Extraction speed 5.6 X
Track quality 100.0 %
Test CRC 062E4B61
Copy CRC 062E4B61
Accurately ripped (confidence 4) [4EF74ED9] (AR v2)
Copy OK

Track 13

Filename E:\Various Artists - 100 Best 20th Century Classics (2009) [FLAC]\CD3\13 - Steven Isserlis, London Symphony Orchestra - The Protecting Veil- The Incarnation.wav

Pre-gap length 0:00:02.54

Peak level 100.0 %
Extraction speed 4.1 X
Track quality 99.9 %
Test CRC DFDF40D2
Copy CRC DFDF40D2
Accurately ripped (confidence 4) [735ABAC9] (AR v2)
Copy OK

Track 14

Filename E:\Various Artists - 100 Best 20th Century Classics (2009) [FLAC]\CD3\14 - Mstislav Rostropovich, Simon Carrington & Neil Percy, London Voices - The Canticle of the Sun (Extract).wav

Pre-gap length 0:00:04.14

Peak level 95.5 %
Extraction speed 4.7 X
Track quality 99.9 %
Test CRC 247FE5A3
Copy CRC 247FE5A3
Accurately ripped (confidence 4) [0523643A] (AR v2)
Copy OK

Track 15

Filename E:\Various Artists - 100 Best 20th Century Classics (2009) [FLAC]\CD3\15 - City of Birmingham Symphony Orchestra - Asyla - IV..wav

Pre-gap length 0:00:04.49

Peak level 100.0 %
Extraction speed 5.8 X
Track quality 100.0 %
Test CRC 512937BA
Copy CRC 512937BA
Accurately ripped (confidence 4) [2ECDC65A] (AR v2)
Copy OK

Track 16

Filename E:\Various Artists - 100 Best 20th Century Classics (2009) [FLAC]\CD3\16 - City of Birmingham Symphony Orchestra - Flourish With Fireworks.wav

Pre-gap length 0:00:01.42

Peak level 98.0 %
Extraction speed 5.8 X
Track quality 100.0 %
Test CRC 96E7BD1D
Copy CRC 96E7BD1D
Accurately ripped (confidence 4) [866B1E57] (AR v2)
Copy OK


All tracks accurately ripped

No errors occurred

End of status report

–– CUETools DB Plugin V2.1.6

[CTDB TOCID: MIsJXrvlTUfQSQvk_WCnhaeh90g-] found
Submit result: MIsJXrvlTUfQSQvk_WCnhaeh90g- has been confirmed
Track | CTDB Status
1 | (12/12) Accurately ripped
2 | (12/12) Accurately ripped
3 | (12/12) Accurately ripped
4 | (12/12) Accurately ripped
5 | (12/12) Accurately ripped
6 | (12/12) Accurately ripped
7 | (12/12) Accurately ripped
8 | (12/12) Accurately ripped
9 | (12/12) Accurately ripped
10 | (12/12) Accurately ripped
11 | (12/12) Accurately ripped
12 | (12/12) Accurately ripped
13 | (12/12) Accurately ripped
14 | (12/12) Accurately ripped
15 | (12/12) Accurately ripped
16 | (12/12) Accurately ripped


==== Log checksum 894EAEB0522CE7B7B60551A1155652178A3E3220A3EAE23B4563AE8FA9603397 ====

Exact Audio Copy V1.3 from 2. September 2016

EAC extraction logfile from 18. December 2016, 22:20

Various Artists / 100 Best 20th Century Classics

Used drive : TSSTcorpCDDVDW SH-222AB Adapter: 1 ID: 0

Read mode : Secure
Utilize accurate stream : Yes
Defeat audio cache : Yes
Make use of C2 pointers : No

Read offset correction : 6
Overread into Lead-In and Lead-Out : No
Fill up missing offset samples with silence : Yes
Delete leading and trailing silent blocks : No
Null samples used in CRC calculations : Yes
Used interface : Native Win32 interface for Win NT & 2000
Gap handling : Appended to previous track

Used output format : User Defined Encoder
Selected bitrate : 1024 kBit/s
Quality : High
Add ID3 tag : No
Command line compressor : C:\Program Files (x86)\Exact Audio Copy\Flac\flac.exe
Additional command line options : -8 -e -p -V -T "ARTIST=%artist%" -T "TITLE=%title%" -T "ALBUM=%albumtitle%" -T "DATE=%year%" -T "TRACKNUMBER=%tracknr%" -T "GENRE=%genre%" -T "PERFORMER=%albuminterpret%" -T "COMPOSER=%composer%" %haslyrics%–tag-from-file=LYRICS="%lyricsfile%"%haslyrics% -T "ALBUMARTIST=%albumartist%" -T "DISCNUMBER=%cdnumber%" -T "TOTALDISCS=%totalcds%" -T "TOTALTRACKS=%numtracks%" -T "COMMENT=%comment%" %source% -o %dest%


TOC of the extracted CD

Track | Start | Length | Start sector | End sector
––––––––––––––––––––––––––––-
1 | 0:00.00 | 4:18.26 | 0 | 19375
2 | 4:18.26 | 2:50.24 | 19376 | 32149
3 | 7:08.50 | 7:49.68 | 32150 | 67392
4 | 14:58.43 | 5:06.11 | 67393 | 90353
5 | 20:04.54 | 3:42.53 | 90354 | 107056
6 | 23:47.32 | 6:24.33 | 107057 | 135889
7 | 30:11.65 | 4:23.74 | 135890 | 155688
8 | 34:35.64 | 4:54.47 | 155689 | 177785
9 | 39:30.36 | 3:33.03 | 177786 | 193763
10 | 43:03.39 | 7:47.62 | 193764 | 228850
11 | 50:51.26 | 3:47.22 | 228851 | 245897
12 | 54:38.48 | 4:14.51 | 245898 | 264998
13 | 58:53.24 | 4:40.56 | 264999 | 286054
14 | 63:34.05 | 6:33.71 | 286055 | 315600
15 | 70:08.01 | 4:08.60 | 315601 | 334260
16 | 74:16.61 | 4:18.30 | 334261 | 353640


Track 1

Filename E:\Various Artists - 100 Best 20th Century Classics (2009) [FLAC]\CD4\01 - London Symphony Orchestra - Candide - Overture.wav

Pre-gap length 0:00:02.00

Peak level 81.9 %
Extraction speed 3.8 X
Track quality 100.0 %
Test CRC 2B830352
Copy CRC 2B830352
Cannot be verified as accurate (confidence 4) [BF56BE15], AccurateRip returned [D1681F09] (AR v2)
Copy OK

Track 2

Filename E:\Various Artists - 100 Best 20th Century Classics (2009) [FLAC]\CD4\02 - Ensemble Modern - A Set of Pieces for Theatre or Chamber Orchestra- No. 3 In the Night.wav

Pre-gap length 0:00:05.09

Peak level 56.5 %
Extraction speed 2.9 X
Track quality 99.9 %
Test CRC A3EA6F1A
Copy CRC A3EA6F1A
Cannot be verified as accurate (confidence 4) [9C8905F2], AccurateRip returned [A62611B8] (AR v2)
Copy OK

Track 3

Filename E:\Various Artists - 100 Best 20th Century Classics (2009) [FLAC]\CD4\03 - John Harle, Simon Haram, London Chamber Orchestra - Façades.wav

Pre-gap length 0:00:03.33

Peak level 52.9 %
Extraction speed 4.8 X
Track quality 100.0 %
Test CRC 563A8A0E
Copy CRC 563A8A0E
Cannot be verified as accurate (confidence 4) [D86C9B34], AccurateRip returned [2EA8F2C2] (AR v2)
Copy OK

Track 4

Filename E:\Various Artists - 100 Best 20th Century Classics (2009) [FLAC]\CD4\04 - Tasmin Little, New World Philharmonic - Schindler's List - Main Theme.wav

Pre-gap length 0:00:03.40

Peak level 48.1 %
Extraction speed 5.1 X
Track quality 100.0 %
Test CRC 53B9110B
Copy CRC 53B9110B
Cannot be verified as accurate (confidence 4) [375A6A0D], AccurateRip returned [9F4FF42A] (AR v2)
Copy OK

Track 5

Filename E:\Various Artists - 100 Best 20th Century Classics (2009) [FLAC]\CD4\05 - Mexico City Philharmonic Orchestra - Fanfare for the Common Man.wav

Pre-gap length 0:00:04.38

Peak level 93.2 %
Extraction speed 5.0 X
Track quality 100.0 %
Test CRC 3712A9F6
Copy CRC 3712A9F6
Cannot be verified as accurate (confidence 4) [DD0074B4], AccurateRip returned [6C3A8C64] (AR v2)
Copy OK

Track 6

Filename E:\Various Artists - 100 Best 20th Century Classics (2009) [FLAC]\CD4\06 - Philadelphia Orchestra - Adagio for Strings.wav

Pre-gap length 0:00:04.62

Peak level 56.0 %
Extraction speed 5.0 X
Track quality 99.9 %
Test CRC CCFBC033
Copy CRC CCFBC033
Cannot be verified as accurate (confidence 4) [875D7F3A], AccurateRip returned [0C8CC5CB] (AR v2)
Copy OK

Track 7

Filename E:\Various Artists - 100 Best 20th Century Classics (2009) [FLAC]\CD4\07 - Orchestra - My Heart Will Go On (Titanic).wav

Pre-gap length 0:00:04.02

Peak level 88.1 %
Extraction speed 5.9 X
Track quality 100.0 %
Test CRC D918BDB3
Copy CRC D918BDB3
Cannot be verified as accurate (confidence 4) [98F9238D], AccurateRip returned [CB067C51] (AR v2)
Copy OK

Track 8

Filename E:\Various Artists - 100 Best 20th Century Classics (2009) [FLAC]\CD4\08 - Colin Currie, Sam Walton - Nagoya Marimbas.wav

Pre-gap length 0:00:04.25

Peak level 46.6 %
Extraction speed 6.3 X
Track quality 100.0 %
Test CRC 039B6961
Copy CRC 039B6961
Cannot be verified as accurate (confidence 4) [5C134974], AccurateRip returned [08862638] (AR v2)
Copy OK

Track 9

Filename E:\Various Artists - 100 Best 20th Century Classics (2009) [FLAC]\CD4\09 - City of Birmingham Symphony Orchestra - Three Occasions- A Celebration of Some 100 x 150 Notes.wav

Pre-gap length 0:00:03.44

Peak level 99.5 %
Extraction speed 6.0 X
Track quality 100.0 %
Test CRC EAA8886B
Copy CRC EAA8886B
Cannot be verified as accurate (confidence 4) [6D405533], AccurateRip returned [0A554B30] (AR v2)
Copy OK

Track 10

Filename E:\Various Artists - 100 Best 20th Century Classics (2009) [FLAC]\CD4\10 - Ralph Kirshbaum, Scottish Chamber Orchestra - Cello Concerto- II. Andante Sostenuto.wav

Pre-gap length 0:00:03.81

Peak level 83.1 %
Extraction speed 6.9 X
Track quality 100.0 %
Test CRC DB7BDC5D
Copy CRC DB7BDC5D
Cannot be verified as accurate (confidence 4) [0052B960], AccurateRip returned [793565DD] (AR v2)
Copy OK

Track 11

Filename E:\Various Artists - 100 Best 20th Century Classics (2009) [FLAC]\CD4\11 - London Chamber Orchestra - Shaker Loops- IV. A Final Shaking.wav

Pre-gap length 0:00:04.44

Peak level 62.7 %
Extraction speed 6.6 X
Track quality 100.0 %
Test CRC 61049F35
Copy CRC 61049F35
Cannot be verified as accurate (confidence 4) [F3795EBD], AccurateRip returned [487521EC] (AR v2)
Copy OK

Track 12

Filename E:\Various Artists - 100 Best 20th Century Classics (2009) [FLAC]\CD4\12 - Saint Louis Symphony Orchestra - Rodeo- Hoe-Down.wav

Pre-gap length 0:00:03.69

Peak level 99.4 %
Extraction speed 6.9 X
Track quality 100.0 %
Test CRC EEC3D643
Copy CRC EEC3D643
Cannot be verified as accurate (confidence 4) [11FEC84E], AccurateRip returned [6EB34EA0] (AR v2)
Copy OK

Track 13

Filename E:\Various Artists - 100 Best 20th Century Classics (2009) [FLAC]\CD4\13 - Wayne Marshall, City of Birmingham Symphony Orchestra - Rhapsody in Blue (Opening).wav

Pre-gap length 0:00:01.84

Peak level 93.5 %
Extraction speed 7.1 X
Track quality 100.0 %
Test CRC 1540D1CB
Copy CRC 1540D1CB
Cannot be verified as accurate (confidence 4) [77F893A4], AccurateRip returned [0A59144E] (AR v2)
Copy OK

Track 14

Filename E:\Various Artists - 100 Best 20th Century Classics (2009) [FLAC]\CD4\14 - Ralph Grierson, Michael Tilson Thomas - Three Dances- Dance No. 1.wav

Pre-gap length 0:00:04.25

Peak level 58.0 %
Extraction speed 7.6 X
Track quality 100.0 %
Test CRC 440C33DB
Copy CRC 440C33DB
Cannot be verified as accurate (confidence 4) [6B41C4C2], AccurateRip returned [3C911B48] (AR v2)
Copy OK

Track 15

Filename E:\Various Artists - 100 Best 20th Century Classics (2009) [FLAC]\CD4\15 - Nikolaj Bloch, Sally Herbert - Any Other Name (American Beauty).wav

Pre-gap length 0:00:02.52

Peak level 46.6 %
Extraction speed 6.0 X
Track quality 99.9 %
Test CRC 5D000F92
Copy CRC 5D000F92
Cannot be verified as accurate (confidence 4) [7FC58C94], AccurateRip returned [4D400184] (AR v2)
Copy OK

Track 16

Filename E:\Various Artists - 100 Best 20th Century Classics (2009) [FLAC]\CD4\16 - City of Birmingham Symphony Orchestra - Short Ride in a Fast Machine.wav

Pre-gap length 0:00:03.56

Peak level 98.4 %
Extraction speed 6.1 X
Track quality 99.9 %
Test CRC 6DAC71C7
Copy CRC 6DAC71C7
Cannot be verified as accurate (confidence 4) [7FF1975E], AccurateRip returned [FA084F38] (AR v2)
Copy OK


No tracks could be verified as accurate
You may have a different pressing from the one(s) in the database

No errors occurred

End of status report

–– CUETools DB Plugin V2.1.6

[CTDB TOCID: EZdqyhJbj0DnBQYG6Q_OCFWgR7s-] found
Submit result: EZdqyhJbj0DnBQYG6Q_OCFWgR7s- has been confirmed
Track | CTDB Status
1 | (21/21) Accurately ripped
2 | (21/21) Accurately ripped
3 | (21/21) Accurately ripped
4 | (21/21) Accurately ripped
5 | (21/21) Accurately ripped
6 | (21/21) Accurately ripped
7 | (21/21) Accurately ripped
8 | (21/21) Accurately ripped
9 | (21/21) Accurately ripped
10 | (21/21) Accurately ripped
11 | (21/21) Accurately ripped
12 | (21/21) Accurately ripped
13 | (21/21) Accurately ripped
14 | (21/21) Accurately ripped
15 | (21/21) Accurately ripped
16 | (21/21) Accurately ripped


==== Log checksum 03ECDDEB54DB402A099F69C69CFBAE56CAFB856207235AEFD30ADAAD073CB746 ====

Exact Audio Copy V1.3 from 2. September 2016

EAC extraction logfile from 19. December 2016, 8:11

Various Artists / 100 Best 20th Century Classics

Used drive : TSSTcorpCDDVDW SH-222AB Adapter: 1 ID: 0

Read mode : Secure
Utilize accurate stream : Yes
Defeat audio cache : Yes
Make use of C2 pointers : No

Read offset correction : 6
Overread into Lead-In and Lead-Out : No
Fill up missing offset samples with silence : Yes
Delete leading and trailing silent blocks : No
Null samples used in CRC calculations : Yes
Used interface : Native Win32 interface for Win NT & 2000
Gap handling : Appended to previous track

Used output format : User Defined Encoder
Selected bitrate : 1024 kBit/s
Quality : High
Add ID3 tag : No
Command line compressor : C:\Program Files (x86)\Exact Audio Copy\Flac\flac.exe
Additional command line options : -8 -e -p -V -T "ARTIST=%artist%" -T "TITLE=%title%" -T "ALBUM=%albumtitle%" -T "DATE=%year%" -T "TRACKNUMBER=%tracknr%" -T "GENRE=%genre%" -T "PERFORMER=%albuminterpret%" -T "COMPOSER=%composer%" %haslyrics%–tag-from-file=LYRICS="%lyricsfile%"%haslyrics% -T "ALBUMARTIST=%albumartist%" -T "DISCNUMBER=%cdnumber%" -T "TOTALDISCS=%totalcds%" -T "TOTALTRACKS=%numtracks%" -T "COMMENT=%comment%" %source% -o %dest%


TOC of the extracted CD

Track | Start | Length | Start sector | End sector
––––––––––––––––––––––––––––-
1 | 0:00.00 | 4:07.37 | 0 | 18561
2 | 4:07.37 | 1:53.39 | 18562 | 27075
3 | 6:01.01 | 5:11.73 | 27076 | 50473
4 | 11:12.74 | 3:16.33 | 50474 | 65206
5 | 14:29.32 | 3:17.25 | 65207 | 80006
6 | 17:46.57 | 2:49.16 | 80007 | 92697
7 | 20:35.73 | 8:22.24 | 92698 | 130371
8 | 28:58.22 | 4:57.40 | 130372 | 152686
9 | 33:55.62 | 3:09.23 | 152687 | 166884
10 | 37:05.10 | 2:16.17 | 166885 | 177101
11 | 39:21.27 | 1:34.60 | 177102 | 184211
12 | 40:56.12 | 3:13.69 | 184212 | 198755
13 | 44:10.06 | 7:28.35 | 198756 | 232390
14 | 51:38.41 | 2:30.49 | 232391 | 243689
15 | 54:09.15 | 2:49.22 | 243690 | 256386
16 | 56:58.37 | 6:03.29 | 256387 | 283640


Track 1

Filename E:\Various Artists - 100 Best 20th Century Classics (2009) [FLAC]\CD5\01 - Moura Lympany - Ritual Fire Dance (El Amor Brujo).wav

Pre-gap length 0:00:02.00

Peak level 81.0 %
Extraction speed 2.5 X
Track quality 100.0 %
Test CRC 7D675608
Copy CRC 7D675608
Accurately ripped (confidence 5) [7D581F5D] (AR v2)
Copy OK

Track 2

Filename E:\Various Artists - 100 Best 20th Century Classics (2009) [FLAC]\CD5\02 - John Ogdon - Two Poèmes, Op. 63- II- Étrangeté.wav

Pre-gap length 0:00:03.70

Peak level 54.5 %
Extraction speed 1.5 X
Track quality 99.9 %
Test CRC 5A04FF50
Copy CRC 5A04FF50
Accurately ripped (confidence 5) [E94DD167] (AR v2)
Copy OK

Track 3

Filename E:\Various Artists - 100 Best 20th Century Classics (2009) [FLAC]\CD5\03 - Cécile Ousset - Estampes- II. Pagodes.wav

Pre-gap length 0:00:05.09

Peak level 98.0 %
Extraction speed 3.1 X
Track quality 100.0 %
Test CRC 9B8C99F8
Copy CRC 9B8C99F8
Accurately ripped (confidence 5) [32C81649] (AR v2)
Copy OK

Track 4

Filename E:\Various Artists - 100 Best 20th Century Classics (2009) [FLAC]\CD5\04 - Tasmin Little - Romance (The Gadfly).wav

Pre-gap length 0:00:02.77

Peak level 48.8 %
Extraction speed 3.1 X
Track quality 100.0 %
Test CRC 4F39D7A9
Copy CRC 4F39D7A9
Accurately ripped (confidence 5) [D0351A1C] (AR v2)
Copy OK

Track 5

Filename E:\Various Artists - 100 Best 20th Century Classics (2009) [FLAC]\CD5\05 - Maxim Vengerov - Liebesfreud.wav

Pre-gap length 0:00:04.37

Peak level 72.5 %
Extraction speed 3.3 X
Track quality 100.0 %
Test CRC EF99E06C
Copy CRC EF99E06C
Accurately ripped (confidence 5) [B9A247AB] (AR v2)
Copy OK

Track 6

Filename E:\Various Artists - 100 Best 20th Century Classics (2009) [FLAC]\CD5\06 - Yehudi Menuhin, Nell Gotkovsky - 44 Duos- No. 28- Sorrow.wav

Pre-gap length 0:00:01.04

Peak level 44.2 %
Extraction speed 3.3 X
Track quality 100.0 %
Test CRC F3E235A3
Copy CRC F3E235A3
Accurately ripped (confidence 5) [6D4AAD3B] (AR v2)
Copy OK

Track 7

Filename E:\Various Artists - 100 Best 20th Century Classics (2009) [FLAC]\CD5\07 - Tasmin Little, Martin Roscoe - Spiegel im Spiegel.wav

Pre-gap length 0:00:04.48

Peak level 19.9 %
Extraction speed 3.6 X
Track quality 99.9 %
Test CRC 822C17D3
Copy CRC 822C17D3
Accurately ripped (confidence 5) [3BEA4822] (AR v2)
Copy OK

Track 8

Filename E:\Various Artists - 100 Best 20th Century Classics (2009) [FLAC]\CD5\08 - Manuel Barrueco - Chôros No. 1 in E Minor.wav

Pre-gap length 0:00:03.30

Peak level 58.4 %
Extraction speed 4.2 X
Track quality 100.0 %
Test CRC DB608553
Copy CRC DB608553
Accurately ripped (confidence 5) [D7BBC870] (AR v2)
Copy OK

Track 9

Filename E:\Various Artists - 100 Best 20th Century Classics (2009) [FLAC]\CD5\09 - Julian Bream - All in Twilight- I. ♪ = 80.wav

Pre-gap length 0:00:02.93

Peak level 36.7 %
Extraction speed 4.1 X
Track quality 100.0 %
Test CRC 9A82CA6E
Copy CRC 9A82CA6E
Accurately ripped (confidence 5) [9AA70C2C] (AR v2)
Copy OK

Track 10

Filename E:\Various Artists - 100 Best 20th Century Classics (2009) [FLAC]\CD5\10 - Sharon Isbin - Zapateado.wav

Pre-gap length 0:00:03.48

Peak level 57.4 %
Extraction speed 4.0 X
Track quality 100.0 %
Test CRC DBA14615
Copy CRC DBA14615
Accurately ripped (confidence 5) [546EFCEE] (AR v2)
Copy OK

Track 11

Filename E:\Various Artists - 100 Best 20th Century Classics (2009) [FLAC]\CD5\11 - Artemis Quartet - String Quartet No. 1 'Metamorphoses Nocturnes'- I. Allegro Grazioso.wav

Pre-gap length 0:00:03.88

Peak level 81.6 %
Extraction speed 3.6 X
Track quality 100.0 %
Test CRC 5A77E112
Copy CRC 5A77E112
Accurately ripped (confidence 5) [26A99A52] (AR v2)
Copy OK

Track 12

Filename E:\Various Artists - 100 Best 20th Century Classics (2009) [FLAC]\CD5\12 - Alban Berg Quartett - Lyric Suite- III. Allegro Misterioso.wav

Pre-gap length 0:00:03.25

Peak level 99.6 %
Extraction speed 4.4 X
Track quality 100.0 %
Test CRC F335AD19
Copy CRC F335AD19
Accurately ripped (confidence 5) [8EB59BAF] (AR v2)
Copy OK

Track 13

Filename E:\Various Artists - 100 Best 20th Century Classics (2009) [FLAC]\CD5\13 - Artemis Quartet, Thomas Kakuska, Valentin Erben - Verklärte Nacht (Extract).wav

Pre-gap length 0:00:02.22

Peak level 98.8 %
Extraction speed 5.1 X
Track quality 100.0 %
Test CRC F4292B6A
Copy CRC F4292B6A
Accurately ripped (confidence 5) [33D4EF56] (AR v2)
Copy OK

Track 14

Filename E:\Various Artists - 100 Best 20th Century Classics (2009) [FLAC]\CD5\14 - Christopher Poppen, Manuel Fischer-Dieskau, Wolfgang Meyer, Yvonne Loriod - Quatuor Pour la Fin du Temps- 1. Liturgie de Cristal.wav

Pre-gap length 0:00:04.81

Peak level 38.6 %
Extraction speed 4.6 X
Track quality 100.0 %
Test CRC 0F5DAB34
Copy CRC 0F5DAB34
Accurately ripped (confidence 5) [8EB561EB] (AR v2)
Copy OK

Track 15

Filename E:\Various Artists - 100 Best 20th Century Classics (2009) [FLAC]\CD5\15 - Gidon Kremer, Yuri Bashmet, Mstislav Rostropovich - Minuet.wav

Pre-gap length 0:00:04.41

Peak level 65.6 %
Extraction speed 2.6 X
Track quality 99.9 %
Test CRC A160960D
Copy CRC A160960D
Accurately ripped (confidence 5) [AFF12DCE] (AR v2)
Copy OK

Track 16

Filename E:\Various Artists - 100 Best 20th Century Classics (2009) [FLAC]\CD5\16 - Belcea Quartet - String Quartet in F- Assez Vif (Très Rythmé).wav

Pre-gap length 0:00:03.86

Peak level 86.8 %
Extraction speed 5.4 X
Track quality 100.0 %
Test CRC 28D793E3
Copy CRC 28D793E3
Accurately ripped (confidence 5) [C19CF2F4] (AR v2)
Copy OK


All tracks accurately ripped

No errors occurred

End of status report

–– CUETools DB Plugin V2.1.6

[CTDB TOCID: PxmrYosSGkLTF_OJTx2S3bp3a60-] found
Submit result: PxmrYosSGkLTF_OJTx2S3bp3a60- has been confirmed
Track | CTDB Status
1 | (22/22) Accurately ripped
2 | (22/22) Accurately ripped
3 | (22/22) Accurately ripped
4 | (22/22) Accurately ripped
5 | (22/22) Accurately ripped
6 | (22/22) Accurately ripped
7 | (22/22) Accurately ripped
8 | (21/22) Accurately ripped
9 | (22/22) Accurately ripped
10 | (22/22) Accurately ripped
11 | (22/22) Accurately ripped
12 | (22/22) Accurately ripped
13 | (22/22) Accurately ripped
14 | (22/22) Accurately ripped
15 | (22/22) Accurately ripped
16 | (22/22) Accurately ripped


==== Log checksum F5F3D8DBD1D4A36A5CD87C6E7E5860312F733046257B1773C1ED78916F101C79 ====

Exact Audio Copy V1.3 from 2. September 2016

EAC extraction logfile from 19. December 2016, 19:01

Various Artists / 100 Best 20th Century Classics

Used drive : TSSTcorpCDDVDW SH-222AB Adapter: 1 ID: 0

Read mode : Secure
Utilize accurate stream : Yes
Defeat audio cache : Yes
Make use of C2 pointers : No

Read offset correction : 6
Overread into Lead-In and Lead-Out : No
Fill up missing offset samples with silence : Yes
Delete leading and trailing silent blocks : No
Null samples used in CRC calculations : Yes
Used interface : Native Win32 interface for Win NT & 2000
Gap handling : Appended to previous track

Used output format : User Defined Encoder
Selected bitrate : 1024 kBit/s
Quality : High
Add ID3 tag : No
Command line compressor : C:\Program Files (x86)\Exact Audio Copy\Flac\flac.exe
Additional command line options : -8 -e -p -V -T "ARTIST=%artist%" -T "TITLE=%title%" -T "ALBUM=%albumtitle%" -T "DATE=%year%" -T "TRACKNUMBER=%tracknr%" -T "GENRE=%genre%" -T "PERFORMER=%albuminterpret%" -T "COMPOSER=%composer%" %haslyrics%–tag-from-file=LYRICS="%lyricsfile%"%haslyrics% -T "ALBUMARTIST=%albumartist%" -T "DISCNUMBER=%cdnumber%" -T "TOTALDISCS=%totalcds%" -T "TOTALTRACKS=%numtracks%" -T "COMMENT=%comment%" %source% -o %dest%


TOC of the extracted CD

Track | Start | Length | Start sector | End sector
––––––––––––––––––––––––––––-
1 | 0:00.00 | 2:47.65 | 0 | 12589
2 | 2:47.65 | 5:07.04 | 12590 | 35618
3 | 7:54.69 | 3:04.43 | 35619 | 49461
4 | 10:59.37 | 2:52.01 | 49462 | 62362
5 | 13:51.38 | 3:39.44 | 62363 | 78831
6 | 17:31.07 | 6:12.44 | 78832 | 106775
7 | 23:43.51 | 3:35.65 | 106776 | 122965
8 | 27:19.41 | 2:50.58 | 122966 | 135773
9 | 30:10.24 | 5:22.44 | 135774 | 159967
10 | 35:32.68 | 2:25.12 | 159968 | 170854
11 | 37:58.05 | 1:45.38 | 170855 | 178767
12 | 39:43.43 | 6:42.73 | 178768 | 208990
13 | 46:26.41 | 5:14.70 | 208991 | 232610
14 | 51:41.36 | 6:08.45 | 232611 | 260255
15 | 57:50.06 | 4:21.15 | 260256 | 279845
16 | 62:11.21 | 2:08.26 | 279846 | 289471
17 | 64:19.47 | 5:38.12 | 289472 | 314833
18 | 69:57.59 | 4:12.63 | 314834 | 333796
19 | 76:42.47 | 2:19.51 | 345197 | 355672


Track 1

Filename E:\Various Artists - 100 Best 20th Century Classics (2009) [FLAC]\CD6\01 - Philharmonia Chorus & Orchestra - O Fortuna (Carmina Burana).wav

Pre-gap length 0:00:02.00

Peak level 88.1 %
Extraction speed 1.8 X
Track quality 100.0 %
Test CRC 54747740
Copy CRC 54747740
Accurately ripped (confidence 5) [D54BD15D] (AR v2)
Copy OK

Track 2

Filename E:\Various Artists - 100 Best 20th Century Classics (2009) [FLAC]\CD6\02 - Estonian Philharmonic Chamber Choir, Christopher Bowers-Broadbent, Ene Salumäe, Tõnu Kaljuste - Beatus Petronius.wav

Pre-gap length 0:00:02.74

Peak level 22.5 %
Extraction speed 2.0 X
Track quality 99.9 %
Test CRC 12DC13E3
Copy CRC 12DC13E3
Accurately ripped (confidence 5) [4DA94E96] (AR v2)
Copy OK

Track 3

Filename E:\Various Artists - 100 Best 20th Century Classics (2009) [FLAC]\CD6\03 - James Bowman, Crispian Steele Perkins, City of London Sinfonia - Nunc Dimittis.wav

Pre-gap length 0:00:04.72

Peak level 47.2 %
Extraction speed 1.9 X
Track quality 99.9 %
Test CRC 08CB79F0
Copy CRC 08CB79F0
Accurately ripped (confidence 5) [4ED65743] (AR v2)
Copy OK

Track 4

Filename E:\Various Artists - 100 Best 20th Century Classics (2009) [FLAC]\CD6\04 - Jane Gilchrist, Fergus Thirlwell, Simon Gibson, Slovak Radio Symphony Orchestra - Pie Jesu (Requiem).wav

Pre-gap length 0:00:02.94

Peak level 52.5 %
Extraction speed 2.2 X
Track quality 100.0 %
Test CRC F23D862E
Copy CRC F23D862E
Accurately ripped (confidence 5) [3A6886B3] (AR v2)
Copy OK

Track 5

Filename E:\Various Artists - 100 Best 20th Century Classics (2009) [FLAC]\CD6\05 - National Youth Choir of Britain, Paul Beniston, London Philharmonic Orchestra - Agnus Dei (The Armed Man- A Mass for Peace).wav

Pre-gap length 0:00:02.28

Peak level 70.7 %
Extraction speed 2.4 X
Track quality 100.0 %
Test CRC 83E54F39
Copy CRC 83E54F39
Accurately ripped (confidence 5) [596E3E8A] (AR v2)
Copy OK

Track 6

Filename E:\Various Artists - 100 Best 20th Century Classics (2009) [FLAC]\CD6\06 - Winchester Cathedral Choir - Song for Athene.wav

Pre-gap length 0:00:03.45

Peak level 99.8 %
Extraction speed 2.8 X
Track quality 100.0 %
Test CRC 023A61E6
Copy CRC 023A61E6
Accurately ripped (confidence 5) [560494A5] (AR v2)
Copy OK

Track 7

Filename E:\Various Artists - 100 Best 20th Century Classics (2009) [FLAC]\CD6\07 - Edward Saklatvala, Choir of King's College (Cambridge), City of London Sinfonia - Pie Jesu (Requiem).wav

Pre-gap length 0:00:04.41

Peak level 55.2 %
Extraction speed 2.8 X
Track quality 100.0 %
Test CRC 7084F0D3
Copy CRC 7084F0D3
Accurately ripped (confidence 5) [61904DAB] (AR v2)
Copy OK

Track 8

Filename E:\Various Artists - 100 Best 20th Century Classics (2009) [FLAC]\CD6\08 - Kate Royal, London Voices, Boys of Magdalen College Choir, Academy of St. Martin in the Fields - Ecce Cor Meum- II. Gratia (Extract).wav

Pre-gap length 0:00:03.32

Peak level 74.8 %
Extraction speed 2.7 X
Track quality 100.0 %
Test CRC 147A4AF1
Copy CRC 147A4AF1
Accurately ripped (confidence 5) [882B7D3A] (AR v2)
Copy OK

Track 9

Filename E:\Various Artists - 100 Best 20th Century Classics (2009) [FLAC]\CD6\09 - Natalie Dessay, Berlin Symphony Orchestra - Vocalise.wav

Pre-gap length 0:00:03.17

Peak level 99.6 %
Extraction speed 3.1 X
Track quality 100.0 %
Test CRC 419DF8DE
Copy CRC 419DF8DE
Accurately ripped (confidence 5) [7C7F6A92] (AR v2)
Copy OK

Track 10

Filename E:\Various Artists - 100 Best 20th Century Classics (2009) [FLAC]\CD6\10 - Ernst Theo Richter, Suzanne Mentzer, Orchestre de l'Opéra de Lyon - Wie Ist ihr Schlaf, Madame (Arlecchino).wav

Pre-gap length 0:00:03.88

Peak level 73.8 %
Extraction speed 2.9 X
Track quality 100.0 %
Test CRC 3E02D8E0
Copy CRC 3E02D8E0
Accurately ripped (confidence 5) [041373EA] (AR v2)
Copy OK

Track 11

Filename E:\Various Artists - 100 Best 20th Century Classics (2009) [FLAC]\CD6\11 - Linda Hirst, London Sinfonietta - Ballo.wav

Pre-gap length 0:00:04.21

Peak level 37.7 %
Extraction speed 2.7 X
Track quality 100.0 %
Test CRC D5A2DFC0
Copy CRC D5A2DFC0
Accurately ripped (confidence 5) [9A0F3EAF] (AR v2)
Copy OK

Track 12

Filename E:\Various Artists - 100 Best 20th Century Classics (2009) [FLAC]\CD6\12 - Arleen Augér, English Chamber Orchestra - Baïlèro (Chants d'Auvergne).wav

Pre-gap length 0:00:03.21

Peak level 47.9 %
Extraction speed 3.5 X
Track quality 100.0 %
Test CRC 71E0B215
Copy CRC 71E0B215
Accurately ripped (confidence 5) [DEB52E8E] (AR v2)
Copy OK

Track 13

Filename E:\Various Artists - 100 Best 20th Century Classics (2009) [FLAC]\CD6\13 - Nina Stemme, Orchestra of the Royal Opera House (Covent Garden) - Vier Letzte Lieder- III. Beim Schlafengehen.wav

Pre-gap length 0:00:02.30

Peak level 99.9 %
Extraction speed 3.6 X
Track quality 100.0 %
Test CRC 3ED5A587
Copy CRC 3ED5A587
Accurately ripped (confidence 5) [001827D8] (AR v2)
Copy OK

Track 14

Filename E:\Various Artists - 100 Best 20th Century Classics (2009) [FLAC]\CD6\14 - Barbara Hendricks, Cellos of the Royal Philharmonic Orchestra - Bachianas Brasileiras No. 5- I. Aria (Cantilena)- Adagio.wav

Pre-gap length 0:00:02.48

Peak level 99.8 %
Extraction speed 3.8 X
Track quality 100.0 %
Test CRC B8017269
Copy CRC B8017269
Accurately ripped (confidence 5) [214F0E7E] (AR v2)
Copy OK

Track 15

Filename E:\Various Artists - 100 Best 20th Century Classics (2009) [FLAC]\CD6\15 - Joséphine Nendick, Barry McDaniel, Louis Devos, BBC Symphony Orchestra & Chorus - Le Soleil des Eaux- La Sorgue.wav

Pre-gap length 0:00:03.76

Peak level 60.8 %
Extraction speed 3.7 X
Track quality 100.0 %
Test CRC 330A993D
Copy CRC 330A993D
Accurately ripped (confidence 5) [354B5CCF] (AR v2)
Copy OK

Track 16

Filename E:\Various Artists - 100 Best 20th Century Classics (2009) [FLAC]\CD6\16 - Angela Gheorghiu, London Symphony Orchestra - O Mio Babbino Caro (Gianni Schicchi).wav

Pre-gap length 0:00:03.68

Peak level 70.2 %
Extraction speed 3.3 X
Track quality 100.0 %
Test CRC C88983A5
Copy CRC C88983A5
Accurately ripped (confidence 5) [FBF301BA] (AR v2)
Copy OK

Track 17

Filename E:\Various Artists - 100 Best 20th Century Classics (2009) [FLAC]\CD6\17 - Kiri Te Kanawa, Philharmonia Orchestra - Glück, das Mir Verblieb (Die Tote Stadt).wav

Pre-gap length 0:00:03.90

Peak level 98.6 %
Extraction speed 4.0 X
Track quality 100.0 %
Test CRC 7642163F
Copy CRC 7642163F
Accurately ripped (confidence 5) [9F7F0F58] (AR v2)
Copy OK

Track 18

Filename E:\Various Artists - 100 Best 20th Century Classics (2009) [FLAC]\CD6\18 - José Carreras, Chœur de l'Opéra du Rhin, Orchestre Philharmonique de Strasbourg - Nessun Dorma (Turandot).wav

Pre-gap length 0:00:03.32

Peak level 74.7 %
Extraction speed 3.9 X
Track quality 100.0 %
Test CRC 887C1F23
Copy CRC 887C1F23
Accurately ripped (confidence 5) [F6BFA7F9] (AR v2)
Copy OK


All tracks accurately ripped

No errors occurred

End of status report

–– CUETools DB Plugin V2.1.6

[CTDB TOCID: NYjHHvSvljCdGhT0YSw4vdfT7_s-] found
Submit result: NYjHHvSvljCdGhT0YSw4vdfT7_s- has been confirmed
Track | CTDB Status
1 | (11/11) Accurately ripped
2 | (11/11) Accurately ripped
3 | (11/11) Accurately ripped
4 | (11/11) Accurately ripped
5 | (11/11) Accurately ripped
6 | (11/11) Accurately ripped
7 | (11/11) Accurately ripped
8 | (11/11) Accurately ripped
9 | (11/11) Accurately ripped
10 | (11/11) Accurately ripped
11 | (11/11) Accurately ripped
12 | (11/11) Accurately ripped
13 | (11/11) Accurately ripped
14 | (11/11) Accurately ripped
15 | (11/11) Accurately ripped
16 | (11/11) Accurately ripped
17 | (11/11) Accurately ripped
18 | (11/11) Accurately ripped


==== Log checksum 722ECBA34E815544F381BA381E6B01F87DD1A18D523F951F155409C92BC97663 ====

Thanks to the Original ripper JacquesDirac !