Subcategories
Tags
Language
Tags

VA - 1977: The Spirit of Punk (2007)

Posted By: delpotro
VA - 1977: The Spirit of Punk (2007)

VA - 1977: The Spirit of Punk (2007)
EAC Rip | FLAC (tracks+log+.cue) | 02:32:57 | 1 Gb
Punl Rock | Label: Virgin Records, EMI

This double CD collection covers a good cross-section of the punk and even not quite so punk (it being a 'broad church') classics. The Clash, Sex Pistols, Ramones, Blondie, Iggy Pop and many others.
Tracklist:
Disc 1
1. The Clash – 1977
2. Sex Pistols – Anarchy In The UK
3. The Damned – New Rose
4. The Adverts – Gary Gilmore's Eyes
5. The Only Ones – Another Girl Another Planet
6. Iggy Pop – Lust For Life
7. The Stranglers – No More Heroes
8. The Jam – In The City
9. Buzzcocks – Orgasm Addict
10. Sham 69 – Borstal Breakout
11. Eddie And The Hot Rods – Do Anything You Wanna Do
12. Ian Dury And The Blockheads – Sex & Drugs & Rock & Roll
13. Wreckless Eric – Whole Wide World
14. Talking Heads – Psycho Killer (Live)
15. Patti Smith – Gloria
16. Blondie – Rip Her To Shreds
17. The Saints – This Perfect Day
18. Ramones – Blitzkreig Bop (Live)
19. X-Ray Spex – Oh Bondage Up Yours!
20. Generation X – Your Generation
21. The Stranglers – (Get A) Grip (On Yourself)
22. The Skids – The Saints Are Coming
23. The Saints – (I'm) Stranded
24. Chelsea – Right To Work
25. Buzzcocks – Ever Fallen In Love (With Someone You Shouldn't've)

Disc 2
1. Sex Pistols – God Save The Queen
2. Siouxsie & The Banshees – Hong Kong Garden
3. Buzzcocks – What Do I Get?
4. The Undertones – Teenage Kicks
5. Rezillos – Top Of The Pops
6. Generation X – Ready Steady Go
7. The Clash – Tommy Gun
8. The Ruts – Babylon's Burning
9. The Skids – Into The Valley
10. The Members – Sound Of The Suburbs
11. Magazine – Shot By Both Sides
12. Public Image Limited – Public Image
13. Penetration – Don't Dictate
14. Stiff Little Fingers – Alternative Ulster
15. 999 – Homicide
16. The Vibrators – Automatic Lover
17. UK Subs – Stranglehold
18. Bow Wow Wow – C30 C60 C90 Go
19. Adam And The Ants – Deutscher Girls
20. Wire – I Am The Fly
21. Devo – Jocko Homo
22. The Motors – Dancing The Night Away
23. Tom Robinson Band – 2-4-6-8 Motorway
24. Dr. Feelgood – Roxette
25. John Cooper Clarke – Twat

Exact Audio Copy V1.3 from 2. September 2016

EAC extraction logfile from 3. November 2016, 5:12

Various / 1977 - The Spirit of Punk

Used drive : hp DVD-RAM GHC0N Adapter: 1 ID: 0

Read mode : Secure
Utilize accurate stream : Yes
Defeat audio cache : Yes
Make use of C2 pointers : No

Read offset correction : 6
Overread into Lead-In and Lead-Out : No
Fill up missing offset samples with silence : Yes
Delete leading and trailing silent blocks : No
Null samples used in CRC calculations : Yes
Used interface : Native Win32 interface for Win NT & 2000
Gap handling : Appended to previous track

Used output format : User Defined Encoder
Selected bitrate : 1024 kBit/s
Quality : High
Add ID3 tag : No
Command line compressor : C:\Program Files (x86)\Exact Audio Copy\Flac\flac.exe
Additional command line options : -8 -V -T "ARTIST=%artist%" -T "TITLE=%title%" -T "ALBUM=%albumtitle%" -T "DATE=%year%" -T "TRACKNUMBER=%tracknr%" -T "GENRE=%genre%" -T "PERFORMER=%albuminterpret%" -T "COMPOSER=%composer%" %haslyrics%–tag-from-file=LYRICS="%lyricsfile%"%haslyrics% -T "ALBUMARTIST=%albumartist%" -T "DISCNUMBER=%cdnumber%" -T "TOTALDISCS=%totalcds%" -T "TOTALTRACKS=%numtracks%" -T "COMMENT=%comment%" %source% -o %dest%


TOC of the extracted CD

Track | Start | Length | Start sector | End sector
––––––––––––––––––––––––––––-
1 | 0:00.00 | 1:41.63 | 0 | 7637
2 | 1:41.63 | 3:31.70 | 7638 | 23532
3 | 5:13.58 | 2:42.03 | 23533 | 35685
4 | 7:55.61 | 2:19.15 | 35686 | 46125
5 | 10:15.01 | 3:00.26 | 46126 | 59651
6 | 13:15.27 | 5:10.22 | 59652 | 82923
7 | 18:25.49 | 2:56.03 | 82924 | 96126
8 | 21:21.52 | 2:18.42 | 96127 | 106518
9 | 23:40.19 | 2:01.26 | 106519 | 115619
10 | 25:41.45 | 2:09.28 | 115620 | 125322
11 | 27:50.73 | 4:02.42 | 125323 | 143514
12 | 31:53.40 | 3:10.44 | 143515 | 157808
13 | 35:04.09 | 2:48.20 | 157809 | 170428
14 | 37:52.29 | 4:25.43 | 170429 | 190346
15 | 42:17.72 | 5:52.09 | 190347 | 216755
16 | 48:10.06 | 3:19.69 | 216756 | 231749
17 | 51:30.00 | 2:09.67 | 231750 | 241491
18 | 53:39.67 | 1:39.49 | 241492 | 248965
19 | 55:19.41 | 2:48.45 | 248966 | 261610
20 | 58:08.11 | 3:14.23 | 261611 | 276183
21 | 61:22.34 | 3:59.61 | 276184 | 294169
22 | 65:22.20 | 2:41.10 | 294170 | 306254
23 | 68:03.30 | 3:31.35 | 306255 | 322114
24 | 71:34.65 | 2:37.00 | 322115 | 333889
25 | 74:11.65 | 2:41.18 | 333890 | 345982


Track 1

Filename C:\Users\S0NiC\Desktop\VA - 1977 - The Spirit of Punk (2007)\CD1\01 - The Clash - 1977.wav

Pre-gap length 0:00:02.00

Peak level 100.0 %
Extraction speed 1.5 X
Track quality 100.0 %
Test CRC AAB3D0B0
Copy CRC AAB3D0B0
Accurately ripped (confidence 9) [1F294305] (AR v2)
Copy OK

Track 2

Filename C:\Users\S0NiC\Desktop\VA - 1977 - The Spirit of Punk (2007)\CD1\02 - Sex Pistols - Anarchy in the UK.wav

Pre-gap length 0:00:00.90

Peak level 77.6 %
Extraction speed 2.0 X
Track quality 100.0 %
Test CRC 78BB3FDB
Copy CRC 78BB3FDB
Accurately ripped (confidence 9) [E5E24441] (AR v2)
Copy OK

Track 3

Filename C:\Users\S0NiC\Desktop\VA - 1977 - The Spirit of Punk (2007)\CD1\03 - The Damned - New Rose.wav

Pre-gap length 0:00:00.90

Peak level 100.0 %
Extraction speed 2.0 X
Track quality 100.0 %
Test CRC AED765A3
Copy CRC AED765A3
Accurately ripped (confidence 9) [D9F122D9] (AR v2)
Copy OK

Track 4

Filename C:\Users\S0NiC\Desktop\VA - 1977 - The Spirit of Punk (2007)\CD1\04 - The Adverts - Gary Gilmore's Eyes.wav

Pre-gap length 0:00:00.77

Peak level 99.3 %
Extraction speed 2.1 X
Track quality 100.0 %
Test CRC 657D4D5D
Copy CRC 657D4D5D
Accurately ripped (confidence 9) [91DECB1D] (AR v2)
Copy OK

Track 5

Filename C:\Users\S0NiC\Desktop\VA - 1977 - The Spirit of Punk (2007)\CD1\05 - The Only Ones - Another Girl Another Planet.wav

Pre-gap length 0:00:00.77

Peak level 98.0 %
Extraction speed 2.3 X
Track quality 100.0 %
Test CRC AC68E216
Copy CRC AC68E216
Accurately ripped (confidence 9) [7572041F] (AR v2)
Copy OK

Track 6

Filename C:\Users\S0NiC\Desktop\VA - 1977 - The Spirit of Punk (2007)\CD1\06 - Iggy Pop - Lust for Life.wav

Pre-gap length 0:00:00.77

Peak level 98.0 %
Extraction speed 2.6 X
Track quality 100.0 %
Test CRC 85D28F0B
Copy CRC 85D28F0B
Accurately ripped (confidence 9) [3698BCDE] (AR v2)
Copy OK

Track 7

Filename C:\Users\S0NiC\Desktop\VA - 1977 - The Spirit of Punk (2007)\CD1\07 - The Stranglers - No More Heroes.wav

Pre-gap length 0:00:00.77

Peak level 89.1 %
Extraction speed 2.6 X
Track quality 100.0 %
Test CRC DC3A020E
Copy CRC DC3A020E
Accurately ripped (confidence 9) [18B6B0FB] (AR v2)
Copy OK

Track 8

Filename C:\Users\S0NiC\Desktop\VA - 1977 - The Spirit of Punk (2007)\CD1\08 - The Jam - In The City.wav

Pre-gap length 0:00:00.77

Peak level 99.4 %
Extraction speed 2.5 X
Track quality 100.0 %
Test CRC 8A4C8ADE
Copy CRC 8A4C8ADE
Accurately ripped (confidence 9) [833B0286] (AR v2)
Copy OK

Track 9

Filename C:\Users\S0NiC\Desktop\VA - 1977 - The Spirit of Punk (2007)\CD1\09 - Buzzcocks - Orgasm Addict.wav

Pre-gap length 0:00:00.77

Peak level 98.0 %
Extraction speed 2.5 X
Track quality 100.0 %
Test CRC 98BA513B
Copy CRC 98BA513B
Accurately ripped (confidence 9) [13F904D0] (AR v2)
Copy OK

Track 10

Filename C:\Users\S0NiC\Desktop\VA - 1977 - The Spirit of Punk (2007)\CD1\10 - Sham 69 - Borstal Breakout.wav

Pre-gap length 0:00:00.77

Peak level 88.8 %
Extraction speed 2.6 X
Track quality 100.0 %
Test CRC 9B2E5D3D
Copy CRC 9B2E5D3D
Accurately ripped (confidence 9) [ABBF6B4B] (AR v2)
Copy OK

Track 11

Filename C:\Users\S0NiC\Desktop\VA - 1977 - The Spirit of Punk (2007)\CD1\11 - Eddie & The Hot Rods - Do Anything You Wanna Do.wav

Pre-gap length 0:00:00.77

Peak level 98.1 %
Extraction speed 3.0 X
Track quality 100.0 %
Test CRC 80CF1122
Copy CRC 80CF1122
Accurately ripped (confidence 9) [E7D1D371] (AR v2)
Copy OK

Track 12

Filename C:\Users\S0NiC\Desktop\VA - 1977 - The Spirit of Punk (2007)\CD1\12 - Ian Dury & The Blockheads - Sex & Drugs & Rock & Roll.wav

Pre-gap length 0:00:00.77

Peak level 99.6 %
Extraction speed 2.1 X
Track quality 99.9 %
Test CRC C558AA75
Copy CRC C558AA75
Accurately ripped (confidence 9) [7249E777] (AR v2)
Copy OK

Track 13

Filename C:\Users\S0NiC\Desktop\VA - 1977 - The Spirit of Punk (2007)\CD1\13 - Wreckless Eric - Whole Wide World.wav

Pre-gap length 0:00:00.77

Peak level 88.3 %
Extraction speed 3.0 X
Track quality 100.0 %
Test CRC 5BE0D661
Copy CRC 5BE0D661
Accurately ripped (confidence 9) [6F612056] (AR v2)
Copy OK

Track 14

Filename C:\Users\S0NiC\Desktop\VA - 1977 - The Spirit of Punk (2007)\CD1\14 - Talking Heads - Psycho Killer [live].wav

Pre-gap length 0:00:00.77

Peak level 99.9 %
Extraction speed 2.6 X
Track quality 99.9 %
Test CRC 2E62C083
Copy CRC 2E62C083
Accurately ripped (confidence 9) [71D4B216] (AR v2)
Copy OK

Track 15

Filename C:\Users\S0NiC\Desktop\VA - 1977 - The Spirit of Punk (2007)\CD1\15 - Patti Smith - Gloria.wav

Pre-gap length 0:00:00.77

Peak level 99.8 %
Extraction speed 3.6 X
Track quality 100.0 %
Test CRC 5A1AAA43
Copy CRC 5A1AAA43
Accurately ripped (confidence 9) [38034AF8] (AR v2)
Copy OK

Track 16

Filename C:\Users\S0NiC\Desktop\VA - 1977 - The Spirit of Punk (2007)\CD1\16 - Blondie - Rip Her To Shreds.wav

Pre-gap length 0:00:00.77

Peak level 99.1 %
Extraction speed 3.4 X
Track quality 100.0 %
Test CRC 8F6870A5
Copy CRC 8F6870A5
Accurately ripped (confidence 9) [DB3E21EE] (AR v2)
Copy OK

Track 17

Filename C:\Users\S0NiC\Desktop\VA - 1977 - The Spirit of Punk (2007)\CD1\17 - The Saints - This Perfect Day.wav

Pre-gap length 0:00:00.77

Peak level 98.1 %
Extraction speed 3.1 X
Track quality 100.0 %
Test CRC 4B311D0F
Copy CRC 4B311D0F
Accurately ripped (confidence 9) [57BD7FD9] (AR v2)
Copy OK

Track 18

Filename C:\Users\S0NiC\Desktop\VA - 1977 - The Spirit of Punk (2007)\CD1\18 - The Ramones - Blitzkrieg Bop [live].wav

Pre-gap length 0:00:00.09

Peak level 99.8 %
Extraction speed 3.1 X
Track quality 100.0 %
Test CRC 4AA9D076
Copy CRC 4AA9D076
Accurately ripped (confidence 9) [9F681DAE] (AR v2)
Copy OK

Track 19

Filename C:\Users\S0NiC\Desktop\VA - 1977 - The Spirit of Punk (2007)\CD1\19 - X-Ray Spex - Oh Bondage Up Yours!.wav

Pre-gap length 0:00:00.77

Peak level 99.8 %
Extraction speed 3.5 X
Track quality 100.0 %
Test CRC 170F8928
Copy CRC 170F8928
Accurately ripped (confidence 9) [F138F3AC] (AR v2)
Copy OK

Track 20

Filename C:\Users\S0NiC\Desktop\VA - 1977 - The Spirit of Punk (2007)\CD1\20 - Generation X - Your Generation.wav

Pre-gap length 0:00:00.77

Peak level 98.8 %
Extraction speed 3.7 X
Track quality 100.0 %
Test CRC 18D45AB9
Copy CRC 18D45AB9
Accurately ripped (confidence 9) [5E512265] (AR v2)
Copy OK

Track 21

Filename C:\Users\S0NiC\Desktop\VA - 1977 - The Spirit of Punk (2007)\CD1\21 - The Stranglers - (Get A) Grip (On Yourself).wav

Pre-gap length 0:00:00.77

Peak level 99.8 %
Extraction speed 3.9 X
Track quality 100.0 %
Test CRC 16CCFE97
Copy CRC 16CCFE97
Accurately ripped (confidence 9) [FD260921] (AR v2)
Copy OK

Track 22

Filename C:\Users\S0NiC\Desktop\VA - 1977 - The Spirit of Punk (2007)\CD1\22 - The Skids - The Saints are Coming.wav

Pre-gap length 0:00:00.77

Peak level 98.8 %
Extraction speed 3.7 X
Track quality 100.0 %
Test CRC 93D80432
Copy CRC 93D80432
Accurately ripped (confidence 9) [763C8071] (AR v2)
Copy OK

Track 23

Filename C:\Users\S0NiC\Desktop\VA - 1977 - The Spirit of Punk (2007)\CD1\23 - The Saints - (I'm) Stranded.wav

Pre-gap length 0:00:00.77

Peak level 92.8 %
Extraction speed 2.9 X
Track quality 99.9 %
Test CRC 43EC9DF8
Copy CRC 43EC9DF8
Accurately ripped (confidence 9) [5FC59EDC] (AR v2)
Copy OK

Track 24

Filename C:\Users\S0NiC\Desktop\VA - 1977 - The Spirit of Punk (2007)\CD1\24 - Chelsea - Right to Work.wav

Pre-gap length 0:00:00.77

Peak level 98.7 %
Extraction speed 2.6 X
Track quality 99.9 %
Test CRC 88E60427
Copy CRC 88E60427
Accurately ripped (confidence 9) [78B84364] (AR v2)
Copy OK

Track 25

Filename C:\Users\S0NiC\Desktop\VA - 1977 - The Spirit of Punk (2007)\CD1\25 - Buzzcocks - Ever Fallen in Love (With Someone You Shouldn't've).wav

Pre-gap length 0:00:00.72

Peak level 100.0 %
Extraction speed 3.9 X
Track quality 100.0 %
Test CRC F9BCD186
Copy CRC F9BCD186
Accurately ripped (confidence 9) [1A93AA78] (AR v2)
Copy OK


All tracks accurately ripped

No errors occurred

End of status report

–– CUETools DB Plugin V2.1.6

[CTDB TOCID: MJv02qCUf8s3eiDLzNMTiOmmBbw-] found
Submit result: MJv02qCUf8s3eiDLzNMTiOmmBbw- has been confirmed
Track | CTDB Status
1 | (7/7) Accurately ripped
2 | (7/7) Accurately ripped
3 | (7/7) Accurately ripped
4 | (7/7) Accurately ripped
5 | (7/7) Accurately ripped
6 | (7/7) Accurately ripped
7 | (7/7) Accurately ripped
8 | (7/7) Accurately ripped
9 | (7/7) Accurately ripped
10 | (7/7) Accurately ripped
11 | (7/7) Accurately ripped
12 | (7/7) Accurately ripped
13 | (7/7) Accurately ripped
14 | (7/7) Accurately ripped
15 | (7/7) Accurately ripped
16 | (7/7) Accurately ripped
17 | (7/7) Accurately ripped
18 | (7/7) Accurately ripped
19 | (7/7) Accurately ripped
20 | (7/7) Accurately ripped
21 | (7/7) Accurately ripped
22 | (7/7) Accurately ripped
23 | (7/7) Accurately ripped
24 | (7/7) Accurately ripped
25 | (7/7) Accurately ripped


==== Log checksum 2E4E60A750FA4CAEA5F8C7DB00D449BDF6E3FAE2FBF2B8386AFB0B15317D2E39 ====

Exact Audio Copy V1.3 from 2. September 2016

EAC extraction logfile from 3. November 2016, 6:36

Various / 1977 - The Spirit of Punk

Used drive : hp DVD-RAM GHC0N Adapter: 1 ID: 0

Read mode : Secure
Utilize accurate stream : Yes
Defeat audio cache : Yes
Make use of C2 pointers : No

Read offset correction : 6
Overread into Lead-In and Lead-Out : No
Fill up missing offset samples with silence : Yes
Delete leading and trailing silent blocks : No
Null samples used in CRC calculations : Yes
Used interface : Native Win32 interface for Win NT & 2000
Gap handling : Appended to previous track

Used output format : User Defined Encoder
Selected bitrate : 1024 kBit/s
Quality : High
Add ID3 tag : No
Command line compressor : C:\Program Files (x86)\Exact Audio Copy\Flac\flac.exe
Additional command line options : -8 -V -T "ARTIST=%artist%" -T "TITLE=%title%" -T "ALBUM=%albumtitle%" -T "DATE=%year%" -T "TRACKNUMBER=%tracknr%" -T "GENRE=%genre%" -T "PERFORMER=%albuminterpret%" -T "COMPOSER=%composer%" %haslyrics%–tag-from-file=LYRICS="%lyricsfile%"%haslyrics% -T "ALBUMARTIST=%albumartist%" -T "DISCNUMBER=%cdnumber%" -T "TOTALDISCS=%totalcds%" -T "TOTALTRACKS=%numtracks%" -T "COMMENT=%comment%" %source% -o %dest%


TOC of the extracted CD

Track | Start | Length | Start sector | End sector
––––––––––––––––––––––––––––-
1 | 0:00.00 | 3:19.33 | 0 | 14957
2 | 3:19.33 | 2:54.07 | 14958 | 28014
3 | 6:13.40 | 2:53.66 | 28015 | 41055
4 | 9:07.31 | 2:25.48 | 41056 | 51978
5 | 11:33.04 | 2:54.03 | 51979 | 65031
6 | 14:27.07 | 2:56.43 | 65032 | 78274
7 | 17:23.50 | 3:16.22 | 78275 | 92996
8 | 20:39.72 | 2:35.08 | 92997 | 104629
9 | 23:15.05 | 3:10.56 | 104630 | 118935
10 | 26:25.61 | 3:54.18 | 118936 | 136503
11 | 30:20.04 | 3:59.10 | 136504 | 154438
12 | 34:19.14 | 2:56.71 | 154439 | 167709
13 | 37:16.10 | 2:53.08 | 167710 | 180692
14 | 40:09.18 | 2:42.74 | 180693 | 192916
15 | 42:52.17 | 3:42.18 | 192917 | 209584
16 | 46:34.35 | 3:01.73 | 209585 | 223232
17 | 49:36.33 | 2:28.12 | 223233 | 234344
18 | 52:04.45 | 2:59.56 | 234345 | 247825
19 | 55:04.26 | 2:27.58 | 247826 | 258908
20 | 57:32.09 | 3:07.20 | 258909 | 272953
21 | 60:39.29 | 3:38.65 | 272954 | 289368
22 | 64:18.19 | 3:13.05 | 289369 | 303848
23 | 67:31.24 | 3:16.42 | 303849 | 318590
24 | 70:47.66 | 2:54.15 | 318591 | 331655
25 | 73:42.06 | 2:22.36 | 331656 | 342341


Track 1

Filename C:\Users\S0NiC\Desktop\VA - 1977 - The Spirit of Punk (2007)\CD2\01 - Sex Pistols - God Save the Queen.wav

Pre-gap length 0:00:02.00

Peak level 97.7 %
Extraction speed 1.9 X
Track quality 100.0 %
Test CRC AB473061
Copy CRC AB473061
Accurately ripped (confidence 8) [9454FB42] (AR v2)
Copy OK

Track 2

Filename C:\Users\S0NiC\Desktop\VA - 1977 - The Spirit of Punk (2007)\CD2\02 - Siouxsie & The Banshees - Hong Kong Garden.wav

Pre-gap length 0:00:00.77

Peak level 89.0 %
Extraction speed 2.0 X
Track quality 100.0 %
Test CRC 32D2958D
Copy CRC 32D2958D
Accurately ripped (confidence 8) [4CD0C120] (AR v2)
Copy OK

Track 3

Filename C:\Users\S0NiC\Desktop\VA - 1977 - The Spirit of Punk (2007)\CD2\03 - Buzzcocks - What Do I Get.wav

Pre-gap length 0:00:00.77

Peak level 100.0 %
Extraction speed 2.1 X
Track quality 100.0 %
Test CRC BF5E22FE
Copy CRC BF5E22FE
Accurately ripped (confidence 8) [431B99E8] (AR v2)
Copy OK

Track 4

Filename C:\Users\S0NiC\Desktop\VA - 1977 - The Spirit of Punk (2007)\CD2\04 - The Undertones - Teenage Kicks.wav

Pre-gap length 0:00:00.77

Peak level 100.0 %
Extraction speed 2.2 X
Track quality 100.0 %
Test CRC E945A016
Copy CRC E945A016
Accurately ripped (confidence 8) [89E5227F] (AR v2)
Copy OK

Track 5

Filename C:\Users\S0NiC\Desktop\VA - 1977 - The Spirit of Punk (2007)\CD2\05 - The Rezillos - Top of the Pops.wav

Pre-gap length 0:00:00.77

Peak level 89.0 %
Extraction speed 2.3 X
Track quality 100.0 %
Test CRC DBCAB04C
Copy CRC DBCAB04C
Accurately ripped (confidence 8) [A16C0777] (AR v2)
Copy OK

Track 6

Filename C:\Users\S0NiC\Desktop\VA - 1977 - The Spirit of Punk (2007)\CD2\06 - Generation X - Ready Steady Go.wav

Pre-gap length 0:00:00.77

Peak level 98.0 %
Extraction speed 2.4 X
Track quality 100.0 %
Test CRC 52F24C33
Copy CRC 52F24C33
Accurately ripped (confidence 8) [50B657B7] (AR v2)
Copy OK

Track 7

Filename C:\Users\S0NiC\Desktop\VA - 1977 - The Spirit of Punk (2007)\CD2\07 - The Clash - Tommy Gun.wav

Pre-gap length 0:00:00.77

Peak level 100.0 %
Extraction speed 2.6 X
Track quality 100.0 %
Test CRC C5F5CC6C
Copy CRC C5F5CC6C
Accurately ripped (confidence 8) [4ED2D23D] (AR v2)
Copy OK

Track 8

Filename C:\Users\S0NiC\Desktop\VA - 1977 - The Spirit of Punk (2007)\CD2\08 - The Ruts - Babylon's Burning.wav

Pre-gap length 0:00:00.77

Peak level 98.8 %
Extraction speed 2.6 X
Track quality 100.0 %
Test CRC 98DF8B1F
Copy CRC 98DF8B1F
Accurately ripped (confidence 8) [58C83771] (AR v2)
Copy OK

Track 9

Filename C:\Users\S0NiC\Desktop\VA - 1977 - The Spirit of Punk (2007)\CD2\09 - The Skids - Into the Valley.wav

Pre-gap length 0:00:00.76

Peak level 99.8 %
Extraction speed 2.7 X
Track quality 100.0 %
Test CRC 89A5E08D
Copy CRC 89A5E08D
Accurately ripped (confidence 8) [435DC441] (AR v2)
Copy OK

Track 10

Filename C:\Users\S0NiC\Desktop\VA - 1977 - The Spirit of Punk (2007)\CD2\10 - The Members - Sounds of the Suburbs.wav

Pre-gap length 0:00:00.77

Peak level 99.8 %
Extraction speed 2.9 X
Track quality 100.0 %
Test CRC D3547CCB
Copy CRC D3547CCB
Accurately ripped (confidence 8) [D77B6840] (AR v2)
Copy OK

Track 11

Filename C:\Users\S0NiC\Desktop\VA - 1977 - The Spirit of Punk (2007)\CD2\11 - Magazine - Shot by Both Sides.wav

Pre-gap length 0:00:00.77

Peak level 99.8 %
Extraction speed 3.0 X
Track quality 100.0 %
Test CRC 8B3DFA30
Copy CRC 8B3DFA30
Accurately ripped (confidence 8) [C6DFB431] (AR v2)
Copy OK

Track 12

Filename C:\Users\S0NiC\Desktop\VA - 1977 - The Spirit of Punk (2007)\CD2\12 - Public Image Ltd. - Public Image.wav

Pre-gap length 0:00:00.77

Peak level 99.8 %
Extraction speed 2.1 X
Track quality 99.9 %
Test CRC 12B02C1E
Copy CRC 12B02C1E
Accurately ripped (confidence 8) [CB08CA18] (AR v2)
Copy OK

Track 13

Filename C:\Users\S0NiC\Desktop\VA - 1977 - The Spirit of Punk (2007)\CD2\13 - Penetration - Don't Dictate.wav

Pre-gap length 0:00:00.76

Peak level 99.8 %
Extraction speed 3.1 X
Track quality 100.0 %
Test CRC 2DD6E61A
Copy CRC 2DD6E61A
Accurately ripped (confidence 8) [279D0206] (AR v2)
Copy OK

Track 14

Filename C:\Users\S0NiC\Desktop\VA - 1977 - The Spirit of Punk (2007)\CD2\14 - Stiff Little Fingers - Alternative Ulster.wav

Pre-gap length 0:00:00.77

Peak level 99.8 %
Extraction speed 2.1 X
Track quality 99.9 %
Test CRC 4E4DC77F
Copy CRC 4E4DC77F
Accurately ripped (confidence 8) [083DC4CC] (AR v2)
Copy OK

Track 15

Filename C:\Users\S0NiC\Desktop\VA - 1977 - The Spirit of Punk (2007)\CD2\15 - 999 - Homicide.wav

Pre-gap length 0:00:00.77

Peak level 99.8 %
Extraction speed 3.4 X
Track quality 100.0 %
Test CRC E6ABDD5A
Copy CRC E6ABDD5A
Accurately ripped (confidence 8) [3EAF25EA] (AR v2)
Copy OK

Track 16

Filename C:\Users\S0NiC\Desktop\VA - 1977 - The Spirit of Punk (2007)\CD2\16 - The Vibrators - Automatic Lover.wav

Pre-gap length 0:00:00.77

Peak level 100.0 %
Extraction speed 3.4 X
Track quality 100.0 %
Test CRC 3BBA2404
Copy CRC 3BBA2404
Accurately ripped (confidence 8) [DE0352B7] (AR v2)
Copy OK

Track 17

Filename C:\Users\S0NiC\Desktop\VA - 1977 - The Spirit of Punk (2007)\CD2\17 - Uk Subs - Stranglehold.wav

Pre-gap length 0:00:00.77

Peak level 97.7 %
Extraction speed 3.3 X
Track quality 100.0 %
Test CRC 7C7D7B5D
Copy CRC 7C7D7B5D
Accurately ripped (confidence 8) [8F63522C] (AR v2)
Copy OK

Track 18

Filename C:\Users\S0NiC\Desktop\VA - 1977 - The Spirit of Punk (2007)\CD2\18 - Bow Wow Wow - C30 C60 C90 Go.wav

Pre-gap length 0:00:01.77

Peak level 100.0 %
Extraction speed 3.5 X
Track quality 100.0 %
Test CRC F08EA15F
Copy CRC F08EA15F
Accurately ripped (confidence 8) [468076F8] (AR v2)
Copy OK

Track 19

Filename C:\Users\S0NiC\Desktop\VA - 1977 - The Spirit of Punk (2007)\CD2\19 - Adam & The Ants - Deutscher Girls.wav

Pre-gap length 0:00:00.77

Peak level 98.3 %
Extraction speed 3.4 X
Track quality 100.0 %
Test CRC FD2F0852
Copy CRC FD2F0852
Accurately ripped (confidence 8) [7354C17F] (AR v2)
Copy OK

Track 20

Filename C:\Users\S0NiC\Desktop\VA - 1977 - The Spirit of Punk (2007)\CD2\20 - Wire - I am the Fly.wav

Pre-gap length 0:00:00.77

Peak level 79.4 %
Extraction speed 3.6 X
Track quality 100.0 %
Test CRC 942515B3
Copy CRC 942515B3
Accurately ripped (confidence 8) [6E9CCF3B] (AR v2)
Copy OK

Track 21

Filename C:\Users\S0NiC\Desktop\VA - 1977 - The Spirit of Punk (2007)\CD2\21 - Devo - Jocko Homo.wav

Pre-gap length 0:00:00.77

Peak level 99.8 %
Extraction speed 3.8 X
Track quality 100.0 %
Test CRC 4152C74C
Copy CRC 4152C74C
Accurately ripped (confidence 8) [12EB56DA] (AR v2)
Copy OK

Track 22

Filename C:\Users\S0NiC\Desktop\VA - 1977 - The Spirit of Punk (2007)\CD2\22 - The Motors - Dancing the Night Away.wav

Pre-gap length 0:00:00.76

Peak level 88.0 %
Extraction speed 3.8 X
Track quality 100.0 %
Test CRC 2B74882A
Copy CRC 2B74882A
Accurately ripped (confidence 7) [7969DE31] (AR v2)
Copy OK

Track 23

Filename C:\Users\S0NiC\Desktop\VA - 1977 - The Spirit of Punk (2007)\CD2\23 - The Tom Robinson Band - 2-4-6-8 Motorway.wav

Pre-gap length 0:00:00.77

Peak level 99.8 %
Extraction speed 2.8 X
Track quality 99.9 %
Test CRC 8CE03C57
Copy CRC 8CE03C57
Accurately ripped (confidence 7) [26F56496] (AR v2)
Copy OK

Track 24

Filename C:\Users\S0NiC\Desktop\VA - 1977 - The Spirit of Punk (2007)\CD2\24 - Dr Feelgood - Roxette.wav

Pre-gap length 0:00:00.77

Peak level 99.8 %
Extraction speed 3.9 X
Track quality 100.0 %
Test CRC DC9CE0A1
Copy CRC DC9CE0A1
Accurately ripped (confidence 8) [7160E339] (AR v2)
Copy OK

Track 25

Filename C:\Users\S0NiC\Desktop\VA - 1977 - The Spirit of Punk (2007)\CD2\25 - John Cooper Clarke - Twat.wav

Pre-gap length 0:00:00.76

Peak level 100.0 %
Extraction speed 3.8 X
Track quality 100.0 %
Test CRC 5EF46B64
Copy CRC 5EF46B64
Accurately ripped (confidence 7) [4920B40E] (AR v2)
Copy OK


All tracks accurately ripped

No errors occurred

End of status report

–– CUETools DB Plugin V2.1.6

[CTDB TOCID: 1FqZ7Y3GON089Zpe25bkKsfnuqg-] found
Submit result: 1FqZ7Y3GON089Zpe25bkKsfnuqg- has been confirmed
Track | CTDB Status
1 | (7/7) Accurately ripped
2 | (7/7) Accurately ripped
3 | (7/7) Accurately ripped
4 | (7/7) Accurately ripped
5 | (7/7) Accurately ripped
6 | (7/7) Accurately ripped
7 | (7/7) Accurately ripped
8 | (7/7) Accurately ripped
9 | (7/7) Accurately ripped
10 | (7/7) Accurately ripped
11 | (7/7) Accurately ripped
12 | (7/7) Accurately ripped
13 | (7/7) Accurately ripped
14 | (7/7) Accurately ripped
15 | (7/7) Accurately ripped
16 | (7/7) Accurately ripped
17 | (7/7) Accurately ripped
18 | (7/7) Accurately ripped
19 | (7/7) Accurately ripped
20 | (7/7) Accurately ripped
21 | (7/7) Accurately ripped
22 | (7/7) Accurately ripped
23 | (7/7) Accurately ripped
24 | (7/7) Accurately ripped
25 | (7/7) Accurately ripped


==== Log checksum 58F00E9B95AA3197F55960646CD38DC11726CB15C5D43B6E2CF9E4118492CF3F ====

Thanks to the Original ripper stereosanctity39 !