Subcategories

VA – All That Jazz Is Back (Comp. 90s)

Posted By: janwal46
VA – All That Jazz Is Back (Comp. 90s)

VA – All That Jazz Is Back (Comp. 90s)

VA – All That Jazz Is Back (Comp. 90s)
OJC | 90s | Jazz | EAC RIP | FLAC+CUE+LOG+HQ-Covers (400Dpi) | 435Mb+13Mb

A nice OJC sampler, released somewhere in the 90s !!

Tracklist:

01. Cannonball Adderley - Things Are Getting Better
02. Chet Baker - How High The Moon
03. Count Basie - Jumpin' At The Woodside
04. Eddie "Lockjaw" Davis - Afro-Jaws
05. The New Miles Davis Quintet - There Is No Greater Love
06. Duke Ellington And His Orchestra - Latin American Sunshine
07. Bill Evans Trio - Waltz For Debby
08. Ella Fitzgerald & The Tommy Flanagan Trio - I Ain't Got Nothin' But The Blues
09. The Red Garland Trio - A Foggy Day
10. Dizzy Gillespie, Ray Brown, Joe Pass, Mickey Roker - Birks Works
11. Milt Jackson Quartet - My Funny Valentine
12. Clifford Jordan Quartet - Bearcat
13. Barney Kessel, Shelly Manne, Ray Brown - Spring Is Here

Average Sound Quality: 8

Exact Audio Copy V0.99 prebeta 5 from 4. May 2009

EAC extraction logfile from 8. April 2010, 0:43

VA / All That Jazz Is Back

Used drive : Optiarc DVD RW AD-7173A Adapter: 1 ID: 1

Read mode : Secure
Utilize accurate stream : Yes
Defeat audio cache : Yes
Make use of C2 pointers : No

Read offset correction : 48
Overread into Lead-In and Lead-Out : No
Fill up missing offset samples with silence : Yes
Delete leading and trailing silent blocks : No
Null samples used in CRC calculations : Yes
Used interface : Native Win32 interface for Win NT & 2000

Used output format : Internal WAV Routines
Sample format : 44.100 Hz; 16 Bit; Stereo


TOC of the extracted CD

Track | Start | Length | Start sector | End sector
––––––––––––––––––––––––––––-
1 | 0:00.00 | 7:14.15 | 0 | 32564
2 | 7:14.15 | 3:37.35 | 32565 | 48874
3 | 10:51.50 | 4:33.55 | 48875 | 69404
4 | 15:25.30 | 7:38.55 | 69405 | 103809
5 | 23:04.10 | 5:22.10 | 103810 | 127969
6 | 28:26.20 | 6:56.35 | 127970 | 159204
7 | 35:22.55 | 6:50.45 | 159205 | 189999
8 | 42:13.25 | 4:20.55 | 190000 | 209554
9 | 46:34.05 | 4:51.20 | 209555 | 231399
10 | 51:25.25 | 8:57.25 | 231400 | 271699
11 | 60:22.50 | 4:42.25 | 271700 | 292874
12 | 65:05.00 | 5:03.12 | 292875 | 315611
13 | 70:08.12 | 4:09.50 | 315612 | 334336


Range status and errors

Selected range

Filename F:\AVAXHOME\VA - All That Jazz Is Back\VA - All That Jazz Is Back.wav

Peak level 96.8 %
Range quality 100.0 %
Copy CRC D154438E
Copy OK

No errors occurred


AccurateRip summary

Track 1 accurately ripped (confidence 2) [31221091]
Track 2 accurately ripped (confidence 2) [9AB3C601]
Track 3 accurately ripped (confidence 2) [32F77173]
Track 4 accurately ripped (confidence 2) [9DBD24AE]
Track 5 accurately ripped (confidence 2) [03BE664B]
Track 6 accurately ripped (confidence 2) [0D095D6E]
Track 7 accurately ripped (confidence 2) [BE6CBEC3]
Track 8 accurately ripped (confidence 2) [2D2FB25A]
Track 9 accurately ripped (confidence 2) [7D5ED339]
Track 10 accurately ripped (confidence 2) [58C13AF6]
Track 11 accurately ripped (confidence 2) [300F0EB9]
Track 12 accurately ripped (confidence 2) [F260BB56]
Track 13 not present in database

12 track(s) accurately ripped
1 track(s) not present in the AccurateRip database

Some tracks could not be verified as accurate

End of status report

RIPPED BY JANWAL46

RS Links:



In case you encounter dead links in any of my posts, please send me a private message !!!!


Password: janwal46

Say thanks, but please, no mirrors and/or direct links in your comments !!!!