Tags
Language
Tags

VA - Beside Bowie: The Mick Ronson Story (The Soundtrack) (2018)

Posted By: delpotro
VA - Beside Bowie: The Mick Ronson Story (The Soundtrack) (2018)

VA - Beside Bowie: The Mick Ronson Story (The Soundtrack) (2018)
EAC Rip | FLAC (tracks+log+.cue) - 422 Mb | MP3 CBR 320 kbps - 167 Mb | 01:09:37
Rock, Soundtrack | Label: Universal Music

Beside Bowie: The Mick Ronson Story, The Soundtrack is all set for release through Universal Music on 8 June 2018. The soundtrack album accompanies the DVD and Blu-Ray release of Beside Bowie: The Mick Ronson Story which will also be released with new exclusive content on the same day. The soundtrack will be the first official career retrospective compilation for the guitar virtuoso. As well as key tracks from Mick Ronson’s solo records, the compilation includes material from his key collaborations with David Bowie, Elton John, Ian Hunter, Queen and Michael Chapman.

The album also includes a previously unreleased cover version of ‘This Is For You’ by Def Leppard’s Joe Elliott and a piano tribute to Mick Ronson from David Bowie’s piano-man and band alumni Mike Garson (David Bowie, Nine Inch Nails, Smashing Pumpkins). The soundtrack will be available on CD and Digital, heavy-weight 180g black Vinyl and exclusive limited edition coloured vinyl and includes extensive essay & liner notes.

Beside Bowie: The Mick Ronson Story producer/Director Jon Brewer (BB King: The Life of Riley, Nat King Cole: Afraid of the Dark, Jimi Hendrix: Guitar Hero, The Most Dangerous Band in The World) gained the unprecedented access and permission for use of materials relating to the life of rock hero Mick Ronson, who was largely commercially over-looked despite his direct contribution and pivotal involvement in countless iconic compositions of David Bowie and The Spiders from Mars.

Despite his production and guitar work with Lou Reed, Morrissey, Ian Hunter and Mott The Hoople, Bob Dylan, John Mellencamp and many others, it is Mick Ronson’s dynamic support, contribution, and co-creation of the expansive and multi-faceted career of David Bowie and in fact that era of music, that this film exposes. With exclusive voice over contributions from David Bowie and exclusive contributions by Rick Wakeman, Joe Elliott, Roger Taylor, Ian Hunter, Angie Bowie and many more, Beside Bowie: The Mick Ronson Story is a tribute to an uncomplicated man who achieved the pinnacle of success in the music industry as well as the rarefied respect from his contemporaries for his production and guitar skills.



[Share On Flipboard]

Beside Bowie: The Mick Ronson Story, The Soundtrack is all set for release through Universal Music on 8 June 2018. The soundtrack album accompanies the DVD and Blu-Ray release of Beside Bowie: The Mick Ronson Story which will also be released with new exclusive content on the same day.

The soundtrack will be the first official career retrospective compilation for the guitar virtuoso. As well as key tracks from Mick Ronson’s solo records, the compilation includes material from his key collaborations with David Bowie, Elton John, Ian Hunter, Queen and Michael Chapman.

The album also includes a previously unreleased cover version of ‘This Is For You’ by Def Leppard’s Joe Elliott and a piano tribute to Mick Ronson from David Bowie’s piano-man and band alumni Mike Garson (David Bowie, Nine Inch Nails, Smashing Pumpkins). The soundtrack will be available on CD and Digital, heavy-weight 180g black Vinyl and exclusive limited edition coloured vinyl and includes extensive essay & liner notes.

Beside Bowie: The Mick Ronson Story producer/Director Jon Brewer (BB King: The Life of Riley, Nat King Cole: Afraid of the Dark, Jimi Hendrix: Guitar Hero, The Most Dangerous Band in The World) gained the unprecedented access and permission for use of materials relating to the life of rock hero Mick Ronson, who was largely commercially over-looked despite his direct contribution and pivotal involvement in countless iconic compositions of David Bowie and The Spiders from Mars.

Despite his production and guitar work with Lou Reed, Morrissey, Ian Hunter and Mott The Hoople, Bob Dylan, John Mellencamp and many others, it is Mick Ronson’s dynamic support, contribution, and co-creation of the expansive and multi-faceted career of David Bowie and in fact that era of music, that this film exposes. With exclusive voice over contributions from David Bowie and exclusive contributions by Rick Wakeman, Joe Elliott, Roger Taylor, Ian Hunter, Angie Bowie and many more, Beside Bowie: The Mick Ronson Story is a tribute to an uncomplicated man who achieved the pinnacle of success in the music industry as well as the rarefied respect from his contemporaries for his production and guitar skills.

His humble beginnings (in the northern English city of Hull) underpinned the values and modest, unpretentious personality of Mick Ronson. Originally working with Hull City Council while he pursued his craft with consummate dedication, word of his talent reached David Bowie who grabbed at the chance to work with Ronson, and from there rock history was made. The Man Who Sold the World, Aladdin Sane Hunky Dory, ‘Jean Genie’, all were constructed with Mick Ronson on guitar. In 1974 he was voted #2 ‘Best Guitarist’ in Cream magazine (notably Eric Clapton came in third).

Sadly, in 1993 Mick Ronson passed away before receiving the recognition he so richly deserved before taking that final bow, as seen on film, at his last show. He had been making a solo album at the time, which was subsequently finished by his contemporaries. Emperor Media have achieved ultimate authenticity and access in chronicling the life and works of this man, an extraordinary talent who became a cornerstone of rock music and who stood ‘Beside Bowie’ during one of the most memorable periods of his dazzling career.
Tracklist:
1. Queen, Ian Hunter, David Bowie, Mick Ronson, Joe Elliott & Phil Collen – All the Young Dudes (Live at Wembley Stadium / 1992) (03:44)
2. Mike Chapman – Soulful Lady (04:15)
3. Elton John – Madman Across the Water (feat. Mick Ronson) (08:51)
4. David Bowie – Moonage Daydream (Remastered 2012) (04:41)
5. David Bowie – Cracked Actor (03:00)
6. David Bowie – Time (05:16)
7. Ian Hunter – Once Bitten Twice Shy (04:45)
8. Mick Ronson – I'd Give Anything to See You (06:01)
9. Mick Ronson – Hard Life (06:33)
10. Mick Ronson – Midnight Love (03:22)
11. Mick Ronson – Like a Rolling Stone (04:20)
12. Joe Elliott – This Is for You (04:31)
13. Queen, David Bowie & Mick Ronson – Heroes (Live at Wembley Stadium / 1992) (04:40)
14. Mike Garson – Tribute to Mark Ronson (05:27)

Exact Audio Copy V1.3 from 2. September 2016

EAC extraction logfile from 24. February 2019, 8:14

Various Artists / Beside Bowie: The Mick Ronson Story - The Soundtrack

Used drive : PLEXTOR PX-891SAF Adapter: 1 ID: 0

Read mode : Secure
Utilize accurate stream : Yes
Defeat audio cache : Yes
Make use of C2 pointers : No

Read offset correction : 6
Overread into Lead-In and Lead-Out : No
Fill up missing offset samples with silence : Yes
Delete leading and trailing silent blocks : No
Null samples used in CRC calculations : Yes
Used interface : Native Win32 interface for Win NT & 2000
Gap handling : Appended to previous track

Used output format : User Defined Encoder
Selected bitrate : 1024 kBit/s
Quality : High
Add ID3 tag : No
Command line compressor : C:\Program Files (x86)\Exact Audio Copy\Flac\flac.exe
Additional command line options : -8 -V -T "ARTIST=%artist%" -T "TITLE=%title%" -T "ALBUM=%albumtitle%" -T "DATE=%year%" -T "TRACKNUMBER=%tracknr%" -T "GENRE=%genre%" -T "PERFORMER=%albuminterpret%" -T "COMPOSER=%composer%" %haslyrics%–tag-from-file=LYRICS="%lyricsfile%"%haslyrics% -T "ALBUMARTIST=%albumartist%" -T "DISCNUMBER=%cdnumber%" -T "TOTALDISCS=%totalcds%" -T "TOTALTRACKS=%numtracks%" -T "COMMENT=%comment%" %source% -o %dest%


TOC of the extracted CD

Track | Start | Length | Start sector | End sector
––––––––––––––––––––––––––––-
1 | 0:00.00 | 3:45.47 | 0 | 16921
2 | 3:45.47 | 4:15.44 | 16922 | 36090
3 | 8:01.16 | 8:51.61 | 36091 | 75976
4 | 16:53.02 | 4:41.41 | 75977 | 97092
5 | 21:34.43 | 3:00.49 | 97093 | 110641
6 | 24:35.17 | 5:16.42 | 110642 | 134383
7 | 29:51.59 | 4:45.38 | 134384 | 155796
8 | 34:37.22 | 6:01.45 | 155797 | 182916
9 | 40:38.67 | 6:33.67 | 182917 | 212458
10 | 47:12.59 | 3:22.20 | 212459 | 227628
11 | 50:35.04 | 4:20.41 | 227629 | 247169
12 | 54:55.45 | 4:31.20 | 247170 | 267514
13 | 59:26.65 | 4:40.49 | 267515 | 288563
14 | 64:07.39 | 5:29.50 | 288564 | 313288


Track 1

Filename D:\#New wav + flac II\VA - Beside Bowie (The Mick Ronson Story)\01. Queen, Ian Hunter, David Bowie, Mick Ronson, Joe Elliott, Phil Collen - All The Young Dudes (Live).wav

Pre-gap length 0:00:02.00

Peak level 99.8 %
Extraction speed 5.6 X
Track quality 100.0 %
Test CRC 89756DFD
Copy CRC 89756DFD
Accurately ripped (confidence 11) [3B415F44] (AR v2)
Copy OK

Track 2

Filename D:\#New wav + flac II\VA - Beside Bowie (The Mick Ronson Story)\02. Michael Chapman - Soulful Lady.wav

Pre-gap length 0:00:00.34

Peak level 88.1 %
Extraction speed 6.2 X
Track quality 100.0 %
Test CRC 772651BC
Copy CRC 772651BC
Accurately ripped (confidence 11) [02F46272] (AR v2)
Copy OK

Track 3

Filename D:\#New wav + flac II\VA - Beside Bowie (The Mick Ronson Story)\03. Elton John - Madman Across The Water.wav

Pre-gap length 0:00:01.88

Peak level 98.8 %
Extraction speed 6.8 X
Track quality 99.9 %
Test CRC BED8B014
Copy CRC BED8B014
Accurately ripped (confidence 11) [79E3B3DB] (AR v2)
Copy OK

Track 4

Filename D:\#New wav + flac II\VA - Beside Bowie (The Mick Ronson Story)\04. David Bowie - Moonage Daydream.wav

Pre-gap length 0:00:01.01

Peak level 92.9 %
Extraction speed 6.5 X
Track quality 99.9 %
Test CRC 7BDE5023
Copy CRC 7BDE5023
Accurately ripped (confidence 11) [084E6F08] (AR v2)
Copy OK

Track 5

Filename D:\#New wav + flac II\VA - Beside Bowie (The Mick Ronson Story)\05. David Bowie - Cracked Actor.wav

Pre-gap length 0:00:00.77

Peak level 95.7 %
Extraction speed 7.5 X
Track quality 100.0 %
Test CRC D5DD8913
Copy CRC D5DD8913
Accurately ripped (confidence 11) [2C1921EB] (AR v2)
Copy OK

Track 6

Filename D:\#New wav + flac II\VA - Beside Bowie (The Mick Ronson Story)\06. David Bowie - Time.wav

Pre-gap length 0:00:00.14

Peak level 94.9 %
Extraction speed 8.6 X
Track quality 100.0 %
Test CRC 4849B2C1
Copy CRC 4849B2C1
Accurately ripped (confidence 11) [DC244943] (AR v2)
Copy OK

Track 7

Filename D:\#New wav + flac II\VA - Beside Bowie (The Mick Ronson Story)\07. Ian Hunter - Once Bitten, Twice Shy.wav

Pre-gap length 0:00:00.46

Peak level 97.7 %
Extraction speed 7.6 X
Track quality 99.9 %
Test CRC 2EF3DC5D
Copy CRC 2EF3DC5D
Accurately ripped (confidence 11) [09AB5B4A] (AR v2)
Copy OK

Track 8

Filename D:\#New wav + flac II\VA - Beside Bowie (The Mick Ronson Story)\08. Mick Ronson - I’d Give Anything To See You.wav

Pre-gap length 0:00:01.80

Peak level 92.2 %
Extraction speed 9.5 X
Track quality 100.0 %
Test CRC D1395AFA
Copy CRC D1395AFA
Accurately ripped (confidence 11) [EF399332] (AR v2)
Copy OK

Track 9

Filename D:\#New wav + flac II\VA - Beside Bowie (The Mick Ronson Story)\09. Mick Ronson - Hard Life.wav

Pre-gap length 0:00:02.12

Peak level 82.0 %
Extraction speed 10.1 X
Track quality 100.0 %
Test CRC 7AF3976A
Copy CRC 7AF3976A
Accurately ripped (confidence 11) [C016DF0A] (AR v2)
Copy OK

Track 10

Filename D:\#New wav + flac II\VA - Beside Bowie (The Mick Ronson Story)\10. Mick Ronson - Midnight Love.wav

Pre-gap length 0:00:00.37

Peak level 99.8 %
Extraction speed 9.8 X
Track quality 100.0 %
Test CRC 984C1D42
Copy CRC 984C1D42
Accurately ripped (confidence 11) [6BE317BA] (AR v2)
Copy OK

Track 11

Filename D:\#New wav + flac II\VA - Beside Bowie (The Mick Ronson Story)\11. Mick Ronson - Like A Rolling Stone.wav

Pre-gap length 0:00:01.28

Peak level 88.9 %
Extraction speed 10.3 X
Track quality 100.0 %
Test CRC 430EDE1B
Copy CRC 430EDE1B
Accurately ripped (confidence 11) [DC17D130] (AR v2)
Copy OK

Track 12

Filename D:\#New wav + flac II\VA - Beside Bowie (The Mick Ronson Story)\12. Joe Elliott - This Is For You.wav

Pre-gap length 0:00:01.10

Peak level 79.4 %
Extraction speed 8.8 X
Track quality 99.9 %
Test CRC EC735491
Copy CRC EC735491
Accurately ripped (confidence 9) [558AD3B2] (AR v2)
Copy OK

Track 13

Filename D:\#New wav + flac II\VA - Beside Bowie (The Mick Ronson Story)\13. Queen, David Bowie, And Mick Ronson - Heroes.wav

Pre-gap length 0:00:01.73

Peak level 98.8 %
Extraction speed 10.8 X
Track quality 100.0 %
Test CRC 1A2D8599
Copy CRC 1A2D8599
Accurately ripped (confidence 11) [08236C27] (AR v2)
Copy OK

Track 14

Filename D:\#New wav + flac II\VA - Beside Bowie (The Mick Ronson Story)\14. Mike Garson - Tribute To Mick Ronson.wav

Pre-gap length 0:00:14.61

Peak level 98.7 %
Extraction speed 9.6 X
Track quality 99.9 %
Test CRC D2C024B8
Copy CRC D2C024B8
Accurately ripped (confidence 11) [6E2D6D64] (AR v2)
Copy OK


All tracks accurately ripped

No errors occurred

End of status report

–– CUETools DB Plugin V2.1.6

[CTDB TOCID: hxfTyqPflADpovu.L.1jbn8QaXk-] found
Submit result: hxfTyqPflADpovu.L.1jbn8QaXk- has been confirmed
Track | CTDB Status
1 | (31/31) Accurately ripped
2 | (31/31) Accurately ripped
3 | (31/31) Accurately ripped
4 | (31/31) Accurately ripped
5 | (31/31) Accurately ripped
6 | (31/31) Accurately ripped
7 | (30/31) Accurately ripped
8 | (31/31) Accurately ripped
9 | (31/31) Accurately ripped
10 | (31/31) Accurately ripped
11 | (31/31) Accurately ripped
12 | (30/31) Accurately ripped
13 | (31/31) Accurately ripped
14 | (31/31) Accurately ripped


==== Log checksum 987A8626B5C6077689DE429EBD5BA8539B97EB635AB7F3990B9B48DAA6B89D8F ====

––––––––––––––––––––––––––––––

Exact Audio Copy V1.3 from 2. September 2016

EAC extraction logfile from 24. February 2019, 8:14

Various Artists / Beside Bowie: The Mick Ronson Story - The Soundtrack

Used drive : PLEXTOR PX-891SAF Adapter: 1 ID: 0

Read mode : Secure
Utilize accurate stream : Yes
Defeat audio cache : Yes
Make use of C2 pointers : No

Read offset correction : 6
Overread into Lead-In and Lead-Out : No
Fill up missing offset samples with silence : Yes
Delete leading and trailing silent blocks : No
Null samples used in CRC calculations : Yes
Used interface : Native Win32 interface for Win NT & 2000
Gap handling : Appended to previous track

Used output format : User Defined Encoder
Selected bitrate : 1024 kBit/s
Quality : High
Add ID3 tag : No
Command line compressor : C:\Program Files (x86)\Exact Audio Copy\Flac\flac.exe
Additional command line options : -8 -V -T "ARTIST=%artist%" -T "TITLE=%title%" -T "ALBUM=%albumtitle%" -T "DATE=%year%" -T "TRACKNUMBER=%tracknr%" -T "GENRE=%genre%" -T "PERFORMER=%albuminterpret%" -T "COMPOSER=%composer%" %haslyrics%–tag-from-file=LYRICS="%lyricsfile%"%haslyrics% -T "ALBUMARTIST=%albumartist%" -T "DISCNUMBER=%cdnumber%" -T "TOTALDISCS=%totalcds%" -T "TOTALTRACKS=%numtracks%" -T "COMMENT=%comment%" %source% -o %dest%


TOC of the extracted CD

Track | Start | Length | Start sector | End sector
––––––––––––––––––––––––––––-
1 | 0:00.00 | 3:45.47 | 0 | 16921
2 | 3:45.47 | 4:15.44 | 16922 | 36090
3 | 8:01.16 | 8:51.61 | 36091 | 75976
4 | 16:53.02 | 4:41.41 | 75977 | 97092
5 | 21:34.43 | 3:00.49 | 97093 | 110641
6 | 24:35.17 | 5:16.42 | 110642 | 134383
7 | 29:51.59 | 4:45.38 | 134384 | 155796
8 | 34:37.22 | 6:01.45 | 155797 | 182916
9 | 40:38.67 | 6:33.67 | 182917 | 212458
10 | 47:12.59 | 3:22.20 | 212459 | 227628
11 | 50:35.04 | 4:20.41 | 227629 | 247169
12 | 54:55.45 | 4:31.20 | 247170 | 267514
13 | 59:26.65 | 4:40.49 | 267515 | 288563
14 | 64:07.39 | 5:29.50 | 288564 | 313288


Track 1

Filename D:\#New wav + flac II\VA - Beside Bowie (The Mick Ronson Story)\01. Queen, Ian Hunter, David Bowie, Mick Ronson, Joe Elliott, Phil Collen - All The Young Dudes (Live).wav

Pre-gap length 0:00:02.00

Peak level 99.8 %
Extraction speed 5.6 X
Track quality 100.0 %
Test CRC 89756DFD
Copy CRC 89756DFD
Accurately ripped (confidence 11) [3B415F44] (AR v2)
Copy OK

Track 2

Filename D:\#New wav + flac II\VA - Beside Bowie (The Mick Ronson Story)\02. Michael Chapman - Soulful Lady.wav

Pre-gap length 0:00:00.34

Peak level 88.1 %
Extraction speed 6.2 X
Track quality 100.0 %
Test CRC 772651BC
Copy CRC 772651BC
Accurately ripped (confidence 11) [02F46272] (AR v2)
Copy OK

Track 3

Filename D:\#New wav + flac II\VA - Beside Bowie (The Mick Ronson Story)\03. Elton John - Madman Across The Water.wav

Pre-gap length 0:00:01.88

Peak level 98.8 %
Extraction speed 6.8 X
Track quality 99.9 %
Test CRC BED8B014
Copy CRC BED8B014
Accurately ripped (confidence 11) [79E3B3DB] (AR v2)
Copy OK

Track 4

Filename D:\#New wav + flac II\VA - Beside Bowie (The Mick Ronson Story)\04. David Bowie - Moonage Daydream.wav

Pre-gap length 0:00:01.01

Peak level 92.9 %
Extraction speed 6.5 X
Track quality 99.9 %
Test CRC 7BDE5023
Copy CRC 7BDE5023
Accurately ripped (confidence 11) [084E6F08] (AR v2)
Copy OK

Track 5

Filename D:\#New wav + flac II\VA - Beside Bowie (The Mick Ronson Story)\05. David Bowie - Cracked Actor.wav

Pre-gap length 0:00:00.77

Peak level 95.7 %
Extraction speed 7.5 X
Track quality 100.0 %
Test CRC D5DD8913
Copy CRC D5DD8913
Accurately ripped (confidence 11) [2C1921EB] (AR v2)
Copy OK

Track 6

Filename D:\#New wav + flac II\VA - Beside Bowie (The Mick Ronson Story)\06. David Bowie - Time.wav

Pre-gap length 0:00:00.14

Peak level 94.9 %
Extraction speed 8.6 X
Track quality 100.0 %
Test CRC 4849B2C1
Copy CRC 4849B2C1
Accurately ripped (confidence 11) [DC244943] (AR v2)
Copy OK

Track 7

Filename D:\#New wav + flac II\VA - Beside Bowie (The Mick Ronson Story)\07. Ian Hunter - Once Bitten, Twice Shy.wav

Pre-gap length 0:00:00.46

Peak level 97.7 %
Extraction speed 7.6 X
Track quality 99.9 %
Test CRC 2EF3DC5D
Copy CRC 2EF3DC5D
Accurately ripped (confidence 11) [09AB5B4A] (AR v2)
Copy OK

Track 8

Filename D:\#New wav + flac II\VA - Beside Bowie (The Mick Ronson Story)\08. Mick Ronson - I’d Give Anything To See You.wav

Pre-gap length 0:00:01.80

Peak level 92.2 %
Extraction speed 9.5 X
Track quality 100.0 %
Test CRC D1395AFA
Copy CRC D1395AFA
Accurately ripped (confidence 11) [EF399332] (AR v2)
Copy OK

Track 9

Filename D:\#New wav + flac II\VA - Beside Bowie (The Mick Ronson Story)\09. Mick Ronson - Hard Life.wav

Pre-gap length 0:00:02.12

Peak level 82.0 %
Extraction speed 10.1 X
Track quality 100.0 %
Test CRC 7AF3976A
Copy CRC 7AF3976A
Accurately ripped (confidence 11) [C016DF0A] (AR v2)
Copy OK

Track 10

Filename D:\#New wav + flac II\VA - Beside Bowie (The Mick Ronson Story)\10. Mick Ronson - Midnight Love.wav

Pre-gap length 0:00:00.37

Peak level 99.8 %
Extraction speed 9.8 X
Track quality 100.0 %
Test CRC 984C1D42
Copy CRC 984C1D42
Accurately ripped (confidence 11) [6BE317BA] (AR v2)
Copy OK

Track 11

Filename D:\#New wav + flac II\VA - Beside Bowie (The Mick Ronson Story)\11. Mick Ronson - Like A Rolling Stone.wav

Pre-gap length 0:00:01.28

Peak level 88.9 %
Extraction speed 10.3 X
Track quality 100.0 %
Test CRC 430EDE1B
Copy CRC 430EDE1B
Accurately ripped (confidence 11) [DC17D130] (AR v2)
Copy OK

Track 12

Filename D:\#New wav + flac II\VA - Beside Bowie (The Mick Ronson Story)\12. Joe Elliott - This Is For You.wav

Pre-gap length 0:00:01.10

Peak level 79.4 %
Extraction speed 8.8 X
Track quality 99.9 %
Test CRC EC735491
Copy CRC EC735491
Accurately ripped (confidence 9) [558AD3B2] (AR v2)
Copy OK

Track 13

Filename D:\#New wav + flac II\VA - Beside Bowie (The Mick Ronson Story)\13. Queen, David Bowie, And Mick Ronson - Heroes.wav

Pre-gap length 0:00:01.73

Peak level 98.8 %
Extraction speed 10.8 X
Track quality 100.0 %
Test CRC 1A2D8599
Copy CRC 1A2D8599
Accurately ripped (confidence 11) [08236C27] (AR v2)
Copy OK

Track 14

Filename D:\#New wav + flac II\VA - Beside Bowie (The Mick Ronson Story)\14. Mike Garson - Tribute To Mick Ronson.wav

Pre-gap length 0:00:14.61

Peak level 98.7 %
Extraction speed 9.6 X
Track quality 99.9 %
Test CRC D2C024B8
Copy CRC D2C024B8
Accurately ripped (confidence 11) [6E2D6D64] (AR v2)
Copy OK


All tracks accurately ripped

No errors occurred

End of status report

–– CUETools DB Plugin V2.1.6

[CTDB TOCID: hxfTyqPflADpovu.L.1jbn8QaXk-] found
Submit result: hxfTyqPflADpovu.L.1jbn8QaXk- has been confirmed
Track | CTDB Status
1 | (31/31) Accurately ripped
2 | (31/31) Accurately ripped
3 | (31/31) Accurately ripped
4 | (31/31) Accurately ripped
5 | (31/31) Accurately ripped
6 | (31/31) Accurately ripped
7 | (30/31) Accurately ripped
8 | (31/31) Accurately ripped
9 | (31/31) Accurately ripped
10 | (31/31) Accurately ripped
11 | (31/31) Accurately ripped
12 | (30/31) Accurately ripped
13 | (31/31) Accurately ripped
14 | (31/31) Accurately ripped


==== Log checksum 987A8626B5C6077689DE429EBD5BA8539B97EB635AB7F3990B9B48DAA6B89D8F ====

Thanks to the Original ripper !