Subcategories

Various Artists - Bluesin' By The Bayou (2013) {Ace Records CDCHD 1368}

Posted By: ruskaval
Various Artists - Bluesin' By The Bayou (2013) {Ace Records CDCHD 1368}

Various Artists - Bluesin' By The Bayou (2013) {Ace Records CDCHD 1368}
EAC rip (secure mode) | FLAC (tracks)+CUE+LOG -> 218 Mb | MP3 @320 -> 141 Mb
Full Artwork @ 300 dpi (jpg) -> 26 Mb | 5% repair rar
© 2013 Ace Records | CDCHD 1368
Blues / Louisiana Blues

Hardly have we savoured the full taste of “Rhythm ’n’ Bluesin’ By The Bayou” than here comes another bucketful of steaming South Louisiana gumbo and this time it’s “Bluesin’ By The Bayou” – a spicy mix of guitars, harmonicas, and even the occasional accordion, accompanying those tales of despair or machismo that are the recipe for the blues.

All the tracks stem from the studios of J.D. Miller in Crowley and Eddie Shuler in Lake Charles. These two men were wonders at spotting talent and getting the best out of the performers, as illustrated on the 28 tracks on this CD.
Various Artists - Bluesin' By The Bayou (2013) {Ace Records CDCHD 1368}


Half of the songs are heard here for the first time, while the other half have appeared before on obscure 45s or long-deleted reissue LPs. Of the previously unissued numbers, some are alternate takes; they are not included just because they are alternates, but because they have something to offer and deserve to be heard.

The three earlier CDs in the “…By the Bayou” series made you feel like dancing. This collection makes for more reflective listening; maybe you’ll pick a little air guitar along with Lightnin’ Slim et al as you drink in the atmosphere of a juke joint on a steamy Louisiana night.

With blues giants Lightnin’ Slim, Lazy Lester, Slim Harpo and Lonesome Sundown augmented by lesser-known talents such as Silas Hogan, Jimmy Dotson, Joe Rich, Jimmy Anderson and Tal Miller, plus a touch of Zydeco from Clifton Chenier, Boozoo Chavis and Thaddeus Declouet, this is the first CD of its kind to be issued for many a moon.

Europeans took real notice of the blues some 60 years ago when Big Bill Broonzy and Muddy Waters first crossed the Atlantic, but it wasn’t until a band of enthusiasts founded the groundbreaking Blues Unlimited magazine at the start of the 60s that we began to discover just how much of this music was out there and how many obscure records there were to collect. And here we are, 50 years down the line, and still learning. So, whether you are an old-school blueser or new to the genre, there is something here for you

The ongoing joy of sifting through the tapes in the Miller vaults, which provide the backbone of this series, plus the hundreds of tracks already transferred, means that there will be more to come in the “…By The Bayou” series. Who knows what previously undiscovered gems may lie in the next unlabelled box to be opened.

In the meantime, let’s get groovin’ to some downhome blues – pass the jug!
Various Artists - Bluesin' By The Bayou (2013) {Ace Records CDCHD 1368}


Personnel & tracklist::
01 - Silas Hogan - Just Give Me A Chance
02 - Slim Harpo - That's Alright
03 - Lazy Lester - Late In The Evening
04 - Clifton Chenier - Worried Life Blues
05 - Thaddeus Declouet - Catch The Morning Train
06 - Lightnin' Slim - Big Fat Woman aka I'm Him
07 - Joe Rich - Dreaming, Dreaming
08 - Jimmy Dotson - Oh Baby
09 - Mr Mojo - They Say The World Loves A Lover
10 - Jimmy Anderson - In The Dark In The Park
11 - Blues Boy Dorsey - Walkin' Out My Door
12 - Joe Mayfield - I'm A Natural Born Man
13 - Boogie Jake - Early Morning Blues
14 - Honey Boy Allen - I'm A Real Lover Baby
15 - Boozoo Chavis - Forty One Days
16 - Thaddeus Declouet - Trouble Trouble
17 - Talton Miller - Long Journey (Life's Journey)
18 - Left Hand Charlie - Gonna Miss My Lognion
19 - Lightnin' Slim - I Ain't Got No Money
20 - Lonesome Sundown - I'm A Samplin Man
21 - Lazy Lester - I'm Gonna Leave You Baby
22 - Lightnin' Slim - Stranger In Your Town
23 - Silas Hogan - Sitting Here Wondering
24 - Leroy Washington - Lost Love Letter Blues
25 - Joe Rich - Lonesome Lover Blues
26 - Jimmy Anderson - I Want You, I Need You
27 - Sylvester Buckley - I Can Be On My Way
28 - Johnny Sonnier - Slow Walking Fever And The Asiatic Flu

Exact Audio Copy V1.0 beta 3 from 29. August 2011

EAC extraction logfile from 14. September 2013, 10:13

Various Artists / Bluesin' By The Bayou

Used drive : TSSTcorpCDDVDW SH-224BB Adapter: 0 ID: 0

Read mode : Secure
Utilize accurate stream : Yes
Defeat audio cache : Yes
Make use of C2 pointers : No

Read offset correction : 6
Overread into Lead-In and Lead-Out : No
Fill up missing offset samples with silence : Yes
Delete leading and trailing silent blocks : No
Null samples used in CRC calculations : Yes
Used interface : Native Win32 interface for Win NT & 2000
Gap handling : Appended to previous track

Used output format : User Defined Encoder
Selected bitrate : 128 kBit/s
Quality : High
Add ID3 tag : No
Command line compressor : C:\Program Files (x86)\FLAC\flac.exe
Additional command line options : -8 -V -T "ARTIST=%artist%" -T "TITLE=%title%" -T "ALBUM=%albumtitle%" -T "DATE=%year%" -T "TRACKNUMBER=%tracknr%" -T "TOTALTRACKS=%numtracks%" -T "GENRE=%genre%" -T "ALBUMARTIST=%albumartist%" -T "ALBUM ARTIST=%albumartist%" -T "COMMENT=EAC Secure Mode, Test & Copy, AccurateRip, FLAC -8" %source%


TOC of the extracted CD

Track | Start | Length | Start sector | End sector
––––––––––––––––––––––––––––-
1 | 0:00.00 | 2:07.26 | 0 | 9550
2 | 2:07.26 | 2:32.25 | 9551 | 20975
3 | 4:39.51 | 2:40.42 | 20976 | 33017
4 | 7:20.18 | 2:16.13 | 33018 | 43230
5 | 9:36.31 | 2:33.74 | 43231 | 54779
6 | 12:10.30 | 2:08.40 | 54780 | 64419
7 | 14:18.70 | 2:47.73 | 64420 | 77017
8 | 17:06.68 | 2:18.50 | 77018 | 87417
9 | 19:25.43 | 2:28.61 | 87418 | 98578
10 | 21:54.29 | 2:23.69 | 98579 | 109372
11 | 24:18.23 | 2:15.33 | 109373 | 119530
12 | 26:33.56 | 1:49.31 | 119531 | 127736
13 | 28:23.12 | 2:03.59 | 127737 | 137020
14 | 30:26.71 | 2:23.31 | 137021 | 147776
15 | 32:50.27 | 2:47.64 | 147777 | 160365
16 | 35:38.16 | 2:45.26 | 160366 | 172766
17 | 38:23.42 | 3:10.04 | 172767 | 187020
18 | 41:33.46 | 3:10.61 | 187021 | 201331
19 | 44:44.32 | 2:11.45 | 201332 | 211201
20 | 46:56.02 | 2:06.26 | 211202 | 220677
21 | 49:02.28 | 2:09.34 | 220678 | 230386
22 | 51:11.62 | 2:48.31 | 230387 | 243017
23 | 54:00.18 | 2:58.42 | 243018 | 256409
24 | 56:58.60 | 3:16.60 | 256410 | 271169
25 | 60:15.45 | 2:06.51 | 271170 | 280670
26 | 62:22.21 | 2:26.09 | 280671 | 291629
27 | 64:48.30 | 2:13.60 | 291630 | 301664
28 | 67:02.15 | 2:46.41 | 301665 | 314155


Track 1

Filename C:\Rips\Various Artists - Bluesin' By The Bayou (2013) [FLAC]\01 - Silas Hogan - Just Give Me A Chance.wav

Pre-gap length 0:00:02.00

Peak level 96.1 %
Extraction speed 3.9 X
Track quality 100.0 %
Test CRC 729DA896
Copy CRC 729DA896
Track not present in AccurateRip database
Copy OK

Track 2

Filename C:\Rips\Various Artists - Bluesin' By The Bayou (2013) [FLAC]\02 - Slim Harpo - That's Alright.wav

Pre-gap length 0:00:01.60

Peak level 96.1 %
Extraction speed 4.4 X
Track quality 100.0 %
Test CRC 7386B054
Copy CRC 7386B054
Track not present in AccurateRip database
Copy OK

Track 3

Filename C:\Rips\Various Artists - Bluesin' By The Bayou (2013) [FLAC]\03 - Lazy Lester - Late In The Evening.wav

Pre-gap length 0:00:02.04

Peak level 96.1 %
Extraction speed 4.6 X
Track quality 100.0 %
Test CRC 59D7CA0E
Copy CRC 59D7CA0E
Track not present in AccurateRip database
Copy OK

Track 4

Filename C:\Rips\Various Artists - Bluesin' By The Bayou (2013) [FLAC]\04 - Clifton Chenier - Worried Life Blues.wav

Pre-gap length 0:00:02.10

Peak level 96.1 %
Extraction speed 4.7 X
Track quality 100.0 %
Test CRC 6FB2D290
Copy CRC 6FB2D290
Track not present in AccurateRip database
Copy OK

Track 5

Filename C:\Rips\Various Artists - Bluesin' By The Bayou (2013) [FLAC]\05 - Thaddeus Declouet - Catch The Morning Train.wav

Pre-gap length 0:00:01.57

Peak level 94.4 %
Extraction speed 5.0 X
Track quality 100.0 %
Test CRC 6FCD1F44
Copy CRC 6FCD1F44
Track not present in AccurateRip database
Copy OK

Track 6

Filename C:\Rips\Various Artists - Bluesin' By The Bayou (2013) [FLAC]\06 - Lightnin' Slim - Big Fat Woman aka I'm Him.wav

Pre-gap length 0:00:02.05

Peak level 96.1 %
Extraction speed 5.1 X
Track quality 100.0 %
Test CRC A32E2460
Copy CRC A32E2460
Track not present in AccurateRip database
Copy OK

Track 7

Filename C:\Rips\Various Artists - Bluesin' By The Bayou (2013) [FLAC]\07 - Joe Rich - Dreaming, Dreaming.wav

Pre-gap length 0:00:01.73

Peak level 96.1 %
Extraction speed 4.2 X
Track quality 99.9 %
Test CRC E0D70044
Copy CRC E0D70044
Track not present in AccurateRip database
Copy OK

Track 8

Filename C:\Rips\Various Artists - Bluesin' By The Bayou (2013) [FLAC]\08 - Jimmy Dotson - Oh Baby.wav

Pre-gap length 0:00:02.22

Peak level 96.1 %
Extraction speed 5.6 X
Track quality 100.0 %
Test CRC EA34CCD5
Copy CRC EA34CCD5
Track not present in AccurateRip database
Copy OK

Track 9

Filename C:\Rips\Various Artists - Bluesin' By The Bayou (2013) [FLAC]\09 - Mr Mojo - They Say The World Loves A Lover.wav

Pre-gap length 0:00:02.19

Peak level 96.1 %
Extraction speed 5.8 X
Track quality 100.0 %
Test CRC 463F7EB3
Copy CRC 463F7EB3
Track not present in AccurateRip database
Copy OK

Track 10

Filename C:\Rips\Various Artists - Bluesin' By The Bayou (2013) [FLAC]\10 - Jimmy Anderson - In The Dark In The Park.wav

Pre-gap length 0:00:01.52

Peak level 96.1 %
Extraction speed 6.0 X
Track quality 100.0 %
Test CRC D6A423FD
Copy CRC D6A423FD
Track not present in AccurateRip database
Copy OK

Track 11

Filename C:\Rips\Various Artists - Bluesin' By The Bayou (2013) [FLAC]\11 - Blues Boy Dorsey - Walkin' Out My Door.wav

Pre-gap length 0:00:01.47

Peak level 96.1 %
Extraction speed 4.3 X
Track quality 99.9 %
Test CRC E3A1D692
Copy CRC E3A1D692
Track not present in AccurateRip database
Copy OK

Track 12

Filename C:\Rips\Various Artists - Bluesin' By The Bayou (2013) [FLAC]\12 - Joe Mayfield - I'm A Natural Born Man.wav

Pre-gap length 0:00:02.13

Peak level 95.5 %
Extraction speed 5.8 X
Track quality 100.0 %
Test CRC EA0799F7
Copy CRC EA0799F7
Track not present in AccurateRip database
Copy OK

Track 13

Filename C:\Rips\Various Artists - Bluesin' By The Bayou (2013) [FLAC]\13 - Boogie Jake - Early Morning Blues.wav

Pre-gap length 0:00:01.68

Peak level 96.1 %
Extraction speed 6.1 X
Track quality 100.0 %
Test CRC 7D80D6AE
Copy CRC 7D80D6AE
Track not present in AccurateRip database
Copy OK

Track 14

Filename C:\Rips\Various Artists - Bluesin' By The Bayou (2013) [FLAC]\14 - Honey Boy Allen - I'm A Real Lover Baby.wav

Pre-gap length 0:00:01.43

Peak level 96.1 %
Extraction speed 4.7 X
Track quality 99.9 %
Test CRC 16F401E7
Copy CRC 16F401E7
Track not present in AccurateRip database
Copy OK

Track 15

Filename C:\Rips\Various Artists - Bluesin' By The Bayou (2013) [FLAC]\15 - Boozoo Chavis - Forty One Days.wav

Pre-gap length 0:00:02.08

Peak level 96.1 %
Extraction speed 6.8 X
Track quality 100.0 %
Test CRC FBFF2861
Copy CRC FBFF2861
Track not present in AccurateRip database
Copy OK

Track 16

Filename C:\Rips\Various Artists - Bluesin' By The Bayou (2013) [FLAC]\16 - Thaddeus Declouet - Trouble Trouble.wav

Pre-gap length 0:00:01.28

Peak level 88.9 %
Extraction speed 5.2 X
Track quality 99.9 %
Test CRC 3781E9EA
Copy CRC 3781E9EA
Track not present in AccurateRip database
Copy OK

Track 17

Filename C:\Rips\Various Artists - Bluesin' By The Bayou (2013) [FLAC]\17 - Talton Miller - Long Journey (Life's Journey).wav

Pre-gap length 0:00:01.63

Peak level 96.1 %
Extraction speed 7.3 X
Track quality 100.0 %
Test CRC 65E9376F
Copy CRC 65E9376F
Track not present in AccurateRip database
Copy OK

Track 18

Filename C:\Rips\Various Artists - Bluesin' By The Bayou (2013) [FLAC]\18 - Left Hand Charlie - Gonna Miss My Lognion.wav

Pre-gap length 0:00:02.11

Peak level 96.1 %
Extraction speed 7.6 X
Track quality 100.0 %
Test CRC CC7395DA
Copy CRC CC7395DA
Track not present in AccurateRip database
Copy OK

Track 19

Filename C:\Rips\Various Artists - Bluesin' By The Bayou (2013) [FLAC]\19 - Lightnin' Slim - I Ain't Got No Money.wav

Pre-gap length 0:00:02.24

Peak level 96.1 %
Extraction speed 7.0 X
Track quality 100.0 %
Test CRC 871FADC6
Copy CRC 871FADC6
Track not present in AccurateRip database
Copy OK

Track 20

Filename C:\Rips\Various Artists - Bluesin' By The Bayou (2013) [FLAC]\20 - Lonesome Sundown - I'm A Samplin Man.wav

Pre-gap length 0:00:01.73

Peak level 96.1 %
Extraction speed 7.3 X
Track quality 100.0 %
Test CRC DF50BE74
Copy CRC DF50BE74
Track not present in AccurateRip database
Copy OK

Track 21

Filename C:\Rips\Various Artists - Bluesin' By The Bayou (2013) [FLAC]\21 - Lazy Lester - I'm Gonna Leave You Baby.wav

Pre-gap length 0:00:01.65

Peak level 81.2 %
Extraction speed 4.7 X
Track quality 99.9 %
Test CRC CF870924
Copy CRC CF870924
Track not present in AccurateRip database
Copy OK

Track 22

Filename C:\Rips\Various Artists - Bluesin' By The Bayou (2013) [FLAC]\22 - Lightnin' Slim - Stranger In Your Town.wav

Pre-gap length 0:00:02.18

Peak level 96.1 %
Extraction speed 7.9 X
Track quality 100.0 %
Test CRC BA334631
Copy CRC BA334631
Track not present in AccurateRip database
Copy OK

Track 23

Filename C:\Rips\Various Artists - Bluesin' By The Bayou (2013) [FLAC]\23 - Silas Hogan - Sitting Here Wondering.wav

Pre-gap length 0:00:02.09

Peak level 96.1 %
Extraction speed 8.1 X
Track quality 100.0 %
Test CRC 4FBA44AA
Copy CRC 4FBA44AA
Track not present in AccurateRip database
Copy OK

Track 24

Filename C:\Rips\Various Artists - Bluesin' By The Bayou (2013) [FLAC]\24 - Leroy Washington - Lost Love Letter Blues.wav

Pre-gap length 0:00:01.35

Peak level 96.1 %
Extraction speed 8.4 X
Track quality 100.0 %
Test CRC 94D32F05
Copy CRC 94D32F05
Track not present in AccurateRip database
Copy OK

Track 25

Filename C:\Rips\Various Artists - Bluesin' By The Bayou (2013) [FLAC]\25 - Joe Rich - Lonesome Lover Blues.wav

Pre-gap length 0:00:00.69

Peak level 96.1 %
Extraction speed 7.7 X
Track quality 100.0 %
Test CRC 2478C694
Copy CRC 2478C694
Track not present in AccurateRip database
Copy OK

Track 26

Filename C:\Rips\Various Artists - Bluesin' By The Bayou (2013) [FLAC]\26 - Jimmy Anderson - I Want You, I Need You.wav

Pre-gap length 0:00:01.56

Peak level 96.1 %
Extraction speed 8.3 X
Track quality 100.0 %
Test CRC 46990DC4
Copy CRC 46990DC4
Track not present in AccurateRip database
Copy OK

Track 27

Filename C:\Rips\Various Artists - Bluesin' By The Bayou (2013) [FLAC]\27 - Sylvester Buckley - I Can Be On My Way.wav

Pre-gap length 0:00:01.64

Peak level 96.1 %
Extraction speed 5.6 X
Track quality 99.9 %
Test CRC 48A82E92
Copy CRC 48A82E92
Track not present in AccurateRip database
Copy OK

Track 28

Filename C:\Rips\Various Artists - Bluesin' By The Bayou (2013) [FLAC]\28 - Johnny Sonnier - Slow Walking Fever And The Asiatic Flu.wav

Pre-gap length 0:00:01.48

Peak level 96.1 %
Extraction speed 8.5 X
Track quality 100.0 %
Test CRC B456D09C
Copy CRC B456D09C
Track not present in AccurateRip database
Copy OK


None of the tracks are present in the AccurateRip database

No errors occurred

End of status report

==== Log checksum 3D66078CFC20C95C86B43F7E1D9DF3E70888A3A2BE0ED1803D2E1850F7AD1113 ====


Various Artists - Bluesin' By The Bayou (2013) {Ace Records CDCHD 1368}

Various Artists - Bluesin' By The Bayou (2013) {Ace Records CDCHD 1368}


See Also:
Various Artists - Bluesin' By The Bayou: I'm Not Jiving (2016) {Ace Records CDCHD 1471}
Various Artists - Rhythm 'n' Bluesin' By The Bayou: Mad Dogs, Sweet Daddies & Pretty Babies (2015) {Ace Records CDCHD 1422}
Various Artists - Boppin' By The Bayou: Drive-Ins & Baby Dolls (2016) {Ace Records CDCHD 1486}
Various Artists - Rhythm 'n' Bluesin' By The Bayou: Nights Of Sin, Dirty Deals And Love Sick Souls (2016) {Ace Records}
Various Artists - Boppin' By The Bayou: Rock Me, Mama! (2015) {Ace Records CDCHD 1443}

Various Artists - Rhythm 'n' Bluesin' By The Bayou - Vocal Groups (2015) {Ace Records CDCHD 1448}
Various Artists - Rhythm 'n' Bluesin' By The Bayou: Rompin' & Stompin' (2014) {Ace Records CDCHD 1388}
Various Artists - Bluesin' By The Bayou: Rough 'n' Tough (2014) {Ace Records CDCHD 1403}
Various Artists - Boppin' By The Bayou: Made In The Shade (2014) {Ace Records CDCHD 1415}
Various Artists - Swamp Pop By The Bayou (2014) {Ace Records CDCHD 1397}


NEXT -> more By The Bayou Series on the way…


===