Subcategories

Various Artists - CMAA Presents: The Best Of Australian Country (2010)

Posted By: delpotro
Various Artists - CMAA Presents: The Best Of Australian Country (2010)

Various Artists - CMAA Presents: The Best Of Australian Country (2010)
EAC Rip | FLAC (tracks+log+.cue) | 02:36:38 | 1,02 Gb
Country | Label: EMI Music Australia

The Country Music Association of Australian and EMI Music have enjoyed a long and prestigious relationship for close to 20 years, with the annual release of the "Winners" compilation, collecting together the finalists from the Tamworth Golden Guitar Awards every year. Now comes this stunning double CD collection of timeless favourites from the superstars of the local country music scene, featuring Lee Kernaghan, Slim Dusty, Adam Brand, Adam Harvey, Beccy Cole, James Blundell, Kasey Chambers, Troy Cassar-Daley, Gina Jeffreys, John Williamson and many more.
Tracklist:
Disc 1
01. Lee Kernaghan - The Way It Is (4:13)
02. Sara Storer - Land Cries Out (3:53)
03. Adam Brand - Good Friends (3:40)
04. Kasey Chambers - Not Pretty Enough (3:19)
05. The McClymonts - My Life Again (3:21)
06. Davidson Brothers - Long Distance Love Affair (4:15)
07. Catherine Britt - Too Far Gone (3:47)
08. Carter & Carter - Candlelight And Kisses (3:58)
09. Jetty Road - Million Miles (3:29)
10. Melinda Schneider - The Story Of My Life (4:21)
11. Amos Morris - Home (3:43)
12. Lou Bradley - One Shoe (3:45)
13. The Wolverines - 65 Roses (3:54)
14. Felicity Urquhart - Big Black Cloud (4:42)
15. Shea Fisher - Everyday Girl (3:02)
16. Travis Collins - Rip It Up (3:27)
17. Dianna Corcoran - Then There's Me (3:37)
18. Warren H Williams - Family (3:58)
19. Redgum - I Was Only 19 (a walk in the light green) (4:18)
20. Harmony James - Precious Little (3:27)
21. Slim Dusty - Things I See Around Me (2:36)

Disc 2
01. Troy Cassar-Daley - Born To Survive (4:26)
02. Kasey Chambers & Shane Nicholson - Rattlin' Bones (3:40)
03. Adam Harvey - God Made Beer (3:50)
04. Gina Jeffreys - Dancin' With Elvis (3:23)
05. John Williamson - The Joy Is In The Journey (3:30)
06. Amber Lawrence - Good Girls (3:19)
07. Anne Kirkpatrick - Travellin' Still, Always Will (3:30)
08. James Blundell & James Reyne - Way Out West (4:00)
09. Tania Kernaghan & Lee Kernaghan - A Bushman Can't Survive (4:29)
10. Beccy Cole - Poster Girl (wrong side of the world) (3:58)
11. Karl Broadie & Dianna Corcoran - Count Your Blessings (2:49)
12. The Sunny Cowgirls - Dancing On The Darling (2:57)
13. Sam Hawksley - Come Back Baby (3:40)
14. Jasmine Rae - Country Singer (3:20)
15. Peter Denahy - Sort Of Dunno Nothin' (2:10)
16. Kirsty Lee Akers - Better Days (2:33)
17. Bella - Tumbling Down (3:58)
18. Tommy Emmanuel - Angelina (3:38)
19. Tamara Stewart - Lessons (i'll survive) (3:37)
20. The Bushwackers - This Is The Place For Me (4:09)
21. Eric Bogle - And The Band Played Waltzing Matilda (6:58)

Exact Audio Copy V1.0 beta 3 from 29. August 2011

EAC extraction logfile from 15. February 2012, 8:11

Various Artists / CMAA - Presents The Best Of Australian Country - CD1

Used drive : ASUS DRW-24B3ST Adapter: 0 ID: 2

Read mode : Secure
Utilize accurate stream : Yes
Defeat audio cache : Yes
Make use of C2 pointers : No

Read offset correction : 6
Overread into Lead-In and Lead-Out : No
Fill up missing offset samples with silence : Yes
Delete leading and trailing silent blocks : No
Null samples used in CRC calculations : Yes
Used interface : Native Win32 interface for Win NT & 2000
Gap handling : Appended to previous track

Used output format : User Defined Encoder
Selected bitrate : 1024 kBit/s
Quality : High
Add ID3 tag : No
Command line compressor : C:\Program Files (x86)\Exact Audio Copy\Flac\flac.exe
Additional command line options : -8 -V -T "Artist=%artist%" -T "Title=%title%" -T "Album=%albumtitle%" -T "Date=%year%" -T "Tracknumber=%tracknr%" -T "Genre=%genre%" %source% -o %dest%


TOC of the extracted CD

Track | Start | Length | Start sector | End sector
––––––––––––––––––––––––––––-
1 | 0:00.00 | 4:12.73 | 0 | 18972
2 | 4:12.73 | 3:52.59 | 18973 | 36431
3 | 8:05.57 | 3:40.37 | 36432 | 52968
4 | 11:46.19 | 3:18.67 | 52969 | 67885
5 | 15:05.11 | 3:20.52 | 67886 | 82937
6 | 18:25.63 | 4:15.12 | 82938 | 102074
7 | 22:41.00 | 3:47.12 | 102075 | 119111
8 | 26:28.12 | 3:58.36 | 119112 | 136997
9 | 30:26.48 | 3:28.48 | 136998 | 152645
10 | 33:55.21 | 4:21.03 | 152646 | 172223
11 | 38:16.24 | 3:43.04 | 172224 | 188952
12 | 41:59.28 | 3:45.16 | 188953 | 205843
13 | 45:44.44 | 3:54.10 | 205844 | 223403
14 | 49:38.54 | 4:41.55 | 223404 | 244533
15 | 54:20.34 | 3:01.38 | 244534 | 258146
16 | 57:21.72 | 3:26.71 | 258147 | 273667
17 | 60:48.68 | 3:36.41 | 273668 | 289908
18 | 64:25.34 | 3:58.11 | 289909 | 307769
19 | 68:23.45 | 4:18.18 | 307770 | 327137
20 | 72:41.63 | 3:27.20 | 327138 | 342682
21 | 76:09.08 | 2:35.72 | 342683 | 354379


Track 1

Filename E:\CMAA - Presents The Best Of Australian Country - flac\CD1\01 - Lee Kernaghan - The Way It Is.wav

Pre-gap length 0:00:02.00

Peak level 98.8 %
Extraction speed 3.2 X
Track quality 99.9 %
Test CRC 7B30007D
Copy CRC 7B30007D
Track not present in AccurateRip database
Copy OK

Track 2

Filename E:\CMAA - Presents The Best Of Australian Country - flac\CD1\02 - Sara Storer - Land Cries Out.wav

Pre-gap length 0:00:00.60

Peak level 93.3 %
Extraction speed 4.3 X
Track quality 100.0 %
Test CRC 9E7E880F
Copy CRC 9E7E880F
Track not present in AccurateRip database
Copy OK

Track 3

Filename E:\CMAA - Presents The Best Of Australian Country - flac\CD1\03 - Adam Brand - Good Friends.wav

Pre-gap length 0:00:00.92

Peak level 98.8 %
Extraction speed 4.6 X
Track quality 100.0 %
Test CRC DABE5C7B
Copy CRC DABE5C7B
Track not present in AccurateRip database
Copy OK

Track 4

Filename E:\CMAA - Presents The Best Of Australian Country - flac\CD1\04 - Kasey Chambers - Not Pretty Enough.wav

Pre-gap length 0:00:01.20

Peak level 98.8 %
Extraction speed 3.7 X
Track quality 99.9 %
Test CRC 022CDD3E
Copy CRC 022CDD3E
Track not present in AccurateRip database
Copy OK

Track 5

Filename E:\CMAA - Presents The Best Of Australian Country - flac\CD1\05 - The McClymonts - My Life Again.wav

Pre-gap length 0:00:00.60

Peak level 93.3 %
Extraction speed 4.9 X
Track quality 100.0 %
Test CRC 9426B16C
Copy CRC 9426B16C
Track not present in AccurateRip database
Copy OK

Track 6

Filename E:\CMAA - Presents The Best Of Australian Country - flac\CD1\06 - Davidson Brothers - Long Distance Love Affair.wav

Pre-gap length 0:00:01.22

Peak level 98.8 %
Extraction speed 5.4 X
Track quality 100.0 %
Test CRC EBE743CA
Copy CRC EBE743CA
Track not present in AccurateRip database
Copy OK

Track 7

Filename E:\CMAA - Presents The Best Of Australian Country - flac\CD1\07 - Catherine Britt - Too Far Gone.wav

Pre-gap length 0:00:01.01

Peak level 98.8 %
Extraction speed 5.6 X
Track quality 100.0 %
Test CRC 6CB319B4
Copy CRC 6CB319B4
Track not present in AccurateRip database
Copy OK

Track 8

Filename E:\CMAA - Presents The Best Of Australian Country - flac\CD1\08 - Carter & Carter - Candlelight And Kisses.wav

Pre-gap length 0:00:00.98

Peak level 98.8 %
Extraction speed 5.8 X
Track quality 100.0 %
Test CRC E7F42668
Copy CRC E7F42668
Track not present in AccurateRip database
Copy OK

Track 9

Filename E:\CMAA - Presents The Best Of Australian Country - flac\CD1\09 - Jetty Road - Million Miles.wav

Pre-gap length 0:00:00.80

Peak level 98.8 %
Extraction speed 5.9 X
Track quality 100.0 %
Test CRC 70018A3D
Copy CRC 70018A3D
Track not present in AccurateRip database
Copy OK

Track 10

Filename E:\CMAA - Presents The Best Of Australian Country - flac\CD1\10 - Melinda Schneider - The Story Of My Life.wav

Pre-gap length 0:00:00.89

Peak level 98.8 %
Extraction speed 6.3 X
Track quality 100.0 %
Test CRC 5309C0B8
Copy CRC 5309C0B8
Track not present in AccurateRip database
Copy OK

Track 11

Filename E:\CMAA - Presents The Best Of Australian Country - flac\CD1\11 - Amos Morris - Home.wav

Pre-gap length 0:00:00.89

Peak level 98.8 %
Extraction speed 6.4 X
Track quality 100.0 %
Test CRC 06447586
Copy CRC 06447586
Track not present in AccurateRip database
Copy OK

Track 12

Filename E:\CMAA - Presents The Best Of Australian Country - flac\CD1\12 - Lou Bradley - One Shoe.wav

Pre-gap length 0:00:00.98

Peak level 98.8 %
Extraction speed 6.7 X
Track quality 100.0 %
Test CRC DDE0BD9A
Copy CRC DDE0BD9A
Track not present in AccurateRip database
Copy OK

Track 13

Filename E:\CMAA - Presents The Best Of Australian Country - flac\CD1\13 - The Wolverines - 65 Roses.wav

Pre-gap length 0:00:00.58

Peak level 98.8 %
Extraction speed 6.9 X
Track quality 100.0 %
Test CRC 0B33E59F
Copy CRC 0B33E59F
Track not present in AccurateRip database
Copy OK

Track 14

Filename E:\CMAA - Presents The Best Of Australian Country - flac\CD1\14 - Felicity Urquhart - Big Black Cloud.wav

Pre-gap length 0:00:00.98

Peak level 98.8 %
Extraction speed 7.3 X
Track quality 100.0 %
Test CRC C88D55A2
Copy CRC C88D55A2
Track not present in AccurateRip database
Copy OK

Track 15

Filename E:\CMAA - Presents The Best Of Australian Country - flac\CD1\15 - Shea Fisher - Everyday Girl.wav

Pre-gap length 0:00:01.00

Peak level 98.8 %
Extraction speed 6.9 X
Track quality 100.0 %
Test CRC 20C7A895
Copy CRC 20C7A895
Track not present in AccurateRip database
Copy OK

Track 16

Filename E:\CMAA - Presents The Best Of Australian Country - flac\CD1\16 - Travis Collins - Rip It Up.wav

Pre-gap length 0:00:00.98

Peak level 98.8 %
Extraction speed 7.4 X
Track quality 100.0 %
Test CRC 5E56B056
Copy CRC 5E56B056
Track not present in AccurateRip database
Copy OK

Track 17

Filename E:\CMAA - Presents The Best Of Australian Country - flac\CD1\17 - Dianna Corcoran - Then There's Me.wav

Pre-gap length 0:00:01.05

Peak level 98.8 %
Extraction speed 7.4 X
Track quality 100.0 %
Test CRC 531011E8
Copy CRC 531011E8
Track not present in AccurateRip database
Copy OK

Track 18

Filename E:\CMAA - Presents The Best Of Australian Country - flac\CD1\18 - Warren H Williams - Family.wav

Pre-gap length 0:00:01.08

Peak level 98.8 %
Extraction speed 7.9 X
Track quality 100.0 %
Test CRC B5EBE8A8
Copy CRC B5EBE8A8
Track not present in AccurateRip database
Copy OK

Track 19

Filename E:\CMAA - Presents The Best Of Australian Country - flac\CD1\19 - Redgum - I Was Only 19 (a walk in the light green).wav

Pre-gap length 0:00:00.61

Peak level 98.8 %
Extraction speed 8.0 X
Track quality 100.0 %
Test CRC 606D2CB4
Copy CRC 606D2CB4
Track not present in AccurateRip database
Copy OK

Track 20

Filename E:\CMAA - Presents The Best Of Australian Country - flac\CD1\20 - Harmony James - Precious Little.wav

Pre-gap length 0:00:01.25

Peak level 98.8 %
Extraction speed 8.0 X
Track quality 100.0 %
Test CRC 1A6E4BDB
Copy CRC 1A6E4BDB
Track not present in AccurateRip database
Copy OK

Track 21

Filename E:\CMAA - Presents The Best Of Australian Country - flac\CD1\21 - Slim Dusty - Things I See Around Me.wav

Pre-gap length 0:00:00.94

Peak level 98.8 %
Extraction speed 7.5 X
Track quality 100.0 %
Test CRC DFFB9D8F
Copy CRC DFFB9D8F
Track not present in AccurateRip database
Copy OK


None of the tracks are present in the AccurateRip database

No errors occurred

End of status report

==== Log checksum 1153D56FEBAA6607E99181DAE4BB278A3C33DE77BCA130309091C7AA09A11465 ====

Exact Audio Copy V1.0 beta 3 from 29. August 2011

EAC extraction logfile from 15. February 2012, 9:59

Various Artists / CMAA - The Best Of Australian Country - CD2

Used drive : ASUS DRW-24B3ST Adapter: 0 ID: 2

Read mode : Secure
Utilize accurate stream : Yes
Defeat audio cache : Yes
Make use of C2 pointers : No

Read offset correction : 6
Overread into Lead-In and Lead-Out : No
Fill up missing offset samples with silence : Yes
Delete leading and trailing silent blocks : No
Null samples used in CRC calculations : Yes
Used interface : Native Win32 interface for Win NT & 2000
Gap handling : Appended to previous track

Used output format : User Defined Encoder
Selected bitrate : 1024 kBit/s
Quality : High
Add ID3 tag : No
Command line compressor : C:\Program Files (x86)\Exact Audio Copy\Flac\flac.exe
Additional command line options : -8 -V -T "Artist=%artist%" -T "Title=%title%" -T "Album=%albumtitle%" -T "Date=%year%" -T "Tracknumber=%tracknr%" -T "Genre=%genre%" %source% -o %dest%


TOC of the extracted CD

Track | Start | Length | Start sector | End sector
––––––––––––––––––––––––––––-
1 | 0:00.00 | 4:26.04 | 0 | 19953
2 | 4:26.04 | 3:39.68 | 19954 | 36446
3 | 8:05.72 | 3:50.05 | 36447 | 53701
4 | 11:56.02 | 3:22.38 | 53702 | 68889
5 | 15:18.40 | 3:29.61 | 68890 | 84625
6 | 18:48.26 | 3:19.32 | 84626 | 99582
7 | 22:07.58 | 3:29.62 | 99583 | 115319
8 | 25:37.45 | 4:00.10 | 115320 | 133329
9 | 29:37.55 | 4:29.11 | 133330 | 153515
10 | 34:06.66 | 3:58.17 | 153516 | 171382
11 | 38:05.08 | 2:48.44 | 171383 | 184026
12 | 40:53.52 | 2:56.46 | 184027 | 197272
13 | 43:50.23 | 3:40.12 | 197273 | 213784
14 | 47:30.35 | 3:20.13 | 213785 | 228797
15 | 50:50.48 | 2:10.32 | 228798 | 238579
16 | 53:01.05 | 2:32.38 | 238580 | 250017
17 | 55:33.43 | 3:58.31 | 250018 | 267898
18 | 59:31.74 | 3:37.53 | 267899 | 284226
19 | 63:09.52 | 3:36.41 | 284227 | 300467
20 | 66:46.18 | 4:08.70 | 300468 | 319137
21 | 70:55.13 | 6:58.10 | 319138 | 350497


Track 1

Filename E:\CMAA - Presents The Best Of Australian Country - flac\CD2\01 - Troy Cassar-Daley - Born To Survive.wav

Pre-gap length 0:00:02.00

Peak level 98.8 %
Extraction speed 3.9 X
Track quality 100.0 %
Test CRC 080DD250
Copy CRC 080DD250
Track not present in AccurateRip database
Copy OK

Track 2

Filename E:\CMAA - Presents The Best Of Australian Country - flac\CD2\02 - Kasey Chambers & Shane Nicholson - Rattlin' Bones.wav

Pre-gap length 0:00:00.64

Peak level 98.8 %
Extraction speed 4.2 X
Track quality 100.0 %
Test CRC 500C74FD
Copy CRC 500C74FD
Track not present in AccurateRip database
Copy OK

Track 3

Filename E:\CMAA - Presents The Best Of Australian Country - flac\CD2\03 - Adam Harvey - God Made Beer.wav

Pre-gap length 0:00:00.64

Peak level 96.6 %
Extraction speed 3.6 X
Track quality 99.9 %
Test CRC A6E58953
Copy CRC A6E58953
Track not present in AccurateRip database
Copy OK

Track 4

Filename E:\CMAA - Presents The Best Of Australian Country - flac\CD2\04 - Gina Jeffreys - Dancin' With Elvis.wav

Pre-gap length 0:00:00.81

Peak level 98.8 %
Extraction speed 3.7 X
Track quality 99.9 %
Test CRC 6F0650D4
Copy CRC 6F0650D4
Track not present in AccurateRip database
Copy OK

Track 5

Filename E:\CMAA - Presents The Best Of Australian Country - flac\CD2\05 - John Williamson - The Joy Is In The Journey.wav

Pre-gap length 0:00:00.88

Peak level 98.8 %
Extraction speed 3.9 X
Track quality 99.9 %
Test CRC C8FB8F49
Copy CRC C8FB8F49
Track not present in AccurateRip database
Copy OK

Track 6

Filename E:\CMAA - Presents The Best Of Australian Country - flac\CD2\06 - Amber Lawrence - Good Girls.wav

Pre-gap length 0:00:00.64

Peak level 98.8 %
Extraction speed 5.2 X
Track quality 100.0 %
Test CRC BADD8263
Copy CRC BADD8263
Track not present in AccurateRip database
Copy OK

Track 7

Filename E:\CMAA - Presents The Best Of Australian Country - flac\CD2\07 - Anne Kirkpatrick - Travellin' Still, Always Will.wav

Pre-gap length 0:00:01.06

Peak level 98.8 %
Extraction speed 4.2 X
Track quality 99.9 %
Test CRC 5F21086B
Copy CRC 5F21086B
Track not present in AccurateRip database
Copy OK

Track 8

Filename E:\CMAA - Presents The Best Of Australian Country - flac\CD2\08 - James Blundell & James Reyne - Way Out West.wav

Pre-gap length 0:00:00.50

Peak level 98.8 %
Extraction speed 5.8 X
Track quality 100.0 %
Test CRC ACBAE602
Copy CRC ACBAE602
Track not present in AccurateRip database
Copy OK

Track 9

Filename E:\CMAA - Presents The Best Of Australian Country - flac\CD2\09 - Tania Kernaghan & Lee Kernaghan - A Bushman Can't Survive.wav

Pre-gap length 0:00:00.81

Peak level 98.8 %
Extraction speed 6.1 X
Track quality 100.0 %
Test CRC 80F5BF7E
Copy CRC 80F5BF7E
Track not present in AccurateRip database
Copy OK

Track 10

Filename E:\CMAA - Presents The Best Of Australian Country - flac\CD2\10 - Beccy Cole - Poster Girl (wrong side of the world).wav

Pre-gap length 0:00:00.96

Peak level 98.8 %
Extraction speed 6.2 X
Track quality 100.0 %
Test CRC 279D87D9
Copy CRC 279D87D9
Track not present in AccurateRip database
Copy OK

Track 11

Filename E:\CMAA - Presents The Best Of Australian Country - flac\CD2\11 - Karl Broadie & Dianna Corcoran - Count Your Blessings.wav

Pre-gap length 0:00:00.92

Peak level 98.8 %
Extraction speed 6.1 X
Track quality 100.0 %
Test CRC E5070BDA
Copy CRC E5070BDA
Track not present in AccurateRip database
Copy OK

Track 12

Filename E:\CMAA - Presents The Best Of Australian Country - flac\CD2\12 - The Sunny Cowgirls - Dancing On The Darling.wav

Pre-gap length 0:00:00.98

Peak level 98.8 %
Extraction speed 4.7 X
Track quality 99.9 %
Test CRC 382D2004
Copy CRC 382D2004
Track not present in AccurateRip database
Copy OK

Track 13

Filename E:\CMAA - Presents The Best Of Australian Country - flac\CD2\13 - Sam Hawksley - Come Back Baby.wav

Pre-gap length 0:00:00.90

Peak level 98.8 %
Extraction speed 6.6 X
Track quality 100.0 %
Test CRC ADEFD58B
Copy CRC ADEFD58B
Track not present in AccurateRip database
Copy OK

Track 14

Filename E:\CMAA - Presents The Best Of Australian Country - flac\CD2\14 - Jasmine Rae - Country Singer.wav

Pre-gap length 0:00:00.98

Peak level 98.8 %
Extraction speed 5.1 X
Track quality 99.9 %
Test CRC BF4DF4D7
Copy CRC BF4DF4D7
Track not present in AccurateRip database
Copy OK

Track 15

Filename E:\CMAA - Presents The Best Of Australian Country - flac\CD2\15 - Peter Denahy - Sort Of Dunno Nothin'.wav

Pre-gap length 0:00:00.84

Peak level 98.8 %
Extraction speed 6.2 X
Track quality 100.0 %
Test CRC A08CF741
Copy CRC A08CF741
Track not present in AccurateRip database
Copy OK

Track 16

Filename E:\CMAA - Presents The Best Of Australian Country - flac\CD2\16 - Kirsty Lee Akers - Better Days.wav

Pre-gap length 0:00:00.81

Peak level 98.8 %
Extraction speed 6.7 X
Track quality 100.0 %
Test CRC 86B99BFD
Copy CRC 86B99BFD
Track not present in AccurateRip database
Copy OK

Track 17

Filename E:\CMAA - Presents The Best Of Australian Country - flac\CD2\17 - Bella - Tumbling Down.wav

Pre-gap length 0:00:00.61

Peak level 98.8 %
Extraction speed 7.3 X
Track quality 100.0 %
Test CRC C0152374
Copy CRC C0152374
Track not present in AccurateRip database
Copy OK

Track 18

Filename E:\CMAA - Presents The Best Of Australian Country - flac\CD2\18 - Tommy Emmanuel - Angelina.wav

Pre-gap length 0:00:00.98

Peak level 98.8 %
Extraction speed 7.3 X
Track quality 100.0 %
Test CRC 8BF9B601
Copy CRC 8BF9B601
Track not present in AccurateRip database
Copy OK

Track 19

Filename E:\CMAA - Presents The Best Of Australian Country - flac\CD2\19 - Tamara Stewart - Lessons (i'll survive).wav

Pre-gap length 0:00:00.42

Peak level 98.8 %
Extraction speed 7.6 X
Track quality 100.0 %
Test CRC 268D0048
Copy CRC 268D0048
Track not present in AccurateRip database
Copy OK

Track 20

Filename E:\CMAA - Presents The Best Of Australian Country - flac\CD2\20 - The Bushwackers - This Is The Place For Me.wav

Pre-gap length 0:00:00.84

Peak level 98.8 %
Extraction speed 7.8 X
Track quality 100.0 %
Test CRC 67A747C7
Copy CRC 67A747C7
Track not present in AccurateRip database
Copy OK

Track 21

Filename E:\CMAA - Presents The Best Of Australian Country - flac\CD2\21 - Eric Bogle - And The Band Played Waltzing Matilda.wav

Pre-gap length 0:00:00.85

Peak level 98.8 %
Extraction speed 8.6 X
Track quality 100.0 %
Test CRC 66C8B115
Copy CRC 66C8B115
Track not present in AccurateRip database
Copy OK


None of the tracks are present in the AccurateRip database

No errors occurred

End of status report

==== Log checksum 619AD437524AD5358631958890765FC53676C6A1585608707354ABA1E1F64CD7 ====

Thanks to the Original ripper Merseph !