Subcategories

VA - Cottage Industries 7 (2017)

Posted By: delpotro
VA - Cottage Industries 7 (2017)

VA - Cottage Industries 7 (2017)
EAC Rip | FLAC (tracks+log+.cue) | 01:13:03 | 409 Mb
Electronic, IDM, Experimental, Techno | Label: Neo Ouija

Neo Ouija takes the platter and spins it with their own textural funk on Cottage Industries 7. Cottage Industries 7 contains a wide range of beautiful electronics from relatively unknown and known musicians from around the world. The music fills the void that experimental electronic music seems to leave wide open. Rather than scratching your head at the end of this 73 minute excursion, you’re forced to think, relax, and sit back to contemplate. It becomes quite an adventure when music takes a new shape and form and Cottage Industries 8 makes that possible by allowing 14 different artists to create their own atmosphere’s and textures.
Tracklist
1. Coppice Halifax – Pink Plastic (07:02)
2. Tim Koch – Fopera (04:54)
3. Qeshi – Och Deflinen (04:46)
4. Ambidextrous – Subroutine (05:54)
5. Custola & Morgen Wurde – About Divers (05:57)
6. Ola Bauriman – Hourglass (03:44)
7. Mick Chillage – Initial Programs (04:45)
8. Metamatics – Cosmic Emotion (06:36)
9. Christ – Unfolded Protein (06:20)
10. Cryostasis – Pulsating With Life (07:52)
11. Derek Carr – Delta One (Touching Down) (03:40)
12. Roel Funcken – Circuit Interference (02:53)
13. Min-Y-Llan – Popty Ping (04:15)
14. Ruxpin – 40 Days And Night (04:26)

Exact Audio Copy V1.1 from 23. June 2015

EAC extraction logfile from 16. November 2017, 10:03

- / Cottage Industries 7

Used drive : ATAPI eHBU212 2 Adapter: 1 ID: 0

Read mode : Secure
Utilize accurate stream : Yes
Defeat audio cache : Yes
Make use of C2 pointers : No

Read offset correction : 6
Overread into Lead-In and Lead-Out : No
Fill up missing offset samples with silence : Yes
Delete leading and trailing silent blocks : No
Null samples used in CRC calculations : Yes
Used interface : Native Win32 interface for Win NT & 2000
Gap handling : Appended to previous track

Used output format : User Defined Encoder
Selected bitrate : 1024 kBit/s
Quality : High
Add ID3 tag : No
Command line compressor : C:\Program Files (x86)\Exact Audio Copy\Flac\flac.exe
Additional command line options : -8 -V -T "artist=%artist%" -T "title=%title%" -T "album=%albumtitle%" -T "date=%year%" -T "tracknumber=%tracknr%" -T "genre=%genre%" %source%


TOC of the extracted CD

Track | Start | Length | Start sector | End sector
––––––––––––––––––––––––––––-
1 | 0:00.00 | 7:02.06 | 0 | 31655
2 | 7:02.06 | 4:54.03 | 31656 | 53708
3 | 11:56.09 | 4:45.44 | 53709 | 75127
4 | 16:41.53 | 5:53.61 | 75128 | 101663
5 | 22:35.39 | 5:56.60 | 101664 | 128423
6 | 28:32.24 | 3:44.25 | 128424 | 145248
7 | 32:16.49 | 4:45.14 | 145249 | 166637
8 | 37:01.63 | 6:35.47 | 166638 | 196309
9 | 43:37.35 | 6:20.00 | 196310 | 224809
10 | 49:57.35 | 7:52.13 | 224810 | 260222
11 | 57:49.48 | 3:40.01 | 260223 | 276723
12 | 61:29.49 | 2:53.14 | 276724 | 289712
13 | 64:22.63 | 4:14.42 | 289713 | 308804
14 | 68:37.30 | 4:25.53 | 308805 | 328732


Track 1

Filename D:\M\Own rips\CD - Flac\Various artists - Cottage Industries 7 [2017] FLAC\01 - Coppice Halifax - Pink Plastic.wav

Pre-gap length 0:00:02.00

Peak level 94.0 %
Extraction speed 2.3 X
Track quality 100.0 %
Test CRC 9F9330E7
Copy CRC 9F9330E7
Track not present in AccurateRip database
Copy OK

Track 2

Filename D:\M\Own rips\CD - Flac\Various artists - Cottage Industries 7 [2017] FLAC\02 - Tim Koch - Fopera.wav

Peak level 100.0 %
Extraction speed 2.5 X
Track quality 100.0 %
Test CRC 6A0CE15A
Copy CRC 6A0CE15A
Track not present in AccurateRip database
Copy OK

Track 3

Filename D:\M\Own rips\CD - Flac\Various artists - Cottage Industries 7 [2017] FLAC\03 - Qeshi - Och Deflinen.wav

Peak level 94.9 %
Extraction speed 2.7 X
Track quality 100.0 %
Test CRC 798F7F91
Copy CRC 798F7F91
Track not present in AccurateRip database
Copy OK

Track 4

Filename D:\M\Own rips\CD - Flac\Various artists - Cottage Industries 7 [2017] FLAC\04 - Ambidextrous - Subroutine.wav

Peak level 94.4 %
Extraction speed 3.0 X
Track quality 100.0 %
Test CRC 78A6FF89
Copy CRC 78A6FF89
Track not present in AccurateRip database
Copy OK

Track 5

Filename D:\M\Own rips\CD - Flac\Various artists - Cottage Industries 7 [2017] FLAC\05 - Custola & Morgen Wurde - About Divers.wav

Peak level 94.3 %
Extraction speed 3.2 X
Track quality 100.0 %
Test CRC 8A8536D9
Copy CRC 8A8536D9
Track not present in AccurateRip database
Copy OK

Track 6

Filename D:\M\Own rips\CD - Flac\Various artists - Cottage Industries 7 [2017] FLAC\06 - Ola Bauriman - Hourglass.wav

Peak level 94.4 %
Extraction speed 3.3 X
Track quality 100.0 %
Test CRC 88E4100B
Copy CRC 88E4100B
Track not present in AccurateRip database
Copy OK

Track 7

Filename D:\M\Own rips\CD - Flac\Various artists - Cottage Industries 7 [2017] FLAC\07 - Mick Chillage - Initial Programs.wav

Peak level 93.7 %
Extraction speed 2.7 X
Track quality 99.9 %
Test CRC A259F436
Copy CRC A259F436
Track not present in AccurateRip database
Copy OK

Track 8

Filename D:\M\Own rips\CD - Flac\Various artists - Cottage Industries 7 [2017] FLAC\08 - Metamatics - Cosmic Emotion.wav

Peak level 96.9 %
Extraction speed 3.8 X
Track quality 100.0 %
Test CRC 53503B07
Copy CRC 53503B07
Track not present in AccurateRip database
Copy OK

Track 9

Filename D:\M\Own rips\CD - Flac\Various artists - Cottage Industries 7 [2017] FLAC\09 - Christ. - Unfolded Protein.wav

Peak level 95.8 %
Extraction speed 4.0 X
Track quality 100.0 %
Test CRC 088618BD
Copy CRC 088618BD
Track not present in AccurateRip database
Copy OK

Track 10

Filename D:\M\Own rips\CD - Flac\Various artists - Cottage Industries 7 [2017] FLAC\10 - Cryostasis - Pulsating with Life (Dokun remix).wav

Peak level 98.7 %
Extraction speed 4.2 X
Track quality 100.0 %
Test CRC 9BD39EF9
Copy CRC 9BD39EF9
Track not present in AccurateRip database
Copy OK

Track 11

Filename D:\M\Own rips\CD - Flac\Various artists - Cottage Industries 7 [2017] FLAC\11 - Derek Carr - Delta One (Touching Down).wav

Peak level 100.0 %
Extraction speed 4.1 X
Track quality 100.0 %
Test CRC D4DB3838
Copy CRC D4DB3838
Track not present in AccurateRip database
Copy OK

Track 12

Filename D:\M\Own rips\CD - Flac\Various artists - Cottage Industries 7 [2017] FLAC\12 - Roel Funcken - Circuit Interference.wav

Peak level 94.8 %
Extraction speed 4.0 X
Track quality 100.0 %
Test CRC 4B621391
Copy CRC 4B621391
Track not present in AccurateRip database
Copy OK

Track 13

Filename D:\M\Own rips\CD - Flac\Various artists - Cottage Industries 7 [2017] FLAC\13 - Min-Y-Llan - Popty Ping.wav

Peak level 94.3 %
Extraction speed 4.3 X
Track quality 100.0 %
Test CRC 533587FB
Copy CRC 533587FB
Track not present in AccurateRip database
Copy OK

Track 14

Filename D:\M\Own rips\CD - Flac\Various artists - Cottage Industries 7 [2017] FLAC\14 - Ruxpin - 40 Days and Night.wav

Peak level 94.7 %
Extraction speed 4.5 X
Track quality 100.0 %
Test CRC 0C60051B
Copy CRC 0C60051B
Track not present in AccurateRip database
Copy OK


None of the tracks are present in the AccurateRip database

No errors occurred

End of status report

–– CUETools DB Plugin V2.1.6

[CTDB TOCID: 9LVqHCzh2WUns2kDiF.91VH_x7A-] found
Submit result: 9LVqHCzh2WUns2kDiF.91VH_x7A- has been confirmed
Track | CTDB Status
1 | (1/1) Accurately ripped
2 | (1/1) Accurately ripped
3 | (1/1) Accurately ripped
4 | (1/1) Accurately ripped
5 | (1/1) Accurately ripped
6 | (1/1) Accurately ripped
7 | (1/1) Accurately ripped
8 | (1/1) Accurately ripped
9 | (1/1) Accurately ripped
10 | (1/1) Accurately ripped
11 | (1/1) Accurately ripped
12 | (1/1) Accurately ripped
13 | (1/1) Accurately ripped
14 | (1/1) Accurately ripped


==== Log checksum ECF4B443DB7E9F7E9941ECA54A048E9503E42C740E637D162707FEB54DDE78D8 ====

Thanks to the Original ripper Haarry !