Subcategories

Various Artists - Deutsches Jazz Festival, Frankfurt 1954-1955 (1990) {8CD Box Set Bear Family BCD 15430}

Posted By: ruskaval
Various Artists - Deutsches Jazz Festival, Frankfurt 1954-1955 (1990) {8CD Box Set Bear Family BCD 15430}

Various Artists - Deutsches Jazz Festival, Frankfurt 1954-1955 (1990) {8CD Box Set Bear Family BCD 15430}
EAC rip (secure mode) | FLAC (tracks)+CUE+LOG -> 2.58 Gb | MP3 @320 -> 1.21 Gb
Full Artwork @ 300 dpi (jpg) -> 121 Mb | 5% repair rar
© 1954-55, 1990 Brunswick / Bear Family Records | BCD 15430
Jazz / Traditional Jazz / Cool / Continental Jazz / Jump / Swing / Big Band / Third Stream

8-CD box (LP-size) with 47-page book, 137 tracks. Playing time approx. 725 mns. The third German Jazz Festival in 1955 was a four-day event that featured nearly 30 groups and soloists. It was recorded by Deutsche Grammophon for release on Brunswick, but only parts of it were released on long-deleted EPs. The complete tapes survived though. The 1954 festival was also recorded, but only the portion issued on an EP was saved. Now the surviving portion of the 1954 festival and the entire 1955 festival are issued complete by Bear Family on eight CDs.
Various Artists - Deutsches Jazz Festival, Frankfurt 1954-1955 (1990) {8CD Box Set Bear Family BCD 15430}

The book includes complete documentation, discographical details and rare photos. It's a complete picture of the German jazz scene from the mid-Fifties, ranging from Trad (Spree City Stompers, Two Beat Stompers) to Swing (Paul Kuhn, Heinz Schoenberger, Glen Buschmann, Helmut Weglinski), to Jump (Delle Haensch), and Cool Jazz (Jutta Hipp with Albert Mangelsdorff, the Helmut Brand Combo with its Baker-Mulligan sound, and Wolfgang Lauth).

Various Artists - Deutsches Jazz Festival, Frankfurt 1954-1955 (1990) {8CD Box Set Bear Family BCD 15430}


Also present were vocalist Wolfgang Sauer, and the 'Third Stream' sound of the Harald Banter Tentet. Both preeminent German big bands were there (Kurt Edelhagen with Caterina Valente and Erwin Lehn). This is an absolute Must-Have item for anyone interested in German jazz.
Various Artists - Deutsches Jazz Festival, Frankfurt 1954-1955 (1990) {8CD Box Set Bear Family BCD 15430}


personnel & tracklist:
CD1

01 - Two Beat Stompers - Moderation
02 - Two Beat Stompers - Jennie's Ball
03 - Hugo Strasser - Flamingo
04 - Hans Koller - Fine And Dandy
05 - Kurt Edelhagen - Just You Just Me
06 - Caterina Valente - Is You Is Or Is You Ain't My Baby
07 - Jutta Hipp - I Never Knew
08 - Fred Bunge - Creole Love Call
09 - Rolf Kuhn - September Song
10 - Kurt Edelhagen - Jazz Time Riff
11 - Paul Kuhn - Pauls Festival
12 - Johannes Rediske - Lullaby Of Birdland
13 - Heinz Schonberger - Klagita
14 - Caterina Valente - Festival Jump

Various Artists - Deutsches Jazz Festival, Frankfurt 1954-1955 (1990) {8CD Box Set Bear Family BCD 15430}


CD2
01 - Spree City Stompers - Moderation
02 - Spree City Stompers - Get Out Of Here
03 - Spree City Stompers - Just A Blues
04 - Spree City Stompers - Just A Closer Walk With Thee
05 - Spree City Stompers - St James Infirmary
06 - Spree City Stompers - Eight Bar Blues
07 - Spree City Stompers - That Da-Da Strain-Moderation
08 - Two Beat Stompers - Mississippi Mud
09 - Two Beat Stompers - Got No Blues
10 - Two Beat Stompers - Panama
11 - Two Beat Stompers - Black Bottom Blues
12 - Two Beat Stompers - I'm Confessin'
13 - Two Beat Stompers - The Music Goes 'Round And 'Round
14 - Delle Haensch - Moderation
15 - Delle Haensch - Manuskript Blues
16 - Delle Haensch - Blue Moon
17 - Delle Haensch - There's No One But You
18 - Delle Haensch - Hey Good Looking
19 - Delle Haensch - Flamingo Special

Various Artists - Deutsches Jazz Festival, Frankfurt 1954-1955 (1990) {8CD Box Set Bear Family BCD 15430}


CD3
01 - Kurt Edelhagen - Moderation–There's No You
02 - Kurt Edelhagen - Big John Special
03 - Kurt Edelhagen - You Go To My Head
04 - Kurt Edelhagen - Jazz 55
05 - Kurt Edelhagen - Nancy And The Colonel
06 - Kurt Edelhagen - Light Stuff
07 - Kurt Edelhagen - Lover Man
08 - Kurt Edelhagen - Flying Home
09 - Kurt Edelhagen & Caterina Valente - My Funny Valentine
10 - Kurt Edelhagen & Caterina Valente - I Ain't Gonna Tell You
11 - Kurt Edelhagen - Don't Blame Me
12 - Kurt Edelhagen - T-Time
13 - Kurt Edelhagen - Purple Hyazinth
14 - Silvio Francesco - Moderation
15 - Silvio Francesco - All The Things You Are
16 - Silvio Francesco - Long Long Journey
17 - Silvio Francesco & Caterina Valente - Ain't Misbehavin'

Various Artists - Deutsches Jazz Festival, Frankfurt 1954-1955 (1990) {8CD Box Set Bear Family BCD 15430}


CD4
01 - Glen Buschmann - Moderation
02 - Glen Buschmann - Lagwood Walk
03 - Glen Buschmann - All Of Me
04 - Glen Buschmann - Farewell Blues
05 - Glen Buschmann - St Louis Blues
06 - Glen Buschmann - Blue Prelude
07 - Glen Buschmann - For You My Love
08 - Heinz Schonberger - Moderation
09 - Heinz Schonberger - Just One Of Those Things
10 - Heinz Schonberger - Shine
11 - Heinz Schonberger - Embraceable You
12 - Heinz Schonberger - Berlin Blues
13 - Rolf Kuhn - Moderation
14 - Rolf Kuhn - All The Things You Are
15 - Rolf Kuhn - Too Marvelous For Words
16 - Rolf Kuhn - Frankfurt Blues

Various Artists - Deutsches Jazz Festival, Frankfurt 1954-1955 (1990) {8CD Box Set Bear Family BCD 15430}


CD5
01 - Jutta Hipp - Moderation
02 - Jutta Hipp - Hipp-Noses
03 - Jutta Hipp - The Song Is You
04 - Jutta Hipp - Indian Summer
05 - Jutta Hipp - A Cool Talk
06 - Jutta Hipp - These Foolish Things
07 - Jutta Hipp - Gone With The Wind
08 - Hans Koller - Moderation
09 - Hans Koller - Jutta
10 - Hans Koller - Iris
11 - Hans Koller - When Your Lover Has Gone
12 - Hans Koller - Porsche

Various Artists - Deutsches Jazz Festival, Frankfurt 1954-1955 (1990) {8CD Box Set Bear Family BCD 15430}


CD6
01 - Helmut Brandt - Moderation
02 - Helmut Brandt - Squeeze Me
03 - Helmut Brandt - Sum
04 - Helmut Brandt - The Breeze And I
05 - Helmut Brandt - I Can't Believe That You're In Love With Me
06 - Erhard Wenig - Moderation
07 - Erhard Wenig - Out Of Nowhere
08 - Erhard Wenig - Tenor Jump
09 - Erhard Wenig - September Riff
10 - Freddy Christmann - Moderation
11 - Freddy Christmann - Cynthia's In Love
12 - Freddy Christmann - As Long As There's Music
13 - Freddy Christmann - First Love
14 - Freddy Christmann - Passe
15 - Wolfgang Lauth - Moderation
16 - Wolfgang Lauth - Thema In B
17 - Wolfgang Lauth - Tomorrow
18 - Wolfgang Lauth - Cool March
19 - Wolfgang Lauth - Cave Souvenir

Various Artists - Deutsches Jazz Festival, Frankfurt 1954-1955 (1990) {8CD Box Set Bear Family BCD 15430}


CD7
01 - Erwin Lehn - Moderation
02 - Erwin Lehn - Jumpin' With Symphony Sid
03 - Erwin Lehn - Blues Intermezzo
04 - Erwin Lehn - Gerry Walks
05 - Erwin Lehn - Cool Street
06 - Erwin Lehn - Autumn Nocturne
07 - Erwin Lehn - Conference Mit Mosch
08 - Erwin Lehn - What Is This Thing Called Love
09 - Erwin Lehn - Blues Fur Tenorsaxophon
10 - Erwin Lehn - Lester Leaps In
11 - Erwin Lehn - EVG
12 - Erwin Lehn - Flyin' Home
13 - Harald Banter - Moderation
14 - Harald Banter - Indikativ
15 - Harald Banter - Moon Over Miami
16 - Harald Banter - Autumn In New York
17 - Harald Banter - Tabu Jump
18 - Harald Banter - Polyphona
19 - Harald Banter - Nature Boy
20 - Harald Banter - Happy Days Are Here Again

Various Artists - Deutsches Jazz Festival, Frankfurt 1954-1955 (1990) {8CD Box Set Bear Family BCD 15430}


CD8
01 - Johannes Rediske - Moderation
02 - Johannes Rediske - Chloe
03 - Johannes Rediske - Out Of Nowhere
04 - Johannes Rediske - Boptical Illusion
05 - Johannes Rediske - Sweet Georgia Brown
06 - Paul Kuhn - Moderation
07 - Paul Kuhn - Thou Swell
08 - Paul Kuhn - Dancing In The Dark
09 - Paul Kuhn - Delaunay's Dilemma
10 - Paul Kuhn - Jumpin' At The Rosengarten
11 - Helmut Weglinski - Moderation
12 - Helmut Weglinski - Flip
13 - Helmut Weglinski - Ghost Of A Chance
14 - Helmut Weglinski - Crazy Rhythm
15 - New Jazz Group Hannover - Moderation
16 - New Jazz Group Hannover - To Dance Or Not To Dance
17 - New Jazz Group Hannover - I Only Have Eyes For You
18 - New Jazz Group Hannover - Lover Man
19 - New Jazz Group Hannover - Continuation

Various Artists - Deutsches Jazz Festival, Frankfurt 1954-1955 (1990) {8CD Box Set Bear Family BCD 15430}


Exact Audio Copy V1.0 beta 1 from 15. November 2010

EAC extraction logfile from 6. April 2011, 23:40

Various / Deutsches Jazz Festival 1954-1955

Used drive : TSSTcorpCDDVDW SH-S203N Adapter: 0 ID: 2

Read mode : Secure
Utilize accurate stream : Yes
Defeat audio cache : Yes
Make use of C2 pointers : No

Read offset correction : 6
Overread into Lead-In and Lead-Out : No
Fill up missing offset samples with silence : Yes
Delete leading and trailing silent blocks : No
Null samples used in CRC calculations : Yes
Used interface : Installed external ASPI interface
Gap handling : Appended to previous track

Used output format : User Defined Encoder
Selected bitrate : 768 kBit/s
Quality : High
Add ID3 tag : No
Command line compressor : C:\Program Files\Exact Audio Copy-NEW\Flac\flac.exe
Additional command line options : -8 -V -T "ARTIST=%a" -T "TITLE=%t" -T "ALBUM=%g" -T "DATE=%y" -T "TRACKNUMBER=%n" -T "TOTALTRACKS=%x" -T "GENRE=%m" -T "ALBUMARTIST=%v" -T "ALBUM ARTIST=%v" -T "COMMENT=EAC V1.01b1, Secure Mode, Test & Copy, AccurateRip, FL


TOC of the extracted CD

Track | Start | Length | Start sector | End sector
––––––––––––––––––––––––––––-
1 | 0:00.33 | 0:42.30 | 33 | 3212
2 | 0:42.63 | 3:44.40 | 3213 | 20052
3 | 4:27.28 | 3:54.67 | 20053 | 37669
4 | 8:22.20 | 2:23.38 | 37670 | 48432
5 | 10:45.58 | 2:38.00 | 48433 | 60282
6 | 13:23.58 | 2:47.32 | 60283 | 72839
7 | 16:11.15 | 3:21.38 | 72840 | 87952
8 | 19:32.53 | 9:08.30 | 87953 | 129082
9 | 28:41.08 | 4:04.67 | 129083 | 147449
10 | 32:46.00 | 3:26.33 | 147450 | 162932
11 | 36:12.33 | 4:57.72 | 162933 | 185279
12 | 41:10.30 | 2:57.10 | 185280 | 198564
13 | 44:07.40 | 4:54.35 | 198565 | 220649
14 | 49:02.00 | 16:17.70 | 220650 | 293994


Track 1

Filename J:\New Rips\VA - Deutsches Jazz Festival 1954-1955 (1990) [FLAC]\disc 1of8\01 - Unknown - Moderation.wav

Pre-gap length 0:00:02.33

Peak level 93.3 %
Extraction speed 1.0 X
Track quality 100.0 %
Test CRC EE665561
Copy CRC EE665561
Track not present in AccurateRip database
Copy OK

Track 2

Filename J:\New Rips\VA - Deutsches Jazz Festival 1954-1955 (1990) [FLAC]\disc 1of8\02 - Two Beat Stompers - Jennie's Ball.wav

Peak level 93.3 %
Extraction speed 2.0 X
Track quality 100.0 %
Test CRC 67150CF1
Copy CRC 67150CF1
Track not present in AccurateRip database
Copy OK

Track 3

Filename J:\New Rips\VA - Deutsches Jazz Festival 1954-1955 (1990) [FLAC]\disc 1of8\03 - Hugo Strasser - Flamingo.wav

Peak level 95.5 %
Extraction speed 2.2 X
Track quality 100.0 %
Test CRC 3194CA52
Copy CRC 3194CA52
Track not present in AccurateRip database
Copy OK

Track 4

Filename J:\New Rips\VA - Deutsches Jazz Festival 1954-1955 (1990) [FLAC]\disc 1of8\04 - Hans Koller New Jazz Stars - Fine And Dandy.wav

Peak level 88.6 %
Extraction speed 2.1 X
Track quality 100.0 %
Test CRC 96561F12
Copy CRC 96561F12
Track not present in AccurateRip database
Copy OK

Track 5

Filename J:\New Rips\VA - Deutsches Jazz Festival 1954-1955 (1990) [FLAC]\disc 1of8\05 - Edelhagen All Stars - Just You Just Me.wav

Peak level 98.8 %
Extraction speed 2.2 X
Track quality 100.0 %
Test CRC 0CCFCAE4
Copy CRC 0CCFCAE4
Track not present in AccurateRip database
Copy OK

Track 6

Filename J:\New Rips\VA - Deutsches Jazz Festival 1954-1955 (1990) [FLAC]\disc 1of8\06 - Caterina Valente - Is You Is Or Is You Ain't My Baby.wav

Peak level 86.9 %
Extraction speed 2.4 X
Track quality 100.0 %
Test CRC 77F521D1
Copy CRC 77F521D1
Track not present in AccurateRip database
Copy OK

Track 7

Filename J:\New Rips\VA - Deutsches Jazz Festival 1954-1955 (1990) [FLAC]\disc 1of8\07 - Jutta Hipp - I Never Knew.wav

Peak level 81.4 %
Extraction speed 2.6 X
Track quality 100.0 %
Test CRC 58EA5CFB
Copy CRC 58EA5CFB
Track not present in AccurateRip database
Copy OK

Track 8

Filename J:\New Rips\VA - Deutsches Jazz Festival 1954-1955 (1990) [FLAC]\disc 1of8\08 - Fred Bunge - Creole Love Call.wav

Peak level 84.7 %
Extraction speed 3.1 X
Track quality 100.0 %
Test CRC 373D05B8
Copy CRC 373D05B8
Track not present in AccurateRip database
Copy OK

Track 9

Filename J:\New Rips\VA - Deutsches Jazz Festival 1954-1955 (1990) [FLAC]\disc 1of8\09 - Rolf Kuhn - September Song.wav

Peak level 78.7 %
Extraction speed 3.1 X
Track quality 100.0 %
Test CRC F68654AB
Copy CRC F68654AB
Track not present in AccurateRip database
Copy OK

Track 10

Filename J:\New Rips\VA - Deutsches Jazz Festival 1954-1955 (1990) [FLAC]\disc 1of8\10 - Kurt Edelhagen - Jazz Time Riff.wav

Peak level 92.2 %
Extraction speed 3.1 X
Track quality 100.0 %
Test CRC D3319D1B
Copy CRC D3319D1B
Track not present in AccurateRip database
Copy OK

Track 11

Filename J:\New Rips\VA - Deutsches Jazz Festival 1954-1955 (1990) [FLAC]\disc 1of8\11 - Paul Kuhn - Pauls Festival.wav

Peak level 84.3 %
Extraction speed 3.4 X
Track quality 100.0 %
Test CRC 96F00C2D
Copy CRC 96F00C2D
Track not present in AccurateRip database
Copy OK

Track 12

Filename J:\New Rips\VA - Deutsches Jazz Festival 1954-1955 (1990) [FLAC]\disc 1of8\12 - Johannes Rediske - Lullaby Of Birdland.wav

Peak level 74.6 %
Extraction speed 3.2 X
Track quality 100.0 %
Test CRC B661E58A
Copy CRC B661E58A
Track not present in AccurateRip database
Copy OK

Track 13

Filename J:\New Rips\VA - Deutsches Jazz Festival 1954-1955 (1990) [FLAC]\disc 1of8\13 - Heinz Schonberger - Klagita.wav

Peak level 88.8 %
Extraction speed 3.6 X
Track quality 100.0 %
Test CRC 3C545175
Copy CRC 3C545175
Track not present in AccurateRip database
Copy OK

Track 14

Filename J:\New Rips\VA - Deutsches Jazz Festival 1954-1955 (1990) [FLAC]\disc 1of8\14 - Caterina Valente - Festival Jump.wav

Peak level 95.5 %
Extraction speed 3.8 X
Track quality 99.9 %
Test CRC B4BE756D
Copy CRC B4BE756D
Track not present in AccurateRip database
Copy OK


None of the tracks are present in the AccurateRip database

No errors occurred

End of status report

==== Log checksum 26E937C63B7B2BC33F97BC52950C7F3952BBAAAA4E4F103F32C14D4A9C503991 ====
Exact Audio Copy V1.0 beta 1 from 15. November 2010

EAC extraction logfile from 8. April 2011, 7:37

Various / Deutsches Jazz Festival 1954-1955

Used drive : TSSTcorpCDDVDW SH-S203N Adapter: 0 ID: 2

Read mode : Secure
Utilize accurate stream : Yes
Defeat audio cache : Yes
Make use of C2 pointers : No

Read offset correction : 6
Overread into Lead-In and Lead-Out : No
Fill up missing offset samples with silence : Yes
Delete leading and trailing silent blocks : No
Null samples used in CRC calculations : Yes
Used interface : Installed external ASPI interface
Gap handling : Appended to previous track

Used output format : User Defined Encoder
Selected bitrate : 768 kBit/s
Quality : High
Add ID3 tag : No
Command line compressor : C:\Program Files\Exact Audio Copy-NEW\Flac\flac.exe
Additional command line options : -8 -V -T "ARTIST=%a" -T "TITLE=%t" -T "ALBUM=%g" -T "DATE=%y" -T "TRACKNUMBER=%n" -T "TOTALTRACKS=%x" -T "GENRE=%m" -T "ALBUMARTIST=%v" -T "ALBUM ARTIST=%v" -T "COMMENT=EAC V1.01b1, Secure Mode, Test & Copy, AccurateRip, FL


TOC of the extracted CD

Track | Start | Length | Start sector | End sector
––––––––––––––––––––––––––––-
1 | 0:00.00 | 1:24.15 | 0 | 6314
2 | 1:24.15 | 3:59.25 | 6315 | 24264
3 | 5:23.40 | 4:13.57 | 24265 | 43296
4 | 9:37.22 | 3:22.28 | 43297 | 58474
5 | 12:59.50 | 5:30.72 | 58475 | 83296
6 | 18:30.47 | 4:42.30 | 83297 | 104476
7 | 23:13.02 | 3:07.00 | 104477 | 118501
8 | 26:20.02 | 4:31.33 | 118502 | 138859
9 | 30:51.35 | 3:34.47 | 138860 | 154956
10 | 34:26.07 | 3:10.48 | 154957 | 169254
11 | 37:36.55 | 4:42.60 | 169255 | 190464
12 | 42:19.40 | 4:36.32 | 190465 | 211196
13 | 46:55.72 | 4:15.40 | 211197 | 230361
14 | 51:11.37 | 0:59.40 | 230362 | 234826
15 | 52:11.02 | 2:55.60 | 234827 | 248011
16 | 55:06.62 | 3:34.23 | 248012 | 264084
17 | 58:41.10 | 4:15.67 | 264085 | 283276
18 | 62:57.02 | 3:25.58 | 283277 | 298709
19 | 66:22.60 | 5:17.65 | 298710 | 322549


Track 1

Filename J:\New Rips\VA - Deutsches Jazz Festival 1954-1955 (1990) [FLAC]\disc 2of8\01 - Spree City Stompers - Moderation.wav

Pre-gap length 0:00:02.00

Peak level 59.4 %
Extraction speed 1.4 X
Track quality 100.0 %
Test CRC C11892C0
Copy CRC C11892C0
Track not present in AccurateRip database
Copy OK

Track 2

Filename J:\New Rips\VA - Deutsches Jazz Festival 1954-1955 (1990) [FLAC]\disc 2of8\02 - Spree City Stompers - Get Out Of Here.wav

Peak level 88.8 %
Extraction speed 2.0 X
Track quality 100.0 %
Test CRC 562A2D70
Copy CRC 562A2D70
Track not present in AccurateRip database
Copy OK

Track 3

Filename J:\New Rips\VA - Deutsches Jazz Festival 1954-1955 (1990) [FLAC]\disc 2of8\03 - Spree City Stompers - Just A Blues.wav

Pre-gap length 0:00:00.01

Peak level 82.9 %
Extraction speed 2.2 X
Track quality 100.0 %
Test CRC F59FBEEB
Copy CRC F59FBEEB
Track not present in AccurateRip database
Copy OK

Track 4

Filename J:\New Rips\VA - Deutsches Jazz Festival 1954-1955 (1990) [FLAC]\disc 2of8\04 - Spree City Stompers - Just A Closer Walk With Thee.wav

Pre-gap length 0:00:00.01

Peak level 100.0 %
Extraction speed 2.3 X
Track quality 100.0 %
Test CRC 0F8B0966
Copy CRC 0F8B0966
Track not present in AccurateRip database
Copy OK

Track 5

Filename J:\New Rips\VA - Deutsches Jazz Festival 1954-1955 (1990) [FLAC]\disc 2of8\05 - Spree City Stompers - St James Infirmary.wav

Pre-gap length 0:00:00.01

Peak level 92.2 %
Extraction speed 2.6 X
Track quality 100.0 %
Test CRC F97ED227
Copy CRC F97ED227
Track not present in AccurateRip database
Copy OK

Track 6

Filename J:\New Rips\VA - Deutsches Jazz Festival 1954-1955 (1990) [FLAC]\disc 2of8\06 - Spree City Stompers - Eight Bar Blues.wav

Pre-gap length 0:00:00.01

Peak level 83.4 %
Extraction speed 2.7 X
Track quality 100.0 %
Test CRC D7A62C32
Copy CRC D7A62C32
Track not present in AccurateRip database
Copy OK

Track 7

Filename J:\New Rips\VA - Deutsches Jazz Festival 1954-1955 (1990) [FLAC]\disc 2of8\07 - Spree City Stompers - That Da-Da Strain-Moderation.wav

Pre-gap length 0:00:00.01

Peak level 100.0 %
Extraction speed 2.4 X
Track quality 100.0 %
Test CRC F90F4094
Copy CRC F90F4094
Track not present in AccurateRip database
Copy OK

Track 8

Filename J:\New Rips\VA - Deutsches Jazz Festival 1954-1955 (1990) [FLAC]\disc 2of8\08 - Two Beat Stompers - Mississippi Mud.wav

Pre-gap length 0:00:00.01

Peak level 95.5 %
Extraction speed 3.0 X
Track quality 100.0 %
Test CRC 7888B7B7
Copy CRC 7888B7B7
Track not present in AccurateRip database
Copy OK

Track 9

Filename J:\New Rips\VA - Deutsches Jazz Festival 1954-1955 (1990) [FLAC]\disc 2of8\09 - Two Beat Stompers - Got No Blues.wav

Pre-gap length 0:00:00.01

Peak level 92.9 %
Extraction speed 2.3 X
Track quality 99.9 %
Test CRC 6B78BA19
Copy CRC 6B78BA19
Track not present in AccurateRip database
Copy OK

Track 10

Filename J:\New Rips\VA - Deutsches Jazz Festival 1954-1955 (1990) [FLAC]\disc 2of8\10 - Two Beat Stompers - Panama.wav

Pre-gap length 0:00:00.01

Peak level 92.9 %
Extraction speed 3.0 X
Track quality 100.0 %
Test CRC 171F4502
Copy CRC 171F4502
Track not present in AccurateRip database
Copy OK

Track 11

Filename J:\New Rips\VA - Deutsches Jazz Festival 1954-1955 (1990) [FLAC]\disc 2of8\11 - Two Beat Stompers - Black Bottom Blues.wav

Pre-gap length 0:00:00.01

Peak level 94.8 %
Extraction speed 3.3 X
Track quality 100.0 %
Test CRC F27621B5
Copy CRC F27621B5
Track not present in AccurateRip database
Copy OK

Track 12

Filename J:\New Rips\VA - Deutsches Jazz Festival 1954-1955 (1990) [FLAC]\disc 2of8\12 - Two Beat Stompers - I'm Confessin'.wav

Pre-gap length 0:00:00.01

Peak level 81.0 %
Extraction speed 3.4 X
Track quality 100.0 %
Test CRC B85B223F
Copy CRC B85B223F
Track not present in AccurateRip database
Copy OK

Track 13

Filename J:\New Rips\VA - Deutsches Jazz Festival 1954-1955 (1990) [FLAC]\disc 2of8\13 - Two Beat Stompers - The Music Goes 'Round And 'Round.wav

Pre-gap length 0:00:00.01

Peak level 100.0 %
Extraction speed 3.5 X
Track quality 100.0 %
Test CRC 050A75FB
Copy CRC 050A75FB
Track not present in AccurateRip database
Copy OK

Track 14

Filename J:\New Rips\VA - Deutsches Jazz Festival 1954-1955 (1990) [FLAC]\disc 2of8\14 - Delle Haensch - Moderation.wav

Pre-gap length 0:00:00.01

Peak level 68.2 %
Extraction speed 2.5 X
Track quality 100.0 %
Test CRC ACB2FF6E
Copy CRC ACB2FF6E
Track not present in AccurateRip database
Copy OK

Track 15

Filename J:\New Rips\VA - Deutsches Jazz Festival 1954-1955 (1990) [FLAC]\disc 2of8\15 - Delle Haensch - Manuskript Blues.wav

Pre-gap length 0:00:00.01

Peak level 95.5 %
Extraction speed 3.4 X
Track quality 100.0 %
Test CRC 0B5E36CA
Copy CRC 0B5E36CA
Track not present in AccurateRip database
Copy OK

Track 16

Filename J:\New Rips\VA - Deutsches Jazz Festival 1954-1955 (1990) [FLAC]\disc 2of8\16 - Delle Haensch - Blue Moon.wav

Pre-gap length 0:00:00.01

Peak level 77.0 %
Extraction speed 3.6 X
Track quality 100.0 %
Test CRC 593788FE
Copy CRC 593788FE
Track not present in AccurateRip database
Copy OK

Track 17

Filename J:\New Rips\VA - Deutsches Jazz Festival 1954-1955 (1990) [FLAC]\disc 2of8\17 - Delle Haensch - There's No One But You.wav

Pre-gap length 0:00:00.01

Peak level 84.3 %
Extraction speed 3.8 X
Track quality 100.0 %
Test CRC 006AC4AD
Copy CRC 006AC4AD
Track not present in AccurateRip database
Copy OK

Track 18

Filename J:\New Rips\VA - Deutsches Jazz Festival 1954-1955 (1990) [FLAC]\disc 2of8\18 - Delle Haensch - Hey Good Looking.wav

Pre-gap length 0:00:00.01

Peak level 100.0 %
Extraction speed 3.8 X
Track quality 100.0 %
Test CRC 3894A42A
Copy CRC 3894A42A
Track not present in AccurateRip database
Copy OK

Track 19

Filename J:\New Rips\VA - Deutsches Jazz Festival 1954-1955 (1990) [FLAC]\disc 2of8\19 - Delle Haensch - Flamingo Special.wav

Pre-gap length 0:00:00.01

Peak level 100.0 %
Extraction speed 4.1 X
Track quality 100.0 %
Test CRC A71AD39C
Copy CRC A71AD39C
Track not present in AccurateRip database
Copy OK


None of the tracks are present in the AccurateRip database

No errors occurred

End of status report

==== Log checksum AB0D75453122671CB41B010C83CAF1227B163999841EF7A6613B62BBBF8D4EE6 ====
Exact Audio Copy V1.0 beta 1 from 15. November 2010

EAC extraction logfile from 8. April 2011, 19:19

Various / Deutsches Jazz Festival 1954-1955

Used drive : TSSTcorpCDDVDW SH-S203N Adapter: 0 ID: 2

Read mode : Secure
Utilize accurate stream : Yes
Defeat audio cache : Yes
Make use of C2 pointers : No

Read offset correction : 6
Overread into Lead-In and Lead-Out : No
Fill up missing offset samples with silence : Yes
Delete leading and trailing silent blocks : No
Null samples used in CRC calculations : Yes
Used interface : Installed external ASPI interface
Gap handling : Appended to previous track

Used output format : User Defined Encoder
Selected bitrate : 768 kBit/s
Quality : High
Add ID3 tag : No
Command line compressor : C:\Program Files\Exact Audio Copy-NEW\Flac\flac.exe
Additional command line options : -8 -V -T "ARTIST=%a" -T "TITLE=%t" -T "ALBUM=%g" -T "DATE=%y" -T "TRACKNUMBER=%n" -T "TOTALTRACKS=%x" -T "GENRE=%m" -T "ALBUMARTIST=%v" -T "ALBUM ARTIST=%v" -T "COMMENT=EAC V1.01b1, Secure Mode, Test & Copy, AccurateRip, FL


TOC of the extracted CD

Track | Start | Length | Start sector | End sector
––––––––––––––––––––––––––––-
1 | 0:00.33 | 1:30.37 | 33 | 6819
2 | 1:30.70 | 3:14.00 | 6820 | 21369
3 | 4:44.70 | 3:32.45 | 21370 | 37314
4 | 8:17.40 | 3:35.28 | 37315 | 53467
5 | 11:52.68 | 4:51.27 | 53468 | 75319
6 | 16:44.20 | 3:32.43 | 75320 | 91262
7 | 20:16.63 | 3:30.70 | 91263 | 107082
8 | 23:47.58 | 4:07.02 | 107083 | 125609
9 | 27:54.60 | 3:48.70 | 125610 | 142779
10 | 31:43.55 | 2:37.55 | 142780 | 154609
11 | 34:21.35 | 6:01.58 | 154610 | 181742
12 | 40:23.18 | 3:43.72 | 181743 | 198539
13 | 44:07.15 | 4:49.05 | 198540 | 220219
14 | 48:56.20 | 0:42.55 | 220220 | 223424
15 | 49:39.00 | 4:50.13 | 223425 | 245187
16 | 54:29.13 | 5:11.47 | 245188 | 268559
17 | 59:40.60 | 3:30.68 | 268560 | 284377


Track 1

Filename J:\New Rips\VA - Deutsches Jazz Festival 1954-1955 (1990) [FLAC]\disc 3of8\01 - Kurt Edelhagen - Moderation–There's No You.wav

Pre-gap length 0:00:02.33

Peak level 92.6 %
Extraction speed 3.7 X
Track quality 100.0 %
Test CRC A7F5C00C
Copy CRC A7F5C00C
Track not present in AccurateRip database
Copy OK

Track 2

Filename J:\New Rips\VA - Deutsches Jazz Festival 1954-1955 (1990) [FLAC]\disc 3of8\02 - Kurt Edelhagen - Big John Special.wav

Peak level 95.5 %
Extraction speed 4.7 X
Track quality 100.0 %
Test CRC 15B3FA21
Copy CRC 15B3FA21
Track not present in AccurateRip database
Copy OK

Track 3

Filename J:\New Rips\VA - Deutsches Jazz Festival 1954-1955 (1990) [FLAC]\disc 3of8\03 - Kurt Edelhagen - You Go To My Head.wav

Peak level 85.4 %
Extraction speed 5.1 X
Track quality 100.0 %
Test CRC 98CCA38D
Copy CRC 98CCA38D
Track not present in AccurateRip database
Copy OK

Track 4

Filename J:\New Rips\VA - Deutsches Jazz Festival 1954-1955 (1990) [FLAC]\disc 3of8\04 - Kurt Edelhagen - Jazz 55.wav

Peak level 79.9 %
Extraction speed 5.6 X
Track quality 100.0 %
Test CRC 4D34EA38
Copy CRC 4D34EA38
Track not present in AccurateRip database
Copy OK

Track 5

Filename J:\New Rips\VA - Deutsches Jazz Festival 1954-1955 (1990) [FLAC]\disc 3of8\05 - Kurt Edelhagen - Nancy And The Colonel.wav

Peak level 92.6 %
Extraction speed 6.2 X
Track quality 100.0 %
Test CRC F9344184
Copy CRC F9344184
Track not present in AccurateRip database
Copy OK

Track 6

Filename J:\New Rips\VA - Deutsches Jazz Festival 1954-1955 (1990) [FLAC]\disc 3of8\06 - Kurt Edelhagen - Light Stuff.wav

Peak level 92.1 %
Extraction speed 6.3 X
Track quality 100.0 %
Test CRC 4765376E
Copy CRC 4765376E
Track not present in AccurateRip database
Copy OK

Track 7

Filename J:\New Rips\VA - Deutsches Jazz Festival 1954-1955 (1990) [FLAC]\disc 3of8\07 - Kurt Edelhagen - Lover Man.wav

Peak level 80.3 %
Extraction speed 6.6 X
Track quality 100.0 %
Test CRC 4B7CF385
Copy CRC 4B7CF385
Track not present in AccurateRip database
Copy OK

Track 8

Filename J:\New Rips\VA - Deutsches Jazz Festival 1954-1955 (1990) [FLAC]\disc 3of8\08 - Kurt Edelhagen - Flying Home.wav

Peak level 91.3 %
Extraction speed 5.6 X
Track quality 99.9 %
Test CRC 7FFD9D04
Copy CRC 7FFD9D04
Track not present in AccurateRip database
Copy OK

Track 9

Filename J:\New Rips\VA - Deutsches Jazz Festival 1954-1955 (1990) [FLAC]\disc 3of8\09 - Kurt Edelhagen & Caterina Velente - My Funny Valentine.wav

Peak level 73.3 %
Extraction speed 7.3 X
Track quality 100.0 %
Test CRC 5C5D4811
Copy CRC 5C5D4811
Track not present in AccurateRip database
Copy OK

Track 10

Filename J:\New Rips\VA - Deutsches Jazz Festival 1954-1955 (1990) [FLAC]\disc 3of8\10 - Kurt Edelhagen & Caterina Valente - I Ain't Gonna Tell You.wav

Peak level 95.5 %
Extraction speed 5.1 X
Track quality 99.9 %
Test CRC EDDE391A
Copy CRC EDDE391A
Track not present in AccurateRip database
Copy OK

Track 11

Filename J:\New Rips\VA - Deutsches Jazz Festival 1954-1955 (1990) [FLAC]\disc 3of8\11 - Kurt Edelhagen - Don't Blame Me.wav

Peak level 82.0 %
Extraction speed 8.3 X
Track quality 100.0 %
Test CRC ABEFA247
Copy CRC ABEFA247
Track not present in AccurateRip database
Copy OK

Track 12

Filename J:\New Rips\VA - Deutsches Jazz Festival 1954-1955 (1990) [FLAC]\disc 3of8\12 - Kurt Edelhagen - T-Time.wav

Peak level 95.5 %
Extraction speed 8.0 X
Track quality 100.0 %
Test CRC C677BDCE
Copy CRC C677BDCE
Track not present in AccurateRip database
Copy OK

Track 13

Filename J:\New Rips\VA - Deutsches Jazz Festival 1954-1955 (1990) [FLAC]\disc 3of8\13 - Kurt Edelhagen - Purple Hyazinth.wav

Peak level 94.1 %
Extraction speed 7.0 X
Track quality 99.9 %
Test CRC 0E1E0062
Copy CRC 0E1E0062
Track not present in AccurateRip database
Copy OK

Track 14

Filename J:\New Rips\VA - Deutsches Jazz Festival 1954-1955 (1990) [FLAC]\disc 3of8\14 - Silvio Francesco - Moderation.wav

Pre-gap length 0:00:02.50

Peak level 47.6 %
Extraction speed 1.9 X
Track quality 99.5 %
Test CRC 6017156B
Copy CRC 6017156B
Track not present in AccurateRip database
Copy OK

Track 15

Filename J:\New Rips\VA - Deutsches Jazz Festival 1954-1955 (1990) [FLAC]\disc 3of8\15 - Silvio Francesco - All The Things You Are.wav

Peak level 92.6 %
Extraction speed 2.3 X
Track quality 99.5 %
Test CRC BEDC38B0
Copy CRC BEDC38B0
Track not present in AccurateRip database
Copy OK

Track 16

Filename J:\New Rips\VA - Deutsches Jazz Festival 1954-1955 (1990) [FLAC]\disc 3of8\16 - Silvio Francesco - Long Long Journey.wav

Peak level 83.2 %
Extraction speed 0.2 X
Track quality 99.5 %
Test CRC EAFD7B15
Copy CRC EAFD7B15
Track not present in AccurateRip database
Copy OK

Track 17

Filename J:\New Rips\VA - Deutsches Jazz Festival 1954-1955 (1990) [FLAC]\disc 3of8\17 - Silvio Francesco & Caterina Valente - Ain't Misbehavin'.wav

Peak level 84.1 %
Extraction speed 1.9 X
Track quality 99.5 %
Test CRC 81DE6194
Copy CRC 81DE6194
Track not present in AccurateRip database
Copy OK


None of the tracks are present in the AccurateRip database

No errors occurred

End of status report

==== Log checksum 69A84E3C15E18367E571AA1AB8DD4A5A38B66AE4F9D2CA18ABE2FC9B0A533341 ====
Exact Audio Copy V1.0 beta 1 from 15. November 2010

EAC extraction logfile from 9. April 2011, 10:02

Various / Deutsches Jazz Festival 1954-1955

Used drive : TSSTcorpCDDVDW SH-S203N Adapter: 0 ID: 2

Read mode : Secure
Utilize accurate stream : Yes
Defeat audio cache : Yes
Make use of C2 pointers : No

Read offset correction : 6
Overread into Lead-In and Lead-Out : No
Fill up missing offset samples with silence : Yes
Delete leading and trailing silent blocks : No
Null samples used in CRC calculations : Yes
Used interface : Installed external ASPI interface
Gap handling : Appended to previous track

Used output format : User Defined Encoder
Selected bitrate : 768 kBit/s
Quality : High
Add ID3 tag : No
Command line compressor : C:\Program Files\Exact Audio Copy-NEW\Flac\flac.exe
Additional command line options : -8 -V -T "ARTIST=%a" -T "TITLE=%t" -T "ALBUM=%g" -T "DATE=%y" -T "TRACKNUMBER=%n" -T "TOTALTRACKS=%x" -T "GENRE=%m" -T "ALBUMARTIST=%v" -T "ALBUM ARTIST=%v" -T "COMMENT=EAC V1.01b1, Secure Mode, Test & Copy, AccurateRip, FL


TOC of the extracted CD

Track | Start | Length | Start sector | End sector
––––––––––––––––––––––––––––-
1 | 0:00.00 | 1:04.27 | 0 | 4826
2 | 1:04.27 | 3:55.23 | 4827 | 22474
3 | 4:59.50 | 5:53.37 | 22475 | 48986
4 | 10:53.12 | 5:28.18 | 48987 | 73604
5 | 16:21.30 | 4:46.05 | 73605 | 95059
6 | 21:07.35 | 4:41.05 | 95060 | 116139
7 | 25:48.40 | 3:42.07 | 116140 | 132796
8 | 29:30.47 | 2:25.03 | 132797 | 143674
9 | 31:55.50 | 4:56.50 | 143675 | 165924
10 | 36:52.25 | 5:21.00 | 165925 | 189999
11 | 42:13.25 | 3:35.32 | 190000 | 206156
12 | 45:48.57 | 6:47.48 | 206157 | 236729
13 | 52:36.30 | 2:07.37 | 236730 | 246291
14 | 54:43.67 | 5:21.58 | 246292 | 270424
15 | 60:05.50 | 4:54.45 | 270425 | 292519
16 | 65:00.20 | 3:25.55 | 292520 | 307949


Track 1

Filename J:\New Rips\VA - Deutsches Jazz Festival 1954-1955 (1990) [FLAC]\disc 4of8\01 - Glen Buschmann - Moderation.wav

Pre-gap length 0:00:02.00

Peak level 48.3 %
Extraction speed 1.3 X
Track quality 100.0 %
Test CRC 7E8DA9D2
Copy CRC 7E8DA9D2
Track not present in AccurateRip database
Copy OK

Track 2

Filename J:\New Rips\VA - Deutsches Jazz Festival 1954-1955 (1990) [FLAC]\disc 4of8\02 - Glen Buschmann - Lagwood Walk.wav

Peak level 91.1 %
Extraction speed 2.0 X
Track quality 100.0 %
Test CRC E5F0DA1F
Copy CRC E5F0DA1F
Track not present in AccurateRip database
Copy OK

Track 3

Filename J:\New Rips\VA - Deutsches Jazz Festival 1954-1955 (1990) [FLAC]\disc 4of8\03 - Glen Buschmann - All Of Me.wav

Peak level 85.9 %
Extraction speed 2.3 X
Track quality 100.0 %
Test CRC 78B34D9B
Copy CRC 78B34D9B
Track not present in AccurateRip database
Copy OK

Track 4

Filename J:\New Rips\VA - Deutsches Jazz Festival 1954-1955 (1990) [FLAC]\disc 4of8\04 - Glen Buschmann - Farewell Blues.wav

Peak level 96.4 %
Extraction speed 2.5 X
Track quality 100.0 %
Test CRC 79686849
Copy CRC 79686849
Track not present in AccurateRip database
Copy OK

Track 5

Filename J:\New Rips\VA - Deutsches Jazz Festival 1954-1955 (1990) [FLAC]\disc 4of8\05 - Glen Buschmann - St Louis Blues.wav

Peak level 89.1 %
Extraction speed 2.7 X
Track quality 100.0 %
Test CRC EA4C0C81
Copy CRC EA4C0C81
Track not present in AccurateRip database
Copy OK

Track 6

Filename J:\New Rips\VA - Deutsches Jazz Festival 1954-1955 (1990) [FLAC]\disc 4of8\06 - Glen Buschmann - Blue Prelude.wav

Peak level 89.1 %
Extraction speed 2.9 X
Track quality 100.0 %
Test CRC 34774EE6
Copy CRC 34774EE6
Track not present in AccurateRip database
Copy OK

Track 7

Filename J:\New Rips\VA - Deutsches Jazz Festival 1954-1955 (1990) [FLAC]\disc 4of8\07 - Glen Buschmann - For You My Love.wav

Peak level 89.0 %
Extraction speed 2.9 X
Track quality 100.0 %
Test CRC 504CF4A4
Copy CRC 504CF4A4
Track not present in AccurateRip database
Copy OK

Track 8

Filename J:\New Rips\VA - Deutsches Jazz Festival 1954-1955 (1990) [FLAC]\disc 4of8\08 - Heinz Schonberger - Moderation.wav

Pre-gap length 0:00:02.62

Peak level 72.1 %
Extraction speed 2.8 X
Track quality 100.0 %
Test CRC 12B5EBF3
Copy CRC 12B5EBF3
Track not present in AccurateRip database
Copy OK

Track 9

Filename J:\New Rips\VA - Deutsches Jazz Festival 1954-1955 (1990) [FLAC]\disc 4of8\09 - Heinz Schonberger - Just One Of Those Things.wav

Peak level 98.0 %
Extraction speed 3.2 X
Track quality 100.0 %
Test CRC D38E3F6B
Copy CRC D38E3F6B
Track not present in AccurateRip database
Copy OK

Track 10

Filename J:\New Rips\VA - Deutsches Jazz Festival 1954-1955 (1990) [FLAC]\disc 4of8\10 - Heinz Schonberger - Shine.wav

Peak level 88.5 %
Extraction speed 3.4 X
Track quality 100.0 %
Test CRC CAE5E37C
Copy CRC CAE5E37C
Track not present in AccurateRip database
Copy OK

Track 11

Filename J:\New Rips\VA - Deutsches Jazz Festival 1954-1955 (1990) [FLAC]\disc 4of8\11 - Heinz Schonberger - Embraceable You.wav

Peak level 88.1 %
Extraction speed 3.4 X
Track quality 100.0 %
Test CRC C7079AEA
Copy CRC C7079AEA
Track not present in AccurateRip database
Copy OK

Track 12

Filename J:\New Rips\VA - Deutsches Jazz Festival 1954-1955 (1990) [FLAC]\disc 4of8\12 - Heinz Schonberger - Berlin Blues.wav

Peak level 100.0 %
Extraction speed 3.8 X
Track quality 100.0 %
Test CRC E00FDD9F
Copy CRC E00FDD9F
Track not present in AccurateRip database
Copy OK

Track 13

Filename J:\New Rips\VA - Deutsches Jazz Festival 1954-1955 (1990) [FLAC]\disc 4of8\13 - Rolf Kuhn - Moderation.wav

Pre-gap length 0:00:02.63

Peak level 82.8 %
Extraction speed 2.0 X
Track quality 99.9 %
Test CRC ED35C42C
Copy CRC ED35C42C
Track not present in AccurateRip database
Copy OK

Track 14

Filename J:\New Rips\VA - Deutsches Jazz Festival 1954-1955 (1990) [FLAC]\disc 4of8\14 - Rolf Kuhn - All The Things You Are.wav

Peak level 89.1 %
Extraction speed 3.0 X
Track quality 99.9 %
Test CRC 381DA5D5
Copy CRC 381DA5D5
Track not present in AccurateRip database
Copy OK

Track 15

Filename J:\New Rips\VA - Deutsches Jazz Festival 1954-1955 (1990) [FLAC]\disc 4of8\15 - Rolf Kuhn - Too Marvelous For Words.wav

Peak level 94.5 %
Extraction speed 3.9 X
Track quality 100.0 %
Test CRC 74A47F12
Copy CRC 74A47F12
Track not present in AccurateRip database
Copy OK

Track 16

Filename J:\New Rips\VA - Deutsches Jazz Festival 1954-1955 (1990) [FLAC]\disc 4of8\16 - Rolf Kuhn - Frankfurt Blues.wav

Peak level 86.2 %
Extraction speed 3.8 X
Track quality 100.0 %
Test CRC BD4724C4
Copy CRC BD4724C4
Track not present in AccurateRip database
Copy OK


None of the tracks are present in the AccurateRip database

No errors occurred

End of status report

==== Log checksum 96B6C1DD240C46C8B3564E2AA890E66E4D87D13CFFEB1CABFCBBB326D1B5C672 ====
Exact Audio Copy V1.0 beta 1 from 15. November 2010

EAC extraction logfile from 10. April 2011, 0:53

Various / Deutsches Jazz Festival 1954-1955

Used drive : TSSTcorpCDDVDW SH-S203N Adapter: 0 ID: 2

Read mode : Secure
Utilize accurate stream : Yes
Defeat audio cache : Yes
Make use of C2 pointers : No

Read offset correction : 6
Overread into Lead-In and Lead-Out : No
Fill up missing offset samples with silence : Yes
Delete leading and trailing silent blocks : No
Null samples used in CRC calculations : Yes
Used interface : Installed external ASPI interface
Gap handling : Appended to previous track

Used output format : User Defined Encoder
Selected bitrate : 768 kBit/s
Quality : High
Add ID3 tag : No
Command line compressor : C:\Program Files\Exact Audio Copy-NEW\Flac\flac.exe
Additional command line options : -8 -V -T "ARTIST=%a" -T "TITLE=%t" -T "ALBUM=%g" -T "DATE=%y" -T "TRACKNUMBER=%n" -T "TOTALTRACKS=%x" -T "GENRE=%m" -T "ALBUMARTIST=%v" -T "ALBUM ARTIST=%v" -T "COMMENT=EAC V1.01b1, Secure Mode, Test & Copy, AccurateRip, FL


TOC of the extracted CD

Track | Start | Length | Start sector | End sector
––––––––––––––––––––––––––––-
1 | 0:00.00 | 2:05.52 | 0 | 9426
2 | 2:05.52 | 6:09.63 | 9427 | 37164
3 | 8:15.40 | 6:58.20 | 37165 | 68534
4 | 15:13.60 | 3:18.47 | 68535 | 83431
5 | 18:32.32 | 4:47.30 | 83432 | 104986
6 | 23:19.62 | 3:44.60 | 104987 | 121846
7 | 27:04.47 | 6:07.15 | 121847 | 149386
8 | 33:11.62 | 1:47.43 | 149387 | 157454
9 | 34:59.30 | 9:58.10 | 157455 | 202314
10 | 44:57.40 | 4:17.52 | 202315 | 221641
11 | 49:15.17 | 4:27.65 | 221642 | 241731
12 | 53:43.07 | 8:12.30 | 241732 | 278661


Track 1

Filename J:\New Rips\VA - Deutsches Jazz Festival 1954-1955 (1990) [FLAC]\disc 5of8\01 - Jutta Hipp - Moderation.wav

Pre-gap length 0:00:02.00

Peak level 57.2 %
Extraction speed 4.0 X
Track quality 100.0 %
Test CRC C54FF3C6
Copy CRC C54FF3C6
Track not present in AccurateRip database
Copy OK

Track 2

Filename J:\New Rips\VA - Deutsches Jazz Festival 1954-1955 (1990) [FLAC]\disc 5of8\02 - Jutta Hipp - Hipp-Noses.wav

Peak level 69.0 %
Extraction speed 5.3 X
Track quality 100.0 %
Test CRC 9A438DF6
Copy CRC 9A438DF6
Track not present in AccurateRip database
Copy OK

Track 3

Filename J:\New Rips\VA - Deutsches Jazz Festival 1954-1955 (1990) [FLAC]\disc 5of8\03 - Jutta Hipp - The Song Is You.wav

Peak level 95.1 %
Extraction speed 6.1 X
Track quality 100.0 %
Test CRC F8F71770
Copy CRC F8F71770
Track not present in AccurateRip database
Copy OK

Track 4

Filename J:\New Rips\VA - Deutsches Jazz Festival 1954-1955 (1990) [FLAC]\disc 5of8\04 - Jutta Hipp - Indian Summer.wav

Peak level 62.7 %
Extraction speed 4.7 X
Track quality 99.9 %
Test CRC 6F534321
Copy CRC 6F534321
Track not present in AccurateRip database
Copy OK

Track 5

Filename J:\New Rips\VA - Deutsches Jazz Festival 1954-1955 (1990) [FLAC]\disc 5of8\05 - Jutta Hipp - A Cool Talk.wav

Peak level 75.3 %
Extraction speed 6.7 X
Track quality 100.0 %
Test CRC 27A8E34E
Copy CRC 27A8E34E
Track not present in AccurateRip database
Copy OK

Track 6

Filename J:\New Rips\VA - Deutsches Jazz Festival 1954-1955 (1990) [FLAC]\disc 5of8\06 - Jutta Hipp - These Foolish Things.wav

Peak level 64.7 %
Extraction speed 5.4 X
Track quality 99.9 %
Test CRC 9B995023
Copy CRC 9B995023
Track not present in AccurateRip database
Copy OK

Track 7

Filename J:\New Rips\VA - Deutsches Jazz Festival 1954-1955 (1990) [FLAC]\disc 5of8\07 - Jutta Hipp - Gone With The Wind.wav

Peak level 74.9 %
Extraction speed 5.8 X
Track quality 99.9 %
Test CRC 40DB631B
Copy CRC 40DB631B
Track not present in AccurateRip database
Copy OK

Track 8

Filename J:\New Rips\VA - Deutsches Jazz Festival 1954-1955 (1990) [FLAC]\disc 5of8\08 - Hans Koller - Moderation.wav

Pre-gap length 0:00:02.50

Peak level 47.0 %
Extraction speed 4.4 X
Track quality 99.9 %
Test CRC 8A019DDC
Copy CRC 8A019DDC
Track not present in AccurateRip database
Copy OK

Track 9

Filename J:\New Rips\VA - Deutsches Jazz Festival 1954-1955 (1990) [FLAC]\disc 5of8\09 - Hans Koller - Jutta.wav

Peak level 72.3 %
Extraction speed 8.8 X
Track quality 100.0 %
Test CRC 1FDA825F
Copy CRC 1FDA825F
Track not present in AccurateRip database
Copy OK

Track 10

Filename J:\New Rips\VA - Deutsches Jazz Festival 1954-1955 (1990) [FLAC]\disc 5of8\10 - Hans Koller - Iris.wav

Peak level 73.8 %
Extraction speed 7.0 X
Track quality 99.9 %
Test CRC 2CBEFDC4
Copy CRC 2CBEFDC4
Track not present in AccurateRip database
Copy OK

Track 11

Filename J:\New Rips\VA - Deutsches Jazz Festival 1954-1955 (1990) [FLAC]\disc 5of8\11 - Hans Koller - When Your Lover Has Gone.wav

Peak level 72.9 %
Extraction speed 8.9 X
Track quality 100.0 %
Test CRC E9549428
Copy CRC E9549428
Track not present in AccurateRip database
Copy OK

Track 12

Filename J:\New Rips\VA - Deutsches Jazz Festival 1954-1955 (1990) [FLAC]\disc 5of8\12 - Hans Koller - Porsche.wav

Peak level 76.7 %
Extraction speed 9.8 X
Track quality 100.0 %
Test CRC 24845200
Copy CRC 24845200
Track not present in AccurateRip database
Copy OK


None of the tracks are present in the AccurateRip database

No errors occurred

End of status report

==== Log checksum 965CCA4267B2F164ED987E0B3A20A2B4CFA3B3A82DC9293C0B67BF06414F65C2 ====
Exact Audio Copy V1.0 beta 1 from 15. November 2010

EAC extraction logfile from 10. April 2011, 17:14

Various / Deutsches Jazz Festival 1954-1955

Used drive : TSSTcorpCDDVDW SH-S203N Adapter: 0 ID: 2

Read mode : Secure
Utilize accurate stream : Yes
Defeat audio cache : Yes
Make use of C2 pointers : No

Read offset correction : 6
Overread into Lead-In and Lead-Out : No
Fill up missing offset samples with silence : Yes
Delete leading and trailing silent blocks : No
Null samples used in CRC calculations : Yes
Used interface : Installed external ASPI interface
Gap handling : Appended to previous track

Used output format : User Defined Encoder
Selected bitrate : 768 kBit/s
Quality : High
Add ID3 tag : No
Command line compressor : C:\Program Files\Exact Audio Copy-NEW\Flac\flac.exe
Additional command line options : -8 -V -T "ARTIST=%a" -T "TITLE=%t" -T "ALBUM=%g" -T "DATE=%y" -T "TRACKNUMBER=%n" -T "TOTALTRACKS=%x" -T "GENRE=%m" -T "ALBUMARTIST=%v" -T "ALBUM ARTIST=%v" -T "COMMENT=EAC V1.01b1, Secure Mode, Test & Copy, AccurateRip, FL


TOC of the extracted CD

Track | Start | Length | Start sector | End sector
––––––––––––––––––––––––––––-
1 | 0:00.00 | 1:28.15 | 0 | 6614
2 | 1:28.15 | 3:41.10 | 6615 | 23199
3 | 5:09.25 | 3:21.27 | 23200 | 38301
4 | 8:30.52 | 3:14.23 | 38302 | 52874
5 | 11:45.00 | 3:52.57 | 52875 | 70331
6 | 15:37.57 | 0:48.18 | 70332 | 73949
7 | 16:26.00 | 4:17.05 | 73950 | 93229
8 | 20:43.05 | 3:54.62 | 93230 | 110841
9 | 24:37.67 | 4:39.63 | 110842 | 131829
10 | 29:17.55 | 0:34.10 | 131830 | 134389
11 | 29:51.65 | 2:33.72 | 134390 | 145936
12 | 32:25.62 | 4:46.05 | 145937 | 167391
13 | 37:11.67 | 4:34.20 | 167392 | 187961
14 | 41:46.12 | 3:05.63 | 187962 | 201899
15 | 44:52.00 | 1:40.05 | 201900 | 209404
16 | 46:32.05 | 1:57.52 | 209405 | 218231
17 | 48:29.57 | 4:08.50 | 218232 | 236881
18 | 52:38.32 | 2:20.40 | 236882 | 247421
19 | 54:58.72 | 2:55.45 | 247422 | 260591


Track 1

Filename J:\New Rips\VA - Deutsches Jazz Festival 1954-1955 (1990) [FLAC]\disc 6of8\01 - Helmut Brandt - Moderation.wav

Pre-gap length 0:00:02.00

Peak level 77.8 %
Extraction speed 1.3 X
Track quality 100.0 %
Test CRC 2695B64E
Copy CRC 2695B64E
Track not present in AccurateRip database
Copy OK

Track 2

Filename J:\New Rips\VA - Deutsches Jazz Festival 1954-1955 (1990) [FLAC]\disc 6of8\02 - Helmut Brandt - Squeeze Me.wav

Peak level 71.2 %
Extraction speed 1.6 X
Track quality 99.9 %
Test CRC 99534844
Copy CRC 99534844
Track not present in AccurateRip database
Copy OK

Track 3

Filename J:\New Rips\VA - Deutsches Jazz Festival 1954-1955 (1990) [FLAC]\disc 6of8\03 - Helmut Brandt - Sum.wav

Peak level 76.5 %
Extraction speed 1.9 X
Track quality 100.0 %
Test CRC 5387A944
Copy CRC 5387A944
Track not present in AccurateRip database
Copy OK

Track 4

Filename J:\New Rips\VA - Deutsches Jazz Festival 1954-1955 (1990) [FLAC]\disc 6of8\04 - Helmut Brandt - The Breeze And I.wav

Peak level 72.8 %
Extraction speed 2.0 X
Track quality 100.0 %
Test CRC 753A0A5E
Copy CRC 753A0A5E
Track not present in AccurateRip database
Copy OK

Track 5

Filename J:\New Rips\VA - Deutsches Jazz Festival 1954-1955 (1990) [FLAC]\disc 6of8\05 - Helmut Brandt - I Can't Believe That You're In Love With Me.wav

Peak level 77.8 %
Extraction speed 1.6 X
Track quality 99.9 %
Test CRC 6B54E466
Copy CRC 6B54E466
Track not present in AccurateRip database
Copy OK

Track 6

Filename J:\New Rips\VA - Deutsches Jazz Festival 1954-1955 (1990) [FLAC]\disc 6of8\06 - Erhard Wenig - Moderation.wav

Pre-gap length 0:00:02.62

Peak level 63.1 %
Extraction speed 1.5 X
Track quality 100.0 %
Test CRC D50F6AE4
Copy CRC D50F6AE4
Track not present in AccurateRip database
Copy OK

Track 7

Filename J:\New Rips\VA - Deutsches Jazz Festival 1954-1955 (1990) [FLAC]\disc 6of8\07 - Erhard Wenig - Out Of Nowhere.wav

Peak level 100.0 %
Extraction speed 2.4 X
Track quality 100.0 %
Test CRC 38CD4109
Copy CRC 38CD4109
Track not present in AccurateRip database
Copy OK

Track 8

Filename J:\New Rips\VA - Deutsches Jazz Festival 1954-1955 (1990) [FLAC]\disc 6of8\08 - Erhard Wenig - Tenor Jump.wav

Peak level 100.0 %
Extraction speed 2.5 X
Track quality 100.0 %
Test CRC C5E336F1
Copy CRC C5E336F1
Track not present in AccurateRip database
Copy OK

Track 9

Filename J:\New Rips\VA - Deutsches Jazz Festival 1954-1955 (1990) [FLAC]\disc 6of8\09 - Erhard Wenig - September Riff.wav

Peak level 78.9 %
Extraction speed 2.5 X
Track quality 100.0 %
Test CRC 90A5EAF9
Copy CRC 90A5EAF9
Track not present in AccurateRip database
Copy OK

Track 10

Filename J:\New Rips\VA - Deutsches Jazz Festival 1954-1955 (1990) [FLAC]\disc 6of8\10 - Freddy Christmann - Moderation.wav

Pre-gap length 0:00:01.63

Peak level 31.5 %
Extraction speed 1.4 X
Track quality 100.0 %
Test CRC FDC562EA
Copy CRC FDC562EA
Track not present in AccurateRip database
Copy OK

Track 11

Filename J:\New Rips\VA - Deutsches Jazz Festival 1954-1955 (1990) [FLAC]\disc 6of8\11 - Freddy Christmann - Cynthia's In Love.wav

Peak level 75.0 %
Extraction speed 2.6 X
Track quality 100.0 %
Test CRC 1BFE1674
Copy CRC 1BFE1674
Track not present in AccurateRip database
Copy OK

Track 12

Filename J:\New Rips\VA - Deutsches Jazz Festival 1954-1955 (1990) [FLAC]\disc 6of8\12 - Freddy Christmann - As Long As There's Music.wav

Peak level 71.5 %
Extraction speed 2.9 X
Track quality 100.0 %
Test CRC ADA35660
Copy CRC ADA35660
Track not present in AccurateRip database
Copy OK

Track 13

Filename J:\New Rips\VA - Deutsches Jazz Festival 1954-1955 (1990) [FLAC]\disc 6of8\13 - Freddy Christmann - First Love.wav

Peak level 79.1 %
Extraction speed 2.4 X
Track quality 99.9 %
Test CRC E3CDEA0D
Copy CRC E3CDEA0D
Track not present in AccurateRip database
Copy OK

Track 14

Filename J:\New Rips\VA - Deutsches Jazz Festival 1954-1955 (1990) [FLAC]\disc 6of8\14 - Freddy Christmann - Passe.wav

Peak level 76.1 %
Extraction speed 3.0 X
Track quality 100.0 %
Test CRC B735EE08
Copy CRC B735EE08
Track not present in AccurateRip database
Copy OK

Track 15

Filename J:\New Rips\VA - Deutsches Jazz Festival 1954-1955 (1990) [FLAC]\disc 6of8\15 - Wolfgang Lauth - Moderation.wav

Pre-gap length 0:00:02.63

Peak level 76.6 %
Extraction speed 2.6 X
Track quality 100.0 %
Test CRC F7085737
Copy CRC F7085737
Track not present in AccurateRip database
Copy OK

Track 16

Filename J:\New Rips\VA - Deutsches Jazz Festival 1954-1955 (1990) [FLAC]\disc 6of8\16 - Wolfgang Lauth - Thema In B.wav

Peak level 81.3 %
Extraction speed 2.9 X
Track quality 100.0 %
Test CRC 9E3D99A0
Copy CRC 9E3D99A0
Track not present in AccurateRip database
Copy OK

Track 17

Filename J:\New Rips\VA - Deutsches Jazz Festival 1954-1955 (1990) [FLAC]\disc 6of8\17 - Wolfgang Lauth - Tomorrow.wav

Peak level 66.7 %
Extraction speed 3.3 X
Track quality 100.0 %
Test CRC 2A266033
Copy CRC 2A266033
Track not present in AccurateRip database
Copy OK

Track 18

Filename J:\New Rips\VA - Deutsches Jazz Festival 1954-1955 (1990) [FLAC]\disc 6of8\18 - Wolfgang Lauth - Cool March.wav

Peak level 61.2 %
Extraction speed 3.1 X
Track quality 100.0 %
Test CRC 41AC78AD
Copy CRC 41AC78AD
Track not present in AccurateRip database
Copy OK

Track 19

Filename J:\New Rips\VA - Deutsches Jazz Festival 1954-1955 (1990) [FLAC]\disc 6of8\19 - Wolfgang Lauth - Cave Souvenir.wav

Peak level 71.9 %
Extraction speed 3.3 X
Track quality 100.0 %
Test CRC 04D9735A
Copy CRC 04D9735A
Track not present in AccurateRip database
Copy OK


None of the tracks are present in the AccurateRip database

No errors occurred

End of status report

==== Log checksum F5CCBBEC8F224BE2A7A7F8398E83AC30F4C62948AFEEFE1D8FB5D0D52B507485 ====
Exact Audio Copy V1.0 beta 1 from 15. November 2010

EAC extraction logfile from 11. April 2011, 0:25

Various / Deutsches Jazz Festival 1954-1955

Used drive : TSSTcorpCDDVDW SH-S203N Adapter: 0 ID: 2

Read mode : Secure
Utilize accurate stream : Yes
Defeat audio cache : Yes
Make use of C2 pointers : No

Read offset correction : 6
Overread into Lead-In and Lead-Out : No
Fill up missing offset samples with silence : Yes
Delete leading and trailing silent blocks : No
Null samples used in CRC calculations : Yes
Used interface : Installed external ASPI interface
Gap handling : Appended to previous track

Used output format : User Defined Encoder
Selected bitrate : 768 kBit/s
Quality : High
Add ID3 tag : No
Command line compressor : C:\Program Files\Exact Audio Copy-NEW\Flac\flac.exe
Additional command line options : -8 -V -T "ARTIST=%a" -T "TITLE=%t" -T "ALBUM=%g" -T "DATE=%y" -T "TRACKNUMBER=%n" -T "TOTALTRACKS=%x" -T "GENRE=%m" -T "ALBUMARTIST=%v" -T "ALBUM ARTIST=%v" -T "COMMENT=EAC V1.01b1, Secure Mode, Test & Copy, AccurateRip, FL


TOC of the extracted CD

Track | Start | Length | Start sector | End sector
––––––––––––––––––––––––––––-
1 | 0:00.33 | 1:29.60 | 33 | 6767
2 | 1:30.18 | 2:51.52 | 6768 | 19644
3 | 4:21.70 | 4:46.48 | 19645 | 41142
4 | 9:08.43 | 3:42.07 | 41143 | 57799
5 | 12:50.50 | 3:31.25 | 57800 | 73649
6 | 16:22.00 | 4:44.68 | 73650 | 95017
7 | 21:06.68 | 2:37.27 | 95018 | 106819
8 | 23:44.20 | 2:49.13 | 106820 | 119507
9 | 26:33.33 | 3:53.05 | 119508 | 136987
10 | 30:26.38 | 3:14.55 | 136988 | 151592
11 | 33:41.18 | 4:09.62 | 151593 | 170329
12 | 37:51.05 | 3:55.33 | 170330 | 187987
13 | 41:46.38 | 0:49.25 | 187988 | 191687
14 | 42:35.63 | 3:34.12 | 191688 | 207749
15 | 46:10.00 | 2:56.53 | 207750 | 221002
16 | 49:06.53 | 3:06.15 | 221003 | 234967
17 | 52:12.68 | 3:23.27 | 234968 | 250219
18 | 55:36.20 | 1:49.15 | 250220 | 258409
19 | 57:25.35 | 3:08.73 | 258410 | 272582
20 | 60:34.33 | 2:33.55 | 272583 | 284112


Track 1

Filename J:\New Rips\VA - Deutsches Jazz Festival 1954-1955 (1990) [FLAC]\disc 7of8\01 - Erwin Lehn - Moderation.wav

Pre-gap length 0:00:02.33

Peak level 82.2 %
Extraction speed 1.5 X
Track quality 100.0 %
Test CRC FE99B52C
Copy CRC FE99B52C
Track not present in AccurateRip database
Copy OK

Track 2

Filename J:\New Rips\VA - Deutsches Jazz Festival 1954-1955 (1990) [FLAC]\disc 7of8\02 - Erwin Lehn - Jumpin' With Symphony Sid.wav

Peak level 89.9 %
Extraction speed 1.6 X
Track quality 99.9 %
Test CRC F97555A8
Copy CRC F97555A8
Track not present in AccurateRip database
Copy OK

Track 3

Filename J:\New Rips\VA - Deutsches Jazz Festival 1954-1955 (1990) [FLAC]\disc 7of8\03 - Erwin Lehn - Blues Intermezzo.wav

Peak level 86.2 %
Extraction speed 1.9 X
Track quality 99.9 %
Test CRC B2E0774C
Copy CRC B2E0774C
Track not present in AccurateRip database
Copy OK

Track 4

Filename J:\New Rips\VA - Deutsches Jazz Festival 1954-1955 (1990) [FLAC]\disc 7of8\04 - Erwin Lehn - Gerry Walks.wav

Peak level 89.1 %
Extraction speed 2.3 X
Track quality 100.0 %
Test CRC 4CF2542E
Copy CRC 4CF2542E
Track not present in AccurateRip database
Copy OK

Track 5

Filename J:\New Rips\VA - Deutsches Jazz Festival 1954-1955 (1990) [FLAC]\disc 7of8\05 - Erwin Lehn - Cool Street.wav

Peak level 81.0 %
Extraction speed 2.4 X
Track quality 100.0 %
Test CRC CA1672F2
Copy CRC CA1672F2
Track not present in AccurateRip database
Copy OK

Track 6

Filename J:\New Rips\VA - Deutsches Jazz Festival 1954-1955 (1990) [FLAC]\disc 7of8\06 - Erwin Lehn - Autumn Nocturne.wav

Peak level 80.3 %
Extraction speed 2.2 X
Track quality 99.9 %
Test CRC 743CCF85
Copy CRC 743CCF85
Track not present in AccurateRip database
Copy OK

Track 7

Filename J:\New Rips\VA - Deutsches Jazz Festival 1954-1955 (1990) [FLAC]\disc 7of8\07 - Erwin Lehn - Conference Mit Mosch.wav

Peak level 88.2 %
Extraction speed 2.5 X
Track quality 100.0 %
Test CRC 02BC2385
Copy CRC 02BC2385
Track not present in AccurateRip database
Copy OK

Track 8

Filename J:\New Rips\VA - Deutsches Jazz Festival 1954-1955 (1990) [FLAC]\disc 7of8\08 - Erwin Lehn - What Is This Thing Called Love.wav

Peak level 59.7 %
Extraction speed 2.6 X
Track quality 100.0 %
Test CRC 4E8F6694
Copy CRC 4E8F6694
Track not present in AccurateRip database
Copy OK

Track 9

Filename J:\New Rips\VA - Deutsches Jazz Festival 1954-1955 (1990) [FLAC]\disc 7of8\09 - Erwin Lehn - Blues Fur Tenorsaxophon.wav

Peak level 89.2 %
Extraction speed 2.9 X
Track quality 100.0 %
Test CRC 0DE28504
Copy CRC 0DE28504
Track not present in AccurateRip database
Copy OK

Track 10

Filename J:\New Rips\VA - Deutsches Jazz Festival 1954-1955 (1990) [FLAC]\disc 7of8\10 - Erwin Lehn - Lester Leaps In.wav

Peak level 93.9 %
Extraction speed 2.9 X
Track quality 100.0 %
Test CRC 2AE040E1
Copy CRC 2AE040E1
Track not present in AccurateRip database
Copy OK

Track 11

Filename J:\New Rips\VA - Deutsches Jazz Festival 1954-1955 (1990) [FLAC]\disc 7of8\11 - Erwin Lehn - EVG.wav

Peak level 87.1 %
Extraction speed 3.2 X
Track quality 100.0 %
Test CRC CDB3C72E
Copy CRC CDB3C72E
Track not present in AccurateRip database
Copy OK

Track 12

Filename J:\New Rips\VA - Deutsches Jazz Festival 1954-1955 (1990) [FLAC]\disc 7of8\12 - Erwin Lehn - Flyin' Home.wav

Peak level 84.8 %
Extraction speed 2.5 X
Track quality 99.9 %
Test CRC 75E4A65B
Copy CRC 75E4A65B
Track not present in AccurateRip database
Copy OK

Track 13

Filename J:\New Rips\VA - Deutsches Jazz Festival 1954-1955 (1990) [FLAC]\disc 7of8\13 - Harald Banter - Moderation.wav

Pre-gap length 0:00:02.74

Peak level 29.6 %
Extraction speed 2.1 X
Track quality 100.0 %
Test CRC 58AADAB8
Copy CRC 58AADAB8
Track not present in AccurateRip database
Copy OK

Track 14

Filename J:\New Rips\VA - Deutsches Jazz Festival 1954-1955 (1990) [FLAC]\disc 7of8\14 - Harald Banter - Indikativ.wav

Peak level 82.3 %
Extraction speed 2.4 X
Track quality 99.9 %
Test CRC C55CDDB7
Copy CRC C55CDDB7
Track not present in AccurateRip database
Copy OK

Track 15

Filename J:\New Rips\VA - Deutsches Jazz Festival 1954-1955 (1990) [FLAC]\disc 7of8\15 - Harald Banter - Moon Over Miami.wav

Peak level 78.0 %
Extraction speed 3.3 X
Track quality 100.0 %
Test CRC 10E567E8
Copy CRC 10E567E8
Track not present in AccurateRip database
Copy OK

Track 16

Filename J:\New Rips\VA - Deutsches Jazz Festival 1954-1955 (1990) [FLAC]\disc 7of8\16 - Harald Banter - Autumn In New York.wav

Peak level 58.0 %
Extraction speed 3.4 X
Track quality 100.0 %
Test CRC 08CFA962
Copy CRC 08CFA962
Track not present in AccurateRip database
Copy OK

Track 17

Filename J:\New Rips\VA - Deutsches Jazz Festival 1954-1955 (1990) [FLAC]\disc 7of8\17 - Harald Banter - Tabu Jump.wav

Peak level 75.1 %
Extraction speed 3.5 X
Track quality 100.0 %
Test CRC AD1757FB
Copy CRC AD1757FB
Track not present in AccurateRip database
Copy OK

Track 18

Filename J:\New Rips\VA - Deutsches Jazz Festival 1954-1955 (1990) [FLAC]\disc 7of8\18 - Harald Banter - Polyphona.wav

Peak level 70.7 %
Extraction speed 3.1 X
Track quality 100.0 %
Test CRC 4B6DCECC
Copy CRC 4B6DCECC
Track not present in AccurateRip database
Copy OK

Track 19

Filename J:\New Rips\VA - Deutsches Jazz Festival 1954-1955 (1990) [FLAC]\disc 7of8\19 - Harald Banter - Nocturne Boy.wav

Peak level 76.7 %
Extraction speed 3.6 X
Track quality 100.0 %
Test CRC 32388FDE
Copy CRC 32388FDE
Track not present in AccurateRip database
Copy OK

Track 20

Filename J:\New Rips\VA - Deutsches Jazz Festival 1954-1955 (1990) [FLAC]\disc 7of8\20 - Harald Banter - Happy Days Are Here Again.wav

Peak level 84.7 %
Extraction speed 3.5 X
Track quality 100.0 %
Test CRC 3517125E
Copy CRC 3517125E
Track not present in AccurateRip database
Copy OK


None of the tracks are present in the AccurateRip database

No errors occurred

End of status report

==== Log checksum BB64471286D022DD8ED5BD69EF9F4465020F417ACBA3DCCAEE3986319E15BD4F ====
Exact Audio Copy V1.0 beta 1 from 15. November 2010

EAC extraction logfile from 11. April 2011, 19:43

Various / Deutsches Jazz Festival 1954-1955

Used drive : TSSTcorpCDDVDW SH-S203N Adapter: 0 ID: 2

Read mode : Secure
Utilize accurate stream : Yes
Defeat audio cache : Yes
Make use of C2 pointers : No

Read offset correction : 6
Overread into Lead-In and Lead-Out : No
Fill up missing offset samples with silence : Yes
Delete leading and trailing silent blocks : No
Null samples used in CRC calculations : Yes
Used interface : Installed external ASPI interface
Gap handling : Appended to previous track

Used output format : User Defined Encoder
Selected bitrate : 768 kBit/s
Quality : High
Add ID3 tag : No
Command line compressor : C:\Program Files\Exact Audio Copy-NEW\Flac\flac.exe
Additional command line options : -8 -V -T "ARTIST=%a" -T "TITLE=%t" -T "ALBUM=%g" -T "DATE=%y" -T "TRACKNUMBER=%n" -T "TOTALTRACKS=%x" -T "GENRE=%m" -T "ALBUMARTIST=%v" -T "ALBUM ARTIST=%v" -T "COMMENT=EAC V1.01b1, Secure Mode, Test & Copy, AccurateRip, FL


TOC of the extracted CD

Track | Start | Length | Start sector | End sector
––––––––––––––––––––––––––––-
1 | 0:00.33 | 2:23.30 | 33 | 10787
2 | 2:23.63 | 3:52.15 | 10788 | 28202
3 | 6:16.03 | 5:19.60 | 28203 | 52187
4 | 11:35.63 | 2:30.52 | 52188 | 63489
5 | 14:06.40 | 3:29.23 | 63490 | 79187
6 | 17:35.63 | 1:48.50 | 79188 | 87337
7 | 19:24.38 | 4:05.20 | 87338 | 105732
8 | 23:29.58 | 4:38.37 | 105733 | 126619
9 | 28:08.20 | 3:27.35 | 126620 | 142179
10 | 31:35.55 | 3:45.70 | 142180 | 159124
11 | 35:21.50 | 1:11.25 | 159125 | 164474
12 | 36:33.00 | 5:11.18 | 164475 | 187817
13 | 41:44.18 | 4:43.62 | 187818 | 209104
14 | 46:28.05 | 5:36.65 | 209105 | 234369
15 | 52:04.70 | 2:13.25 | 234370 | 244369
16 | 54:18.20 | 3:16.25 | 244370 | 259094
17 | 57:34.45 | 3:34.58 | 259095 | 275202
18 | 61:09.28 | 4:46.42 | 275203 | 296694
19 | 65:55.70 | 4:24.58 | 296695 | 316552


Track 1

Filename J:\New Rips\VA - Deutsches Jazz Festival 1954-1955 (1990) [FLAC]\disc 8of8\01 - Johannes Rediske - Moderation.wav

Pre-gap length 0:00:02.33

Peak level 89.9 %
Extraction speed 1.7 X
Track quality 100.0 %
Test CRC F9197C02
Copy CRC F9197C02
Track not present in AccurateRip database
Copy OK

Track 2

Filename J:\New Rips\VA - Deutsches Jazz Festival 1954-1955 (1990) [FLAC]\disc 8of8\02 - Johannes Rediske - Chloe.wav

Peak level 64.2 %
Extraction speed 1.8 X
Track quality 99.9 %
Test CRC 63ED7EB9
Copy CRC 63ED7EB9
Track not present in AccurateRip database
Copy OK

Track 3

Filename J:\New Rips\VA - Deutsches Jazz Festival 1954-1955 (1990) [FLAC]\disc 8of8\03 - Johannes Rediske - Out Of Nowhere.wav

Peak level 66.5 %
Extraction speed 2.0 X
Track quality 99.9 %
Test CRC 6E301F1A
Copy CRC 6E301F1A
Track not present in AccurateRip database
Copy OK

Track 4

Filename J:\New Rips\VA - Deutsches Jazz Festival 1954-1955 (1990) [FLAC]\disc 8of8\04 - Johannes Rediske - Boptical Illusion.wav

Peak level 64.8 %
Extraction speed 2.2 X
Track quality 100.0 %
Test CRC B80B0D3A
Copy CRC B80B0D3A
Track not present in AccurateRip database
Copy OK

Track 5

Filename J:\New Rips\VA - Deutsches Jazz Festival 1954-1955 (1990) [FLAC]\disc 8of8\05 - Johannes Rediske - Sweet Georgia Brown.wav

Peak level 64.7 %
Extraction speed 2.5 X
Track quality 100.0 %
Test CRC 8B5C49B4
Copy CRC 8B5C49B4
Track not present in AccurateRip database
Copy OK

Track 6

Filename J:\New Rips\VA - Deutsches Jazz Festival 1954-1955 (1990) [FLAC]\disc 8of8\06 - Paul Kuhn - Moderation.wav

Pre-gap length 0:00:03.00

Peak level 42.3 %
Extraction speed 2.2 X
Track quality 100.0 %
Test CRC 14AB6410
Copy CRC 14AB6410
Track not present in AccurateRip database
Copy OK

Track 7

Filename J:\New Rips\VA - Deutsches Jazz Festival 1954-1955 (1990) [FLAC]\disc 8of8\07 - Paul Kuhn - Thou Swell.wav

Peak level 72.8 %
Extraction speed 2.7 X
Track quality 100.0 %
Test CRC 6315FDAA
Copy CRC 6315FDAA
Track not present in AccurateRip database
Copy OK

Track 8

Filename J:\New Rips\VA - Deutsches Jazz Festival 1954-1955 (1990) [FLAC]\disc 8of8\08 - Paul Kuhn - Dancing In The Dark.wav

Peak level 84.3 %
Extraction speed 2.9 X
Track quality 100.0 %
Test CRC FB4744D7
Copy CRC FB4744D7
Track not present in AccurateRip database
Copy OK

Track 9

Filename J:\New Rips\VA - Deutsches Jazz Festival 1954-1955 (1990) [FLAC]\disc 8of8\09 - Paul Kuhn - Delaunay's Dilemma.wav

Peak level 65.2 %
Extraction speed 2.9 X
Track quality 100.0 %
Test CRC 21B6A6E6
Copy CRC 21B6A6E6
Track not present in AccurateRip database
Copy OK

Track 10

Filename J:\New Rips\VA - Deutsches Jazz Festival 1954-1955 (1990) [FLAC]\disc 8of8\10 - Paul Kuhn - Jumpin' At The Rosengarten.wav

Peak level 72.1 %
Extraction speed 2.4 X
Track quality 99.9 %
Test CRC 4DFF3EBE
Copy CRC 4DFF3EBE
Track not present in AccurateRip database
Copy OK

Track 11

Filename J:\New Rips\VA - Deutsches Jazz Festival 1954-1955 (1990) [FLAC]\disc 8of8\11 - Helmut Weglinski - Moderation.wav

Pre-gap length 0:00:03.00

Peak level 35.7 %
Extraction speed 2.3 X
Track quality 100.0 %
Test CRC C65E1FF9
Copy CRC C65E1FF9
Track not present in AccurateRip database
Copy OK

Track 12

Filename J:\New Rips\VA - Deutsches Jazz Festival 1954-1955 (1990) [FLAC]\disc 8of8\12 - Helmut Weglinski - Flip.wav

Peak level 70.9 %
Extraction speed 3.3 X
Track quality 100.0 %
Test CRC 83516301
Copy CRC 83516301
Track not present in AccurateRip database
Copy OK

Track 13

Filename J:\New Rips\VA - Deutsches Jazz Festival 1954-1955 (1990) [FLAC]\disc 8of8\13 - Helmut Weglinski - Ghost Of A Chance.wav

Peak level 58.7 %
Extraction speed 2.8 X
Track quality 99.9 %
Test CRC FFDAE54D
Copy CRC FFDAE54D
Track not present in AccurateRip database
Copy OK

Track 14

Filename J:\New Rips\VA - Deutsches Jazz Festival 1954-1955 (1990) [FLAC]\disc 8of8\14 - Helmut Weglinski - Crazy Rhythm.wav

Peak level 67.2 %
Extraction speed 3.7 X
Track quality 100.0 %
Test CRC 785E0664
Copy CRC 785E0664
Track not present in AccurateRip database
Copy OK

Track 15

Filename J:\New Rips\VA - Deutsches Jazz Festival 1954-1955 (1990) [FLAC]\disc 8of8\15 - New Jazz Group Hannover - Moderation.wav

Pre-gap length 0:00:02.00

Peak level 45.4 %
Extraction speed 3.2 X
Track quality 100.0 %
Test CRC 05B7FFD5
Copy CRC 05B7FFD5
Track not present in AccurateRip database
Copy OK

Track 16

Filename J:\New Rips\VA - Deutsches Jazz Festival 1954-1955 (1990) [FLAC]\disc 8of8\16 - New Jazz Group Hannover - Dance Or Not To Dance.wav

Peak level 77.8 %
Extraction speed 3.5 X
Track quality 100.0 %
Test CRC 4C8933B9
Copy CRC 4C8933B9
Track not present in AccurateRip database
Copy OK

Track 17

Filename J:\New Rips\VA - Deutsches Jazz Festival 1954-1955 (1990) [FLAC]\disc 8of8\17 - New Jazz Group Hannover - I Only Have Eyes For You.wav

Peak level 63.9 %
Extraction speed 3.7 X
Track quality 100.0 %
Test CRC 836034C6
Copy CRC 836034C6
Track not present in AccurateRip database
Copy OK

Track 18

Filename J:\New Rips\VA - Deutsches Jazz Festival 1954-1955 (1990) [FLAC]\disc 8of8\18 - New Jazz Group Hannover - Lover Man.wav

Peak level 58.4 %
Extraction speed 2.9 X
Track quality 99.9 %
Test CRC 5A71AACE
Copy CRC 5A71AACE
Track not present in AccurateRip database
Copy OK

Track 19

Filename J:\New Rips\VA - Deutsches Jazz Festival 1954-1955 (1990) [FLAC]\disc 8of8\19 - New Jazz Group Hannover - Continuation.wav

Peak level 67.4 %
Extraction speed 4.0 X
Track quality 100.0 %
Test CRC CD42DCC6
Copy CRC CD42DCC6
Track not present in AccurateRip database
Copy OK


None of the tracks are present in the AccurateRip database

No errors occurred

End of status report

==== Log checksum 9F00F640C6CFBC273ED54A0EC62D32118CF612F38CF582C6C320F65F7F57D071 ====


Various Artists - Deutsches Jazz Festival, Frankfurt 1954-1955 (1990) {8CD Box Set Bear Family BCD 15430}


All thanks goes to the original releaser!


===