Tags
Language
Tags
April 2024
Su Mo Tu We Th Fr Sa
31 1 2 3 4 5 6
7 8 9 10 11 12 13
14 15 16 17 18 19 20
21 22 23 24 25 26 27
28 29 30 1 2 3 4

Leroy Vinnegar, Doug Watkins, Paul Chambers & Ron Carter - Jazz Bassists - Four Classic Albums (2018)

Posted By: delpotro
Leroy Vinnegar, Doug Watkins, Paul Chambers & Ron Carter - Jazz Bassists - Four Classic Albums (2018)

Leroy Vinnegar, Doug Watkins, Paul Chambers & Ron Carter - Jazz Bassists - Four Classic Albums (2018)
EAC Rip | FLAC (tracks+log+.cue) - 876 Mb | MP3 CBR 320 kbps - 367 Mb | Covers included | 02:27:03
Jazz, Bop, Cool, Hard Bop | Label: AVID Jazz

AVID Jazz is proud to introduce an exciting new addition to our Four Classic Album series, Four Classic Jazz Instrumentalists. We continue with Four Classic Jazz Bassists, a re-mastered 2CD set complete with original artwork, liner notes and personnel details.

For our latest release in this new series we have chosen a diverse range of jazz bassists who released their debut or follow up albums from the late 1950s to the early 1960s. Leroy Vinnegar - Meet “The Walker”, Mr Leroy Vinnegar, the bass man famed for his walking bass line featuring ascending and descending notes. Born in Indianapolis, Leroy moved to LA where he made his reputation playing with many of the West Coast cool school jazz musicians. He was a prolific musician both as a solo and as a vital sideman to countless of the jazz greats. Making his solo debut in 1957/8 with “Leroy Walks” he would produce many great solo albums throughout his long career but most of his work was done as a sideman to other greats. These would include many of those West Coast cool cats like Shelly Manne, Stan Getz, Lee Konitz, Chet Baker and Shorty Rogers as well as other giants like Benny Carter, Buddy Collette, Kenny Dorham, Kenny Drew and Teddy Charles, with whom he played on nine albums. Many of these guys can be found with their own albums in the AVID catalogue. Doug Watkins - Due to his tragic early death in a car accident, our next fine bass man only made two solo albums, this was his second and guess what? He doesn’t even play bass on it, but instead he chose the cello! And that after spending only three days with the instrument! And what a great idea we at AVID say. “Soulnik” is a mighty fine album indeed. Doug says in the liner notes “I usually do these tunes on the bass but I wanted a different sound…..to me the cello gets a tone between a guitar and a piano”. Just take a listen to Doug playing with the flute and oboe of Yusef Lateef, wonderful stuff! By the way watch out for our second Classic Bassist set which will feature Doug’s hard to find debut album “Watkins At Large”. Paul Chambers (PC) has got to be one of the finest and most famous bass men in the history of the instrument! Known for his fine timing, intonation and improvisational skills, PC was the go to bass man throughout the 1950s and 1960s. Whether plucked or bowed, PC was your man! A list of who he played with is truly awesome and almost too staggering to be believed. If you take a look through the AVID catalogue it is just full of great jazz names featuring Paul on bass. Perhaps his most famous association was with Miles Davis with whom he played on around a dozen albums in his first classic Quintet, including of course the legendary, best-selling jazz album of all time, “Kind Of Blue” which features the classic intro to “So What” with Chambers trading licks with Bill Evans. Just to give you a flavour of some of the other jazz giants he played with, how about, a dozen or so with Wynton Kelly, another dozen or so with Red Garland and John Coltrane, then take a listen to albums by Hank Mobley, Jackie McLean, Cannonball Adderley, Sonny Criss, Donald Byrd, Chet Baker, Kenny Burrell and Jackie Byard. And we’re not even out of the “B’s and C’s yet! Awesome! Ron Carter - Hey, we got a live one! Yes Ron Carter is one of that rare breed of AVID legends, a living one! At 80 years of age, Ron Carter’s long and illustrious career has made him the most recorded jazz bassist in history with over 2,200 recording sessions to his name(That’s a lot of late nights, we at AVID say!). And by the way he also plays cello which he began learning at age 10 before switching to bass after suffering racial prejudice as a black person playing a traditionally white classical instrument. However, thankfully, Ron did return to the cello and can be heard playing it on many of his fine solo albums, including “Where” and many of his numerous recording sessions. His early career saw him playing with a newer breed of younger jazzmen including Eric Dolphy, Jackie Byard, Mal Waldron and Don Ellis. Later in the 1960s he found fame in the second great Miles Davis Quintet. As with many of the great players in the rhythm section, the list of greats Ron has played with is very similar to Paul Chambers, i.e. almost everyone who is anyone. However in Ron’s case, due to his long career, the list takes us to infinity and beyond!
Tracklist:
CD1
Leroy Vinnegar Sextet - Leroy Walks! (1957)
01. Walk On (8:28)
02. Would You Like to Take a Walk? (6:57)
03. On the Sunny Side of the Street (5:38)
04. Walkin' (6:31)
05. Walkin' My Baby Back Home (4:48)
06. I'll Walk Alone (3:33)
07. Walkin' by the River (5:36)
Doug Watkins Quintet - Soulnik (1960)
08. One Guy (6:20)
09. Confessin' (6:51)
10. Soulnik (5:48)
11. Andre's Bag (7:01)
12. I Remember You (5:38)
13. Imagination (6:12)

CD2
Leroy Vinnegar Sextet - Leroy Walks! (1957)
01. Walk On (8:28)
02. Would You Like to Take a Walk? (6:57)
03. On the Sunny Side of the Street (5:38)
04. Walkin' (6:31)
05. Walkin' My Baby Back Home (4:48)
06. I'll Walk Alone (3:33)
07. Walkin' by the River (5:36)
Doug Watkins Quintet - Soulnik (1960)
08. One Guy (6:20)
09. Confessin' (6:51)
10. Soulnik (5:48)
11. Andre's Bag (7:01)
12. I Remember You (5:38)
13. Imagination (6:12)

Exact Audio Copy V1.3 from 2. September 2016

EAC extraction logfile from 11. November 2023, 18:09

Leroy Vinnegar, Doug Watkins / Jazz Bassists - CD1

Used drive : TSSTcorpCDDVDW SH-224FB Adapter: 1 ID: 0

Read mode : Secure
Utilize accurate stream : Yes
Defeat audio cache : Yes
Make use of C2 pointers : No

Read offset correction : 6
Overread into Lead-In and Lead-Out : No
Fill up missing offset samples with silence : Yes
Delete leading and trailing silent blocks : No
Null samples used in CRC calculations : Yes
Used interface : Native Win32 interface for Win NT & 2000
Gap handling : Appended to previous track

Used output format : User Defined Encoder
Selected bitrate : 128 kBit/s
Quality : High
Add ID3 tag : No
Command line compressor : C:\Program Files (x86)\Exact Audio Copy\Flac\flac.exe
Additional command line options : -V -8 -T "Genre=%genre%" -T "Artist=%artist%" -T "Title=%title%" -T "Album=%albumtitle%" -T "Date=%year%" -T "Tracknumber=%tracknr%" -T "Comment=%comment%" %source%


TOC of the extracted CD

Track | Start | Length | Start sector | End sector
––––––––––––––––––––––––––––-
1 | 0:00.00 | 8:27.54 | 0 | 38078
2 | 8:27.54 | 6:57.12 | 38079 | 69365
3 | 15:24.66 | 5:38.10 | 69366 | 94725
4 | 21:03.01 | 6:30.53 | 94726 | 124028
5 | 27:33.54 | 4:48.27 | 124029 | 145655
6 | 32:22.06 | 3:32.53 | 145656 | 161608
7 | 35:54.59 | 5:35.65 | 161609 | 186798
8 | 41:30.49 | 6:20.04 | 186799 | 215302
9 | 47:50.53 | 6:51.07 | 215303 | 246134
10 | 54:41.60 | 5:48.20 | 246135 | 272254
11 | 60:30.05 | 7:01.10 | 272255 | 303839
12 | 67:31.15 | 5:38.14 | 303840 | 329203
13 | 73:09.29 | 6:12.12 | 329204 | 357115


Track 1

Filename C:\ssagwebster\Jazz Bassists (Vinnegar, Watkins, Chambers, Carter) - Four Classic Albums (2018, 2CD)\CD1\01. Leroy Vinnegar - Walk On.wav

Pre-gap length 0:00:02.00

Peak level 90.3 %
Extraction speed 2.2 X
Track quality 100.0 %
Test CRC 98548BD0
Copy CRC 98548BD0
Track not present in AccurateRip database
Copy OK

Track 2

Filename C:\ssagwebster\Jazz Bassists (Vinnegar, Watkins, Chambers, Carter) - Four Classic Albums (2018, 2CD)\CD1\02. Leroy Vinnegar - Would You Like To Take A Walk.wav

Pre-gap length 0:00:02.00

Peak level 73.3 %
Extraction speed 2.5 X
Track quality 100.0 %
Test CRC ACDDE549
Copy CRC ACDDE549
Accurately ripped (confidence 1) [2169837F] (AR v2)
Copy OK

Track 3

Filename C:\ssagwebster\Jazz Bassists (Vinnegar, Watkins, Chambers, Carter) - Four Classic Albums (2018, 2CD)\CD1\03. Leroy Vinnegar - On The Sunny Side Of The Street.wav

Pre-gap length 0:00:02.00

Peak level 85.0 %
Extraction speed 2.7 X
Track quality 100.0 %
Test CRC 62AAEAD3
Copy CRC 62AAEAD3
Accurately ripped (confidence 1) [C8BE673F] (AR v2)
Copy OK

Track 4

Filename C:\ssagwebster\Jazz Bassists (Vinnegar, Watkins, Chambers, Carter) - Four Classic Albums (2018, 2CD)\CD1\04. Leroy Vinnegar - Walkin'.wav

Pre-gap length 0:00:02.00

Peak level 71.3 %
Extraction speed 2.9 X
Track quality 100.0 %
Test CRC 65CC5F60
Copy CRC 65CC5F60
Accurately ripped (confidence 1) [86E601E3] (AR v2)
Copy OK

Track 5

Filename C:\ssagwebster\Jazz Bassists (Vinnegar, Watkins, Chambers, Carter) - Four Classic Albums (2018, 2CD)\CD1\05. Leroy Vinnegar - Walkin' My Baby Back Home.wav

Pre-gap length 0:00:02.00

Peak level 89.8 %
Extraction speed 3.0 X
Track quality 100.0 %
Test CRC 6B0EAA38
Copy CRC 6B0EAA38
Accurately ripped (confidence 1) [2896D1F0] (AR v2)
Copy OK

Track 6

Filename C:\ssagwebster\Jazz Bassists (Vinnegar, Watkins, Chambers, Carter) - Four Classic Albums (2018, 2CD)\CD1\06. Leroy Vinnegar - I'll Walk Alone.wav

Pre-gap length 0:00:02.00

Peak level 68.0 %
Extraction speed 3.0 X
Track quality 100.0 %
Test CRC 08EA6FEC
Copy CRC 08EA6FEC
Accurately ripped (confidence 1) [24C02CC2] (AR v2)
Copy OK

Track 7

Filename C:\ssagwebster\Jazz Bassists (Vinnegar, Watkins, Chambers, Carter) - Four Classic Albums (2018, 2CD)\CD1\07. Leroy Vinnegar - Walkin' By The River.wav

Pre-gap length 0:00:02.00

Peak level 80.0 %
Extraction speed 3.3 X
Track quality 100.0 %
Test CRC 8350CB81
Copy CRC 8350CB81
Accurately ripped (confidence 1) [4D04574B] (AR v2)
Copy OK

Track 8

Filename C:\ssagwebster\Jazz Bassists (Vinnegar, Watkins, Chambers, Carter) - Four Classic Albums (2018, 2CD)\CD1\08. Doug Watkins - One Guy.wav

Pre-gap length 0:00:02.00

Peak level 97.0 %
Extraction speed 3.5 X
Track quality 100.0 %
Test CRC 9FCFBE82
Copy CRC 9FCFBE82
Accurately ripped (confidence 2) [307DD197] (AR v2)
Copy OK

Track 9

Filename C:\ssagwebster\Jazz Bassists (Vinnegar, Watkins, Chambers, Carter) - Four Classic Albums (2018, 2CD)\CD1\09. Doug Watkins - Confessin'.wav

Pre-gap length 0:00:02.00

Peak level 99.8 %
Extraction speed 3.7 X
Track quality 100.0 %
Test CRC A421C6A4
Copy CRC A421C6A4
Accurately ripped (confidence 2) [40BFCDA7] (AR v2)
Copy OK

Track 10

Filename C:\ssagwebster\Jazz Bassists (Vinnegar, Watkins, Chambers, Carter) - Four Classic Albums (2018, 2CD)\CD1\10. Doug Watkins - Soulnik.wav

Pre-gap length 0:00:02.00

Peak level 99.6 %
Extraction speed 3.1 X
Track quality 99.9 %
Test CRC C8D260A8
Copy CRC C8D260A8
Accurately ripped (confidence 2) [4D39BA90] (AR v2)
Copy OK

Track 11

Filename C:\ssagwebster\Jazz Bassists (Vinnegar, Watkins, Chambers, Carter) - Four Classic Albums (2018, 2CD)\CD1\11. Doug Watkins - Andre's Bag.wav

Pre-gap length 0:00:02.00

Peak level 89.1 %
Extraction speed 4.0 X
Track quality 100.0 %
Test CRC 7AE48027
Copy CRC 7AE48027
Accurately ripped (confidence 2) [721191CA] (AR v2)
Copy OK

Track 12

Filename C:\ssagwebster\Jazz Bassists (Vinnegar, Watkins, Chambers, Carter) - Four Classic Albums (2018, 2CD)\CD1\12. Doug Watkins - I Remember You.wav

Pre-gap length 0:00:02.00

Peak level 86.5 %
Extraction speed 4.1 X
Track quality 100.0 %
Test CRC F9205079
Copy CRC F9205079
Accurately ripped (confidence 2) [820A4E1C] (AR v2)
Copy OK

Track 13

Filename C:\ssagwebster\Jazz Bassists (Vinnegar, Watkins, Chambers, Carter) - Four Classic Albums (2018, 2CD)\CD1\13. Doug Watkins - Imagination.wav

Pre-gap length 0:00:02.00

Peak level 96.8 %
Extraction speed 3.5 X
Track quality 99.9 %
Test CRC 783DBDCC
Copy CRC 783DBDCC
Accurately ripped (confidence 2) [01B204B1] (AR v2)
Copy OK


12 трек(и) скопированы точно
1 трек(и) не содержатся в базе AccurateRip

Some tracks could not be verified as accurate

No errors occurred

End of status report

–– CUETools DB Plugin V2.1.6

[CTDB TOCID: YbmeBQg1moVifGBh3nBoEWVWeus-] found
Submit result: YbmeBQg1moVifGBh3nBoEWVWeus- has been confirmed
Track | CTDB Status
1 | (6/6) Accurately ripped
2 | (6/6) Accurately ripped
3 | (6/6) Accurately ripped
4 | (6/6) Accurately ripped
5 | (6/6) Accurately ripped
6 | (6/6) Accurately ripped
7 | (6/6) Accurately ripped
8 | (6/6) Accurately ripped
9 | (6/6) Accurately ripped
10 | (6/6) Accurately ripped
11 | (6/6) Accurately ripped
12 | (6/6) Accurately ripped
13 | (6/6) Accurately ripped


==== Log checksum CFDB5E26E5F28D10F367E491DBB2973165B95E7EB258DE3DD9AA2CCE746E4A25 ====
Exact Audio Copy V1.3 from 2. September 2016

EAC extraction logfile from 11. November 2023, 19:04

Paul Chambers, Ron Carter / Jazz Bassists - CD2

Used drive : TSSTcorpCDDVDW SH-224FB Adapter: 1 ID: 0

Read mode : Secure
Utilize accurate stream : Yes
Defeat audio cache : Yes
Make use of C2 pointers : No

Read offset correction : 6
Overread into Lead-In and Lead-Out : No
Fill up missing offset samples with silence : Yes
Delete leading and trailing silent blocks : No
Null samples used in CRC calculations : Yes
Used interface : Native Win32 interface for Win NT & 2000
Gap handling : Appended to previous track

Used output format : User Defined Encoder
Selected bitrate : 128 kBit/s
Quality : High
Add ID3 tag : No
Command line compressor : C:\Program Files (x86)\Exact Audio Copy\Flac\flac.exe
Additional command line options : -V -8 -T "Genre=%genre%" -T "Artist=%artist%" -T "Title=%title%" -T "Album=%albumtitle%" -T "Date=%year%" -T "Tracknumber=%tracknr%" -T "Comment=%comment%" %source%


TOC of the extracted CD

Track | Start | Length | Start sector | End sector
––––––––––––––––––––––––––––-
1 | 0:00.00 | 4:11.41 | 0 | 18865
2 | 4:11.41 | 10:37.70 | 18866 | 66710
3 | 14:49.36 | 3:32.48 | 66711 | 82658
4 | 18:22.09 | 6:08.30 | 82659 | 110288
5 | 24:30.39 | 7:06.34 | 110289 | 142272
6 | 31:36.73 | 5:42.57 | 142273 | 167979
7 | 37:19.55 | 5:43.40 | 167980 | 193744
8 | 43:03.20 | 7:39.35 | 193745 | 228204
9 | 50:42.55 | 6:00.62 | 228205 | 255266
10 | 56:43.42 | 5:51.30 | 255267 | 281621
11 | 62:34.72 | 5:07.05 | 281622 | 304651


Track 1

Filename C:\ssagwebster\Jazz Bassists (Vinnegar, Watkins, Chambers, Carter) - Four Classic Albums (2018, 2CD)\CD2\01. Paul Chambers - Melody.wav

Pre-gap length 0:00:02.00

Peak level 89.6 %
Extraction speed 1.7 X
Track quality 100.0 %
Test CRC 606FAD60
Copy CRC 606FAD60
Accurately ripped (confidence 1) [CB462A7A] (AR v2)
Copy OK

Track 2

Filename C:\ssagwebster\Jazz Bassists (Vinnegar, Watkins, Chambers, Carter) - Four Classic Albums (2018, 2CD)\CD2\02. Paul Chambers - Bass Region.wav

Pre-gap length 0:00:02.00

Peak level 99.3 %
Extraction speed 2.2 X
Track quality 100.0 %
Test CRC CA6C5F05
Copy CRC CA6C5F05
Track not present in AccurateRip database
Copy OK

Track 3

Filename C:\ssagwebster\Jazz Bassists (Vinnegar, Watkins, Chambers, Carter) - Four Classic Albums (2018, 2CD)\CD2\03. Paul Chambers - Retrogress.wav

Pre-gap length 0:00:02.00

Peak level 88.6 %
Extraction speed 2.2 X
Track quality 100.0 %
Test CRC 51908D51
Copy CRC 51908D51
Accurately ripped (confidence 1) [FAB8BADF] (AR v2)
Copy OK

Track 4

Filename C:\ssagwebster\Jazz Bassists (Vinnegar, Watkins, Chambers, Carter) - Four Classic Albums (2018, 2CD)\CD2\04. Paul Chambers - Mopp Shoe Blues.wav

Pre-gap length 0:00:02.00

Peak level 100.0 %
Extraction speed 2.5 X
Track quality 100.0 %
Test CRC 88886004
Copy CRC 88886004
Accurately ripped (confidence 1) [D59C3B29] (AR v2)
Copy OK

Track 5

Filename C:\ssagwebster\Jazz Bassists (Vinnegar, Watkins, Chambers, Carter) - Four Classic Albums (2018, 2CD)\CD2\05. Paul Chambers - Blessed.wav

Pre-gap length 0:00:02.00

Peak level 74.3 %
Extraction speed 2.8 X
Track quality 100.0 %
Test CRC F8955160
Copy CRC F8955160
Accurately ripped (confidence 1) [B33CB5DC] (AR v2)
Copy OK

Track 6

Filename C:\ssagwebster\Jazz Bassists (Vinnegar, Watkins, Chambers, Carter) - Four Classic Albums (2018, 2CD)\CD2\06. Ron Carter - Rally.wav

Pre-gap length 0:00:02.00

Peak level 81.4 %
Extraction speed 2.9 X
Track quality 100.0 %
Test CRC CA8D8C43
Copy CRC CA8D8C43
Accurately ripped (confidence 1) [1763CDD6] (AR v2)
Copy OK

Track 7

Filename C:\ssagwebster\Jazz Bassists (Vinnegar, Watkins, Chambers, Carter) - Four Classic Albums (2018, 2CD)\CD2\07. Ron Carter - Bass Duet.wav

Pre-gap length 0:00:02.00

Peak level 85.8 %
Extraction speed 3.1 X
Track quality 100.0 %
Test CRC E6AF94DE
Copy CRC E6AF94DE
Accurately ripped (confidence 1) [523519FE] (AR v2)
Copy OK

Track 8

Filename C:\ssagwebster\Jazz Bassists (Vinnegar, Watkins, Chambers, Carter) - Four Classic Albums (2018, 2CD)\CD2\08. Ron Carter - Softly As In A Morning Sunrise.wav

Pre-gap length 0:00:02.00

Peak level 86.1 %
Extraction speed 2.9 X
Track quality 99.9 %
Test CRC 808E74CC
Copy CRC 808E74CC
Accurately ripped (confidence 1) [449488D9] (AR v2)
Copy OK

Track 9

Filename C:\ssagwebster\Jazz Bassists (Vinnegar, Watkins, Chambers, Carter) - Four Classic Albums (2018, 2CD)\CD2\09. Ron Carter - Where.wav

Pre-gap length 0:00:02.00

Peak level 89.3 %
Extraction speed 3.4 X
Track quality 100.0 %
Test CRC CFF0D6E1
Copy CRC CFF0D6E1
Accurately ripped (confidence 1) [A284C61D] (AR v2)
Copy OK

Track 10

Filename C:\ssagwebster\Jazz Bassists (Vinnegar, Watkins, Chambers, Carter) - Four Classic Albums (2018, 2CD)\CD2\10. Ron Carter - Yes Indeed.wav

Pre-gap length 0:00:02.00

Peak level 97.1 %
Extraction speed 3.6 X
Track quality 100.0 %
Test CRC 2E7354E4
Copy CRC 2E7354E4
Accurately ripped (confidence 1) [A5AF2149] (AR v2)
Copy OK

Track 11

Filename C:\ssagwebster\Jazz Bassists (Vinnegar, Watkins, Chambers, Carter) - Four Classic Albums (2018, 2CD)\CD2\11. Ron Carter - Saucer Eyes.wav

Pre-gap length 0:00:02.00

Peak level 97.3 %
Extraction speed 2.9 X
Track quality 99.9 %
Test CRC B66DE839
Copy CRC B66DE839
Accurately ripped (confidence 1) [7393C1D6] (AR v2)
Copy OK


10 трек(и) скопированы точно
1 трек(и) не содержатся в базе AccurateRip

Some tracks could not be verified as accurate

No errors occurred

End of status report

–– CUETools DB Plugin V2.1.6

[CTDB TOCID: ESzOcel7frLqx29eZ9SpGcr0two-] found
Submit result: ESzOcel7frLqx29eZ9SpGcr0two- has been confirmed
Track | CTDB Status
1 | (6/6) Accurately ripped
2 | (6/6) Accurately ripped
3 | (6/6) Accurately ripped
4 | (6/6) Accurately ripped
5 | (6/6) Accurately ripped
6 | (6/6) Accurately ripped
7 | (6/6) Accurately ripped
8 | (6/6) Accurately ripped
9 | (6/6) Accurately ripped
10 | (6/6) Accurately ripped
11 | (6/6) Accurately ripped


==== Log checksum 0ADEF3ED39280FE17167045A9CE98E2BB87F7F2313E9AE5438ED9B215CB239E6 ====

Thanks to the Original ripper !