Tags
Language
Tags

Various Artists - Last Of The Garage Punk Unknowns, Volumes 7 & 8 (2016) {Crypt Records CRYPT118 rec 1965-1967}

Posted By:
Various Artists - Last Of The Garage Punk Unknowns, Volumes 7 & 8 (2016) {Crypt Records CRYPT118 rec 1965-1967}

Various Artists - Last Of The Garage Punk Unknowns, Volumes 7 & 8 (2016) {Crypt Records CRYPT118 rec 1965-1967}
EAC rip (secure mode) | FLAC (tracks)+CUE+LOG -> 285 Mb | MP3 @320 -> 175 Mb
Full Artwork @ 600 dpi (jpg) -> 243 Mb | 5% repair rar
© 1965-67, 2016 Crypt Records | CRYPT 118
Rock / Garage Rock / Psychedelic

30 prime slabs of mid-60s USA garage punk MISERY - garage punk SADness from LPs 7 & 8 with liner notes, band photos, label scans. (NOTE: This is an entirely NEW series and NONE of these tracks were on the old series “GARAGE PUNK UNKNOWNS”). If anyone knows angst, it's a teenager, a breed that thrives on wearing misery on their sleeves. Fans of vintage '60s garage rock usually favor sneering delinquents armed with fuzz pedals, but there was a long-running subgenre of garage rock that dealt with heartbroken guys trying to make sense of a cold, unforgiving world (or at the very least, cold, unforgiving girls). Crypt Records has given these bummed-out classics their due on Last of the Garage Punk Unknowns, Vols. 7-8, subtitled "Heartbroken American Garage Jangle Misery 1963-1967."
Various Artists - Last Of The Garage Punk Unknowns, Volumes 7 & 8 (2016) {Crypt Records CRYPT118 rec 1965-1967}

While that description isn't 100-percent accurate geographically (the White Angels were from Switzerland, and a combo called the Sonics – no, not those Sonics – were comprised of American kids whose families were living in Thailand), musically it's close to the mark. Many of these tunes fall somewhere in the vicinity of folk rock, or at least something with a significantly more measured approach than the average high-attitude rantings common to '60s garage sounds. And a bunch of this stuff sounds significantly more sophisticated than what most sullen high schoolers were up to at the time. "Without You" by the King's Ransom is moody stuff with clever use of rhythms and melodic stops and starts. The lean, wiry guitar figures that carry "Natasha" by the Glas Menagerie suggest early psychedelia fused with the Velvet Underground. The Other Side's cover of "Dark Side" by the Shadows of Knight trades in the cockiness of the original for a powerful plea that's just as effective. We the People (not the Florida band of "Mirror of your Mind" infamy) manage to have it both ways as "Always Lies" opens as a quiet, sorrowful number and builds into a scream-fest for lead singer Peter Weeple. The Saxons deliver plenty of tough guitar work on "The Way of the Down," which also includes some overly optimistic applause and cheering clipped onto the beginning and end. And the New Rumley Invincibles find some humor amid the heartache in "Living with the Birds," which suggests the band had been listening to birds and Byrds. Even the most ordinary bands on this collection deliver solid stuff, the remastering makes the best of the source materials, and the entertaining liner notes offer as much information as is known about the artists. (Though someone must have been really excited about the essay on Pasco, Washington's the Pastels, since it appears here twice.) If you want to get in touch with your inner 16-year-old who just got stood up for the Prom, Last of the Garage Punk Unknowns, Vols. 7-8 will deliver the perfect soundtrack for crying in your root beer. (Or real beer you swiped from your dad.)
Various Artists - Last Of The Garage Punk Unknowns, Volumes 7 & 8 (2016) {Crypt Records CRYPT118 rec 1965-1967}


tracklist & personnel:
01 - The Nomads - Time Remains
02 - The Pulsating Heartbeats - Anne
03 - The Gremlins - Everybody Needs A Love
04 - The Last Image - She's On My Mind
05 - The Plastic Menagerie - Tryin' To Come Back
06 - The Glas Menagerie - Natasha
07 - The French Church - Without Crying
08 - Prince and the Paupers - What More Can I Say
09 - The King's Ransom - Without You
10 - The Time Takers - Don't Turn Away
11 - The Stratacasters - Can't Go On Without You
12 - The Pastels - What Can I Say
13 - The Shackles - Just Looking For You
14 - The Scurvy Knaves - Gypsy Baby
15 - The New Rumley Invincibles - Living With The Birds
16 - The Other Side - Dark Side
17 - The Pastels - How Many Nights
18 - The Toads - Stay Away
19 - The Henchmen - She Still Loves You
20 - The Night Walkers - Stix And Stones
21 - The Time Takers - Love Me Like You Did Before
22 - The Night Riders - She Won't Miss You
23 - The White Angels - But He Never Comes Back
24 - We The People - Always Lies
25 - The Dominions - I Need Her
26 - The Saxons - The Way Of The Down
27 - The Sonics - You Don't Hear Me
28 - The Mystics - Orphan
29 - The Vacant Lot - Hey Baby
30 - The Squires - Why Oh Why

Exact Audio Copy V1.1 from 23. June 2015

EAC extraction logfile from 20. August 2016, 0:30

Various Artists / Last Of The Garage Punk Unknowns Vol 7 & 8

Used drive : PLEXTOR DVDR PX-L890SA Adapter: 1 ID: 2

Read mode : Secure
Utilize accurate stream : Yes
Defeat audio cache : Yes
Make use of C2 pointers : No

Read offset correction : 6
Overread into Lead-In and Lead-Out : No
Fill up missing offset samples with silence : Yes
Delete leading and trailing silent blocks : No
Null samples used in CRC calculations : Yes
Used interface : Native Win32 interface for Win NT & 2000
Gap handling : Appended to previous track

Used output format : User Defined Encoder
Selected bitrate : 128 kBit/s
Quality : High
Add ID3 tag : No
Command line compressor : C:\Program Files (x86)\Exact Audio Copy\FLAC\FLAC.EXE
Additional command line options : -8 -V -T "ARTIST=%artist%" -T "TITLE=%title%" -T "ALBUM=%albumtitle%" -T "DATE=%year%" -T "TRACKNUMBER=%tracknr%" -T "TOTALTRACKS=%numtracks%" -T "GENRE=%genre%" -T "ALBUMARTIST=%albumartist%" -T "ALBUM ARTIST=%albumartist%" -T "COMMENT=EAC Secure Mode, Test & Copy, AccurateRip, FLAC -8" %source%


TOC of the extracted CD

Track | Start | Length | Start sector | End sector
––––––––––––––––––––––––––––-
1 | 0:00.00 | 2:08.23 | 0 | 9622
2 | 2:08.23 | 2:46.73 | 9623 | 22145
3 | 4:55.21 | 2:13.69 | 22146 | 32189
4 | 7:09.15 | 2:46.33 | 32190 | 44672
5 | 9:55.48 | 2:52.10 | 44673 | 57582
6 | 12:47.58 | 2:35.29 | 57583 | 69236
7 | 15:23.12 | 1:33.02 | 69237 | 76213
8 | 16:56.14 | 2:54.13 | 76214 | 89276
9 | 19:50.27 | 3:47.67 | 89277 | 106368
10 | 23:38.19 | 2:51.43 | 106369 | 119236
11 | 26:29.62 | 2:32.55 | 119237 | 130691
12 | 29:02.42 | 3:31.21 | 130692 | 146537
13 | 32:33.63 | 2:25.28 | 146538 | 157440
14 | 34:59.16 | 2:33.55 | 157441 | 168970
15 | 37:32.71 | 2:13.17 | 168971 | 178962
16 | 39:46.13 | 2:03.22 | 178963 | 188209
17 | 41:49.35 | 3:04.48 | 188210 | 202057
18 | 44:54.08 | 2:46.06 | 202058 | 214513
19 | 47:40.14 | 1:58.31 | 214514 | 223394
20 | 49:38.45 | 2:11.39 | 223395 | 233258
21 | 51:50.09 | 2:24.13 | 233259 | 244071
22 | 54:14.22 | 3:30.47 | 244072 | 259868
23 | 57:44.69 | 1:57.37 | 259869 | 268680
24 | 59:42.31 | 2:28.61 | 268681 | 279841
25 | 62:11.17 | 2:50.08 | 279842 | 292599
26 | 65:01.25 | 2:47.65 | 292600 | 305189
27 | 67:49.15 | 3:06.46 | 305190 | 319185
28 | 70:55.61 | 3:06.57 | 319186 | 333192
29 | 74:02.43 | 3:05.18 | 333193 | 347085
30 | 77:07.61 | 2:18.67 | 347086 | 357502


Track 1

Filename D:\Flac Rips\01 - The Nomads - Time Remains.wav

Pre-gap length 0:00:02.00

Peak level 99.9 %
Extraction speed 3.2 X
Track quality 100.0 %
Test CRC 58341D96
Copy CRC 58341D96
Track not present in AccurateRip database
Copy OK

Track 2

Filename D:\Flac Rips\02 - The Pulsating Heartbeats - Anne.wav

Pre-gap length 0:00:02.00

Peak level 98.9 %
Extraction speed 2.8 X
Track quality 99.9 %
Test CRC 6DB90301
Copy CRC 6DB90301
Track not present in AccurateRip database
Copy OK

Track 3

Filename D:\Flac Rips\03 - The Gremlins - Everybody Needs A Love.wav

Pre-gap length 0:00:02.00

Peak level 100.0 %
Extraction speed 3.7 X
Track quality 100.0 %
Test CRC C7AD3EAB
Copy CRC C7AD3EAB
Track not present in AccurateRip database
Copy OK

Track 4

Filename D:\Flac Rips\04 - The Last Image - She's On My Mind.wav

Pre-gap length 0:00:02.00

Peak level 93.5 %
Extraction speed 4.1 X
Track quality 100.0 %
Test CRC 4EB4CDC9
Copy CRC 4EB4CDC9
Track not present in AccurateRip database
Copy OK

Track 5

Filename D:\Flac Rips\05 - The Plastic Menagerie - Tryin' To Come Back.wav

Pre-gap length 0:00:02.00

Peak level 95.9 %
Extraction speed 4.3 X
Track quality 100.0 %
Test CRC 93E17BC4
Copy CRC 93E17BC4
Track not present in AccurateRip database
Copy OK

Track 6

Filename D:\Flac Rips\06 - The Glas Menagerie - Natasha.wav

Pre-gap length 0:00:02.00

Peak level 97.6 %
Extraction speed 3.2 X
Track quality 99.9 %
Test CRC B501D191
Copy CRC B501D191
Track not present in AccurateRip database
Copy OK

Track 7

Filename D:\Flac Rips\07 - The French Church - Without Crying.wav

Pre-gap length 0:00:02.00

Peak level 94.9 %
Extraction speed 4.1 X
Track quality 100.0 %
Test CRC AB6A6F5C
Copy CRC AB6A6F5C
Track not present in AccurateRip database
Copy OK

Track 8

Filename D:\Flac Rips\08 - Prince and the Paupers - What More Can I Say.wav

Pre-gap length 0:00:02.00

Peak level 100.0 %
Extraction speed 4.8 X
Track quality 100.0 %
Test CRC F2CAA55A
Copy CRC F2CAA55A
Track not present in AccurateRip database
Copy OK

Track 9

Filename D:\Flac Rips\09 - The King's Ransom - Without You.wav

Pre-gap length 0:00:02.00

Peak level 95.3 %
Extraction speed 5.2 X
Track quality 100.0 %
Test CRC FB56FCDF
Copy CRC FB56FCDF
Track not present in AccurateRip database
Copy OK

Track 10

Filename D:\Flac Rips\10 - The Time Takers - Don't Turn Away.wav

Pre-gap length 0:00:02.00

Peak level 95.0 %
Extraction speed 5.1 X
Track quality 100.0 %
Test CRC 19FF701B
Copy CRC 19FF701B
Track not present in AccurateRip database
Copy OK

Track 11

Filename D:\Flac Rips\11 - The Stratacasters - Can't Go On Without You.wav

Pre-gap length 0:00:02.00

Peak level 96.0 %
Extraction speed 3.8 X
Track quality 99.9 %
Test CRC 123FE255
Copy CRC 123FE255
Track not present in AccurateRip database
Copy OK

Track 12

Filename D:\Flac Rips\12 - The Pastels - What Can I Say.wav

Pre-gap length 0:00:02.00

Peak level 99.9 %
Extraction speed 5.6 X
Track quality 100.0 %
Test CRC 640E31FD
Copy CRC 640E31FD
Track not present in AccurateRip database
Copy OK

Track 13

Filename D:\Flac Rips\13 - The Shackles - Just Looking For You.wav

Pre-gap length 0:00:02.00

Peak level 96.5 %
Extraction speed 5.4 X
Track quality 100.0 %
Test CRC 65A6A3CB
Copy CRC 65A6A3CB
Track not present in AccurateRip database
Copy OK

Track 14

Filename D:\Flac Rips\14 - The Scurvy Knaves - Gypsy Baby.wav

Pre-gap length 0:00:02.00

Peak level 100.0 %
Extraction speed 5.5 X
Track quality 100.0 %
Test CRC 8BE6C5C1
Copy CRC 8BE6C5C1
Track not present in AccurateRip database
Copy OK

Track 15

Filename D:\Flac Rips\15 - The New Rumley Invincibles - Living With The Birds.wav

Pre-gap length 0:00:02.00

Peak level 96.4 %
Extraction speed 5.5 X
Track quality 100.0 %
Test CRC 9A53E1F0
Copy CRC 9A53E1F0
Track not present in AccurateRip database
Copy OK

Track 16

Filename D:\Flac Rips\16 - The Other Side - Dark Side.wav

Pre-gap length 0:00:02.00

Peak level 100.0 %
Extraction speed 5.6 X
Track quality 100.0 %
Test CRC 0FD21C82
Copy CRC 0FD21C82
Track not present in AccurateRip database
Copy OK

Track 17

Filename D:\Flac Rips\17 - The Pastels - How Many Nights.wav

Pre-gap length 0:00:02.00

Peak level 97.5 %
Extraction speed 6.2 X
Track quality 100.0 %
Test CRC 2F660A8E
Copy CRC 2F660A8E
Track not present in AccurateRip database
Copy OK

Track 18

Filename D:\Flac Rips\18 - The Toads - Stay Away.wav

Pre-gap length 0:00:02.00

Peak level 92.7 %
Extraction speed 6.1 X
Track quality 100.0 %
Test CRC 47DAA3EF
Copy CRC 47DAA3EF
Track not present in AccurateRip database
Copy OK

Track 19

Filename D:\Flac Rips\19 - The Henchmen - She Still Loves You.wav

Pre-gap length 0:00:02.00

Peak level 94.7 %
Extraction speed 5.9 X
Track quality 100.0 %
Test CRC 8AC07A92
Copy CRC 8AC07A92
Track not present in AccurateRip database
Copy OK

Track 20

Filename D:\Flac Rips\20 - The Night Walkers - Stix And Stones.wav

Pre-gap length 0:00:02.00

Peak level 96.8 %
Extraction speed 6.1 X
Track quality 100.0 %
Test CRC 2955860A
Copy CRC 2955860A
Track not present in AccurateRip database
Copy OK

Track 21

Filename D:\Flac Rips\21 - The Time Takers - Love Me Like You Did Before.wav

Pre-gap length 0:00:02.00

Peak level 93.6 %
Extraction speed 6.3 X
Track quality 100.0 %
Test CRC 71C42D34
Copy CRC 71C42D34
Track not present in AccurateRip database
Copy OK

Track 22

Filename D:\Flac Rips\22 - The Night Riders - She Won't Miss You.wav

Pre-gap length 0:00:02.00

Peak level 97.3 %
Extraction speed 6.8 X
Track quality 100.0 %
Test CRC 0E6AB902
Copy CRC 0E6AB902
Track not present in AccurateRip database
Copy OK

Track 23

Filename D:\Flac Rips\23 - The White Angels - But He Never Comes Back.wav

Pre-gap length 0:00:02.00

Peak level 98.7 %
Extraction speed 4.8 X
Track quality 99.9 %
Test CRC 7604800C
Copy CRC 7604800C
Track not present in AccurateRip database
Copy OK

Track 24

Filename D:\Flac Rips\24 - We The People - Always Lies.wav

Pre-gap length 0:00:02.00

Peak level 97.1 %
Extraction speed 6.6 X
Track quality 100.0 %
Test CRC F8E9C8D0
Copy CRC F8E9C8D0
Track not present in AccurateRip database
Copy OK

Track 25

Filename D:\Flac Rips\25 - The Dominions - I Need Her.wav

Pre-gap length 0:00:02.00

Peak level 100.0 %
Extraction speed 6.8 X
Track quality 100.0 %
Test CRC 267F5A6F
Copy CRC 267F5A6F
Track not present in AccurateRip database
Copy OK

Track 26

Filename D:\Flac Rips\26 - The Saxons - The Way Of The Down.wav

Pre-gap length 0:00:02.00

Peak level 100.0 %
Extraction speed 7.0 X
Track quality 100.0 %
Test CRC 78FC94DB
Copy CRC 78FC94DB
Track not present in AccurateRip database
Copy OK

Track 27

Filename D:\Flac Rips\27 - The Sonics - You Don't Hear Me.wav

Pre-gap length 0:00:02.00

Peak level 100.0 %
Extraction speed 7.2 X
Track quality 100.0 %
Test CRC DA59AA8C
Copy CRC DA59AA8C
Track not present in AccurateRip database
Copy OK

Track 28

Filename D:\Flac Rips\28 - The Mystics - Orphan.wav

Pre-gap length 0:00:02.00

Peak level 96.6 %
Extraction speed 7.3 X
Track quality 100.0 %
Test CRC AEF2011D
Copy CRC AEF2011D
Track not present in AccurateRip database
Copy OK

Track 29

Filename D:\Flac Rips\29 - The Vacant Lot - Hey Baby.wav

Pre-gap length 0:00:02.00

Peak level 100.0 %
Extraction speed 5.6 X
Track quality 99.9 %
Test CRC ED86B5B5
Copy CRC ED86B5B5
Track not present in AccurateRip database
Copy OK

Track 30

Filename D:\Flac Rips\30 - The Squires - Why Oh Why.wav

Pre-gap length 0:00:02.00

Peak level 100.0 %
Extraction speed 7.2 X
Track quality 100.0 %
Test CRC 352F6F4E
Copy CRC 352F6F4E
Track not present in AccurateRip database
Copy OK


None of the tracks are present in the AccurateRip database

No errors occurred

End of status report

–– CUETools DB Plugin V2.1.6

[CTDB TOCID: Spd.bXc_x0I2n07DhFXF5gjJ_UE-] disk not present in database
Submit result: Spd.bXc_x0I2n07DhFXF5gjJ_UE- has been uploaded


==== Log checksum 1A8936F6B4F62ABF9E1BA41EBF85C17A063EC4E596F40257BA974DEC7D7186B4 ====


Various Artists - Last Of The Garage Punk Unknowns, Volumes 7 & 8 (2016) {Crypt Records CRYPT118 rec 1965-1967}

Various Artists - Last Of The Garage Punk Unknowns, Volumes 7 & 8 (2016) {Crypt Records CRYPT118 rec 1965-1967}


see more Garage Punk Unknowns Series…


===