Subcategories

Various Artists - Let Me Tell You About The Blues - Chicago: The Evolution Of Chicago Blues 1925-1958 (2009) {3 CD Box Set}

Posted By: ruskaval
Various Artists - Let Me Tell You About The Blues - Chicago: The Evolution Of Chicago Blues 1925-1958 (2009) {3 CD Box Set}

Various Artists - Let Me Tell You About The Blues - Chicago: The Evolution Of Chicago Blues 1925-1958 (2009) {3 CD Box Set}
EAC rip (secure mode) | FLAC (tracks)+CUE+LOG -> 717 Mb | MP3 @320 -> 496 Mb
Full Artwork @ 300 dpi (png) -> 122 Mb | 5% repair rar
© 1925-58, 2009 Fantastic Voyage / Future Noise Music Ltd. | FVTD012
Blues / Regional Blues

People call Chicago The Home Of The Blues. It may not be where the blues came from but it s where the blues came to live. It’s the place where Muddy Waters, Howlin’ Wolf and Jimmy Reed laid down the songs that inspired the Rolling Stones and the Yardbirds. The blues was the bedrock on which Jimmy Page created Led Zeppelin, the band that helped to change pop music forever. Chicago was the mecca for Buddy Guy, Otis Rush, Magic Sam, Elmore James and a host of others who arrived in the city to make their fortune. The process had begun decades earlier, when record companies first came to town.
Various Artists - Let Me Tell You About The Blues - Chicago: The Evolution Of Chicago Blues 1925-1958 (2009) {3 CD Box Set}

Eighty years have passed since Papa Charlie Jackson, Leroy Carr, Big Bill Broonzy, Tampa Red and Ma Rainey championed the new music they called the blues. Men like Kokomo Arnold, Big Joe Williams, Sleepy John Estes, Sonny Boy Williamson and Big Boy Crudup were the stars of their day, and don’t forget ladies like Memphis Minnie and Georgia White.

The Evolution of Chicago Blues 1925-1958 is the first chapter in LET ME TELL YOU ABOUT THE BLUES, a series of multi-CD sets that will celebrate the blues as it was made in the cities and states of America. Each will provide an historic overview of the ways in which the music developed through the middle decades of the 20th century. Don’t see it as an education. Sit back and be entertained.
Various Artists - Let Me Tell You About The Blues - Chicago: The Evolution Of Chicago Blues 1925-1958 (2009) {3 CD Box Set}


Personnel & Tracklist:

Disc 1


01. Papa Charlie Jackson / Maxwell Street Blues - 02:48
02. Bo Weavil Jackson / Yo Can't Keep No Brown - 03:11
03. Leroy Carr / Prison Bound Blues - 03:08
04. Meade Lux Lewis / Honky Tonk Train Blues - 03:15
05. Ma Rainey / Blame It On The Blues - 03:12
06. Blind Blake / Diddie Wa Diddie - 02:58
07. Roosevelt Sykes / ''44'' Blues - 03:02
08. Big Bill Broonzy / I Can't Be Satisfied - 02:47
09. Peetie Wheatstraw / Devil's Son In Law - 03:24
10. Tampa Red / Turpintine Blues - 03:22
11. Pinetop and Lindberg / East Chicago Blues - 02:46
12. Kokomo Arnold / Milk Cow Blues - 03:07
13. Memphis Minnie / Chickasaw Train Blues - 03:18
14. Amos Easton (Bumble Bee Slim) / Sail On, Little Girl, Sail On - 03:20
15. Jimmie Gordon / Bed Spring Blues - 03:21
16. Joe McCoy / Evil Devil Woman Blues - 03:12
17. Big Joe Williams / Baby Please Don't Go - 03:25
18. Sleepy John Estes / Drop Down Mama - 03:11
19. Walter Davis / Sweet Sixteen - 02:49
20. Washboard Sam / Who Pumped The Wind In My Doughnut - 03:01
21. Lil Johnson / Sam, The Hotdog Man - 03:03
22. Jazz Gillum / Sarah Jane - 03:03
23. Georgia White / I'll Keep Sittin' On It - 02:57
24. Casey Bill Weldon / W.P.A. Blues - 03:16
25. Johnnie Temple / Louise Louise Blues - 03:04

Playing time…1:17:59

Various Artists - Let Me Tell You About The Blues - Chicago: The Evolution Of Chicago Blues 1925-1958 (2009) {3 CD Box Set}


Disc 2

01. Sonny Boy Williamson / Good Morning Little School Girl - 03:02
02. Yank Rachell / Lake Michigan Blues - 02:58
03. Tommy McClennan / Bottle It Up And Go - 02:49
04. Bukka White / Good Gin Blues - 02:24
05. Robert Lee McCoy / Friar's Point Blues - 02:52
06. Charlie Spand / Rock And Rye - 02:40
07. Big Joe and his Washboard Band / If You Take Me Back - 02:46
08. Champion Jack Dupree / Junker Blues - 02:45
09. Doctor Clayton / Love Is Gone - 02:43
10. Robert Lockwood / Take A Little Walk With Me - 02:55
11. St. Louis Jimmy / Going Down Slow - 03:13
12. Big Maceo / Macy Special - 02:44
13. Arthur 'Big Boy' Crudup / Chicago Blues - 03:13
14. Jimmie Gordon / Jumping At The Club Blue Flame - 02:38
15. Lee Brown / Round The World Boogie - 02:57
16. Jimmy Rogers / Round About Boogie - 02:47
17. Sonny Boy Williamson / Better Cut That Out - 03:01
18. Memphis Slim / Rockin' The House - 02:48
19. Sunnyland Slim / Brown Skin Woman - 02:53
20. Snooky Pryor and Moody Jones / Boogie - 02:20
21. Floyd Jones with Snooky and Moody / Keep What You Got - 02:20
22. Eddie Boyd / Chicago Is Just That Way - 02:52
23. Muddy Waters / I Can't Be Satisfied - 02:44
24. Little Johnny Jones / Big Town Playboy - 02:56
25. Memphis Minnie / Kidman Blues - 02:35

Playing time…1:09:52

Various Artists - Let Me Tell You About The Blues - Chicago: The Evolution Of Chicago Blues 1925-1958 (2009) {3 CD Box Set}


Disc 3

01. Jimmy Rogers / Goin' Away Baby - 02:45
02. Little Walter / I Just Keep Loving Her - 02:55
03. Tampa Red / Love Her With A Feeling - 03:17
04. Tony Hollins / Crawlin' King Snake - 03:09
05. Big Bill Broonzy / South Bound Train - 03:00
06. Robert Lockwood / Dust My Broom - 02:43
07. Little Walter / Juke - 02:45
08. Robert Nighthawk / Seventy Four - 02:52
09. Sunnyland Slim / Worried About My Baby - 02:59
10. J.B. Lenoir / The Mojo - 02:57
11. John Brim / Tough Times - 03:06
12. Jimmy Reed / High And Lonesome - 02:49
13. Junior Wells / Hoodoo Man - 03:06
14. Roosevelt Sykes / Been Through The Mill - 02:51
15. Walter Horton / Hard Hearted Woman - 03:04
16. Eddie Taylor / Ride 'Em On Down - 02:55
17. Billy Boy Arnold / I Wish You Would - 02:39
18. Henry Gray / That Ain't Right - 02:29
19. Muddy Waters / Mannish Boy - 02:58
20. Howlin' Wolf / Smokestack Lightnin' - 03:08
21. Otis Rush / I Can't Quit You Baby - 03:08
22. Magic Sam / All Your Love - 02:56
23. Elmore James / Coming Home - 02:27
24. Buddy Guy / Sit And Cry (The Blues) - 03:03
25. Sonny Boy Williamson / Your Funeral And My Trial - 02:31

Playing time…1:12:31

Various Artists - Let Me Tell You About The Blues - Chicago: The Evolution Of Chicago Blues 1925-1958 (2009) {3 CD Box Set}


Exact Audio Copy V1.0 beta 3 from 29. August 2011

EAC extraction logfile from 18. October 2012, 9:46

Various Artists / Let Me Tell You About the Blues, Chicago 1925-1958 [Disc 1 of 3]

Used drive : Optiarc DVD RW AD-7240S Adapter: 0 ID: 4

Read mode : Secure
Utilize accurate stream : Yes
Defeat audio cache : Yes
Make use of C2 pointers : No

Read offset correction : 48
Overread into Lead-In and Lead-Out : No
Fill up missing offset samples with silence : Yes
Delete leading and trailing silent blocks : No
Null samples used in CRC calculations : Yes
Used interface : Native Win32 interface for Win NT & 2000
Gap handling : Appended to previous track

Used output format : User Defined Encoder
Selected bitrate : 32 kBit/s
Quality : High
Add ID3 tag : No
Command line compressor : C:\Exact Audio Copy 1.3\Flac\flac.exe
Additional command line options : -5 -V -T "ARTIST=%artist%" -T "TITLE=%title%" -T "ALBUM=%albumtitle%" -T "DATE=%year%" -T "TRACKNUMBER=%tracknr%" -T "TOTALTRACKS=%numtracks%" -T "GENRE=%genre%" -T "ALBUM ARTIST=%albumartist%" -T "ALBUMARTIST=%albumartist%" -T "COMMENT=Secure Mode, Test and Copy, AccurateRip, FLAC -5" %source%


TOC of the extracted CD

Track | Start | Length | Start sector | End sector
––––––––––––––––––––––––––––-
1 | 0:00.00 | 2:47.44 | 0 | 12568
2 | 2:47.44 | 3:10.42 | 12569 | 26860
3 | 5:58.11 | 3:07.49 | 26861 | 40934
4 | 9:05.60 | 3:14.66 | 40935 | 55550
5 | 12:20.51 | 3:12.08 | 55551 | 69958
6 | 15:32.59 | 2:58.36 | 69959 | 83344
7 | 18:31.20 | 3:01.38 | 83345 | 96957
8 | 21:32.58 | 2:46.54 | 96958 | 109461
9 | 24:19.37 | 3:24.01 | 109462 | 124762
10 | 27:43.38 | 3:21.74 | 124763 | 139911
11 | 31:05.37 | 2:46.01 | 139912 | 152362
12 | 33:51.38 | 3:07.07 | 152363 | 166394
13 | 36:58.45 | 3:17.73 | 166395 | 181242
14 | 40:16.43 | 3:20.23 | 181243 | 196265
15 | 43:36.66 | 3:21.04 | 196266 | 211344
16 | 46:57.70 | 3:11.55 | 211345 | 225724
17 | 50:09.50 | 3:24.46 | 225725 | 241070
18 | 53:34.21 | 3:11.30 | 241071 | 255425
19 | 56:45.51 | 2:48.42 | 255426 | 268067
20 | 59:34.18 | 3:01.29 | 268068 | 281671
21 | 62:35.47 | 3:02.68 | 281672 | 295389
22 | 65:38.40 | 3:03.37 | 295390 | 309151
23 | 68:42.02 | 2:56.59 | 309152 | 322410
24 | 71:38.61 | 3:16.30 | 322411 | 337140
25 | 74:55.16 | 3:04.36 | 337141 | 350976


Track 1

Filename E:\01 - Papa Charlie Jackson - Maxwell Street Blues.wav

Pre-gap length 0:00:02.00

Peak level 88.0 %
Extraction speed 1.0 X
Track quality 100.0 %
Test CRC 37635DC1
Copy CRC 37635DC1
Accurately ripped (confidence 1) [2F9DF60D] (AR v1)
Copy OK

Track 2

Filename E:\02 - Bo Weavil Jackson - Yo Can't Keep No Brown.wav

Pre-gap length 0:00:01.61

Peak level 100.0 %
Extraction speed 0.9 X
Track quality 99.9 %
Test CRC 269FCEAD
Copy CRC 269FCEAD
Accurately ripped (confidence 1) [5A3D0EC4] (AR v1)
Copy OK

Track 3

Filename E:\03 - Leroy Carr - Prison Bound Blues.wav

Pre-gap length 0:00:02.17

Peak level 100.0 %
Extraction speed 1.0 X
Track quality 100.0 %
Test CRC 58FAE03A
Copy CRC 58FAE03A
Accurately ripped (confidence 1) [A2A449DA] (AR v1)
Copy OK

Track 4

Filename E:\04 - Meade Lux Lewis - Honky Tonk Train Blues.wav

Pre-gap length 0:00:02.52

Peak level 87.8 %
Extraction speed 0.9 X
Track quality 99.9 %
Test CRC C4008CFD
Copy CRC C4008CFD
Accurately ripped (confidence 1) [AB839921] (AR v1)
Copy OK

Track 5

Filename E:\05 - Ma Rainey - Blame It On The Blues.wav

Pre-gap length 0:00:02.13

Peak level 100.0 %
Extraction speed 1.0 X
Track quality 100.0 %
Test CRC 59773AB5
Copy CRC 59773AB5
Accurately ripped (confidence 1) [D1E4BBCF] (AR v1)
Copy OK

Track 6

Filename E:\06 - Blind Blake - Diddie Wa Diddie.wav

Pre-gap length 0:00:02.05

Peak level 94.2 %
Extraction speed 1.0 X
Track quality 100.0 %
Test CRC A7EA4388
Copy CRC A7EA4388
Accurately ripped (confidence 1) [F4FDD95E] (AR v1)
Copy OK

Track 7

Filename E:\07 - Roosevelt Sykes - ''44'' Blues.wav

Pre-gap length 0:00:01.49

Peak level 100.0 %
Extraction speed 1.0 X
Track quality 100.0 %
Test CRC C93DD411
Copy CRC C93DD411
Accurately ripped (confidence 1) [5ACED835] (AR v1)
Copy OK

Track 8

Filename E:\08 - Big Bill Broonzy - I Can't Be Satisfied.wav

Pre-gap length 0:00:00.62

Peak level 65.9 %
Extraction speed 1.0 X
Track quality 100.0 %
Test CRC 33E7284B
Copy CRC 33E7284B
Accurately ripped (confidence 1) [F63FCA79] (AR v1)
Copy OK

Track 9

Filename E:\09 - Peetie Wheatstraw - Devil's Son In Law.wav

Pre-gap length 0:00:01.05

Peak level 80.0 %
Extraction speed 1.0 X
Track quality 100.0 %
Test CRC EC2F2BBC
Copy CRC EC2F2BBC
Accurately ripped (confidence 1) [DEBD02FD] (AR v1)
Copy OK

Track 10

Filename E:\10 - Tampa Red - Turpintine Blues.wav

Pre-gap length 0:00:01.28

Peak level 100.0 %
Extraction speed 1.0 X
Track quality 100.0 %
Test CRC 91897E7C
Copy CRC 91897E7C
Accurately ripped (confidence 1) [5D222BC1] (AR v1)
Copy OK

Track 11

Filename E:\11 - Pinetop and Lindberg - East Chicago Blues.wav

Pre-gap length 0:00:01.24

Peak level 77.0 %
Extraction speed 0.8 X
Track quality 99.9 %
Test CRC 4174C5B9
Copy CRC 4174C5B9
Accurately ripped (confidence 1) [F9AA9A29] (AR v1)
Copy OK

Track 12

Filename E:\12 - Kokomo Arnold - Milk Cow Blues.wav

Pre-gap length 0:00:01.66

Peak level 100.0 %
Extraction speed 1.0 X
Track quality 100.0 %
Test CRC BD7125D3
Copy CRC BD7125D3
Accurately ripped (confidence 1) [227AD529] (AR v1)
Copy OK

Track 13

Filename E:\13 - Memphis Minnie - Chickasaw Train Blues.wav

Pre-gap length 0:00:00.47

Peak level 100.0 %
Extraction speed 1.0 X
Track quality 100.0 %
Test CRC AAA8E4BF
Copy CRC AAA8E4BF
Accurately ripped (confidence 1) [EB9E635F] (AR v1)
Copy OK

Track 14

Filename E:\14 - Amos Easton (Bumble Bee Slim) - Sail On, Little Girl, Sail On.wav

Pre-gap length 0:00:01.33

Peak level 100.0 %
Extraction speed 1.0 X
Track quality 100.0 %
Test CRC 13377323
Copy CRC 13377323
Accurately ripped (confidence 1) [58AF151A] (AR v1)
Copy OK

Track 15

Filename E:\15 - Jimmie Gordon - Bed Spring Blues.wav

Pre-gap length 0:00:02.25

Peak level 69.8 %
Extraction speed 1.0 X
Track quality 100.0 %
Test CRC 62134DAA
Copy CRC 62134DAA
Accurately ripped (confidence 1) [CC92B9C7] (AR v1)
Copy OK

Track 16

Filename E:\16 - Joe McCoy - Evil Devil Woman Blues.wav

Pre-gap length 0:00:02.31

Peak level 100.0 %
Extraction speed 1.0 X
Track quality 100.0 %
Test CRC 3EE975A0
Copy CRC 3EE975A0
Accurately ripped (confidence 1) [D18098AD] (AR v1)
Copy OK

Track 17

Filename E:\17 - Big Joe Williams - Baby Please Don't Go.wav

Pre-gap length 0:00:01.11

Peak level 100.0 %
Extraction speed 1.0 X
Track quality 100.0 %
Test CRC 99384DD5
Copy CRC 99384DD5
Accurately ripped (confidence 1) [0B7E0A02] (AR v1)
Copy OK

Track 18

Filename E:\18 - Sleepy John Estes - Drop Down Mama.wav

Pre-gap length 0:00:01.37

Peak level 99.8 %
Extraction speed 1.0 X
Track quality 100.0 %
Test CRC 87CD6CC0
Copy CRC 87CD6CC0
Accurately ripped (confidence 1) [F8AB06EB] (AR v1)
Copy OK

Track 19

Filename E:\19 - Walter Davis - Sweet Sixteen.wav

Pre-gap length 0:00:02.41

Peak level 100.0 %
Extraction speed 1.0 X
Track quality 100.0 %
Test CRC 2571B8F2
Copy CRC 2571B8F2
Accurately ripped (confidence 1) [B35B5C91] (AR v1)
Copy OK

Track 20

Filename E:\20 - Washboard Sam - Who Pumped The Wind In My Doughnut.wav

Pre-gap length 0:00:01.37

Peak level 81.9 %
Extraction speed 1.0 X
Track quality 100.0 %
Test CRC 1CDAAE40
Copy CRC 1CDAAE40
Accurately ripped (confidence 1) [7EF9AAD5] (AR v1)
Copy OK

Track 21

Filename E:\21 - Lil Johnson - Sam, The Hotdog Man.wav

Pre-gap length 0:00:02.62

Peak level 100.0 %
Extraction speed 0.8 X
Track quality 99.9 %
Test CRC EFEAB5E4
Copy CRC EFEAB5E4
Accurately ripped (confidence 1) [34BDC61A] (AR v1)
Copy OK

Track 22

Filename E:\22 - Jazz Gillum - Sarah Jane.wav

Pre-gap length 0:00:02.72

Peak level 76.3 %
Extraction speed 1.0 X
Track quality 100.0 %
Test CRC 2DC6A940
Copy CRC 2DC6A940
Accurately ripped (confidence 1) [106C0410] (AR v1)
Copy OK

Track 23

Filename E:\23 - Georgia White - I'll Keep Sittin' On It.wav

Pre-gap length 0:00:02.33

Peak level 80.2 %
Extraction speed 1.0 X
Track quality 100.0 %
Test CRC D2DA1D04
Copy CRC D2DA1D04
Accurately ripped (confidence 1) [8E8BA58D] (AR v1)
Copy OK

Track 24

Filename E:\24 - Casey Bill Weldon - W.P.A. Blues.wav

Pre-gap length 0:00:02.09

Peak level 100.0 %
Extraction speed 1.0 X
Track quality 100.0 %
Test CRC 143266CA
Copy CRC 143266CA
Accurately ripped (confidence 1) [D7E5E23D] (AR v1)
Copy OK

Track 25

Filename E:\25 - Johnnie Temple - Louise Louise Blues.wav

Pre-gap length 0:00:01.26

Peak level 100.0 %
Extraction speed 1.0 X
Track quality 100.0 %
Test CRC 91BEF26C
Copy CRC 91BEF26C
Accurately ripped (confidence 1) [4F3BC09A] (AR v1)
Copy OK


All tracks accurately ripped

No errors occurred

End of status report

–– CUETools DB Plugin V2.1.3

[CTDB TOCID: b1XhkloxbNC_m3PaA29wkGUVMqE-] disk not present in database, Submit result: b1XhkloxbNC_m3PaA29wkGUVMqE- has been uploaded


==== Log checksum 0B242E5212A897E9D07E032DEED639693656530FEDB656E5BE7125EF7A443556 ====
Exact Audio Copy V1.0 beta 3 from 29. August 2011

EAC extraction logfile from 18. October 2012, 12:56

Various Artists / Let Me Tell You About the Blues, Chicago 1925-1958 [Disc 2 of 3]

Used drive : Optiarc DVD RW AD-7240S Adapter: 0 ID: 4

Read mode : Secure
Utilize accurate stream : Yes
Defeat audio cache : Yes
Make use of C2 pointers : No

Read offset correction : 48
Overread into Lead-In and Lead-Out : No
Fill up missing offset samples with silence : Yes
Delete leading and trailing silent blocks : No
Null samples used in CRC calculations : Yes
Used interface : Native Win32 interface for Win NT & 2000
Gap handling : Appended to previous track

Used output format : User Defined Encoder
Selected bitrate : 32 kBit/s
Quality : High
Add ID3 tag : No
Command line compressor : C:\Exact Audio Copy 1.3\Flac\flac.exe
Additional command line options : -5 -V -T "ARTIST=%artist%" -T "TITLE=%title%" -T "ALBUM=%albumtitle%" -T "DATE=%year%" -T "TRACKNUMBER=%tracknr%" -T "TOTALTRACKS=%numtracks%" -T "GENRE=%genre%" -T "ALBUM ARTIST=%albumartist%" -T "ALBUMARTIST=%albumartist%" -T "COMMENT=Secure Mode, Test and Copy, AccurateRip, FLAC -5" %source%


TOC of the extracted CD

Track | Start | Length | Start sector | End sector
––––––––––––––––––––––––––––-
1 | 0:00.00 | 3:02.09 | 0 | 13658
2 | 3:02.09 | 2:57.59 | 13659 | 26992
3 | 5:59.68 | 2:48.49 | 26993 | 39641
4 | 8:48.42 | 2:23.72 | 39642 | 50438
5 | 11:12.39 | 2:51.72 | 50439 | 63335
6 | 14:04.36 | 2:39.43 | 63336 | 75303
7 | 16:44.04 | 2:46.06 | 75304 | 87759
8 | 19:30.10 | 2:45.11 | 87760 | 100145
9 | 22:15.21 | 2:42.53 | 100146 | 112348
10 | 24:57.74 | 2:54.69 | 112349 | 125467
11 | 27:52.68 | 3:12.40 | 125468 | 139907
12 | 31:05.33 | 2:44.17 | 139908 | 152224
13 | 33:49.50 | 3:12.43 | 152225 | 166667
14 | 37:02.18 | 2:37.61 | 166668 | 178503
15 | 39:40.04 | 2:56.38 | 178504 | 191741
16 | 42:36.42 | 2:47.15 | 191742 | 204281
17 | 45:23.57 | 3:00.39 | 204282 | 217820
18 | 48:24.21 | 2:48.14 | 217821 | 230434
19 | 51:12.35 | 2:52.38 | 230435 | 243372
20 | 54:04.73 | 2:19.38 | 243373 | 253835
21 | 56:24.36 | 2:20.11 | 253836 | 264346
22 | 58:44.47 | 2:52.36 | 264347 | 277282
23 | 61:37.08 | 2:43.73 | 277283 | 289580
24 | 64:21.06 | 2:56.04 | 289581 | 302784
25 | 67:17.10 | 2:35.04 | 302785 | 314413


Track 1

Filename E:\01 - Sonny Boy Williamson - Good Morning Little School Girl.wav

Pre-gap length 0:00:02.00

Peak level 100.0 %
Extraction speed 1.0 X
Track quality 100.0 %
Test CRC 2B97B6B6
Copy CRC 2B97B6B6
Accurately ripped (confidence 1) [C7D1D4AB] (AR v1)
Copy OK

Track 2

Filename E:\02 - Yank Rachell - Lake Michigan Blues.wav

Pre-gap length 0:00:02.62

Peak level 100.0 %
Extraction speed 1.0 X
Track quality 100.0 %
Test CRC 5CAEB9CE
Copy CRC 5CAEB9CE
Accurately ripped (confidence 1) [68105F74] (AR v1)
Copy OK

Track 3

Filename E:\03 - Tommy McClennan - Bottle It Up And Go.wav

Pre-gap length 0:00:01.74

Peak level 84.4 %
Extraction speed 0.8 X
Track quality 99.9 %
Test CRC F72A9AA7
Copy CRC F72A9AA7
Accurately ripped (confidence 1) [5BED3A9A] (AR v1)
Copy OK

Track 4

Filename E:\04 - Bukka White - Good Gin Blues.wav

Pre-gap length 0:00:02.06

Peak level 100.0 %
Extraction speed 0.9 X
Track quality 100.0 %
Test CRC BFAB68A7
Copy CRC BFAB68A7
Accurately ripped (confidence 1) [3C9B1F14] (AR v1)
Copy OK

Track 5

Filename E:\05 - Robert Lee McCoy - Friar's Point Blues.wav

Pre-gap length 0:00:03.26

Peak level 80.4 %
Extraction speed 0.8 X
Track quality 99.9 %
Test CRC 14C8DC3A
Copy CRC 14C8DC3A
Accurately ripped (confidence 1) [FB21FD68] (AR v1)
Copy OK

Track 6

Filename E:\06 - Charlie Spand - Rock And Rye.wav

Pre-gap length 0:00:02.19

Peak level 100.0 %
Extraction speed 1.0 X
Track quality 100.0 %
Test CRC D322FAC4
Copy CRC D322FAC4
Accurately ripped (confidence 1) [FB23E0D5] (AR v1)
Copy OK

Track 7

Filename E:\07 - Big Joe and his Washboard Band - If You Take Me Back.wav

Pre-gap length 0:00:03.05

Peak level 77.2 %
Extraction speed 1.0 X
Track quality 100.0 %
Test CRC 0E2B8CCC
Copy CRC 0E2B8CCC
Accurately ripped (confidence 1) [46EE6D5F] (AR v1)
Copy OK

Track 8

Filename E:\08 - Champion Jack Dupree - Junker Blues.wav

Pre-gap length 0:00:02.22

Peak level 93.3 %
Extraction speed 1.0 X
Track quality 100.0 %
Test CRC 6E4C86F3
Copy CRC 6E4C86F3
Accurately ripped (confidence 1) [908D1F7C] (AR v1)
Copy OK

Track 9

Filename E:\09 - Doctor Clayton - Love Is Gone.wav

Pre-gap length 0:00:02.29

Peak level 100.0 %
Extraction speed 1.0 X
Track quality 100.0 %
Test CRC 709F853C
Copy CRC 709F853C
Accurately ripped (confidence 1) [942DE05F] (AR v1)
Copy OK

Track 10

Filename E:\10 - Robert Lockwood - Take A Little Walk With Me.wav

Pre-gap length 0:00:01.70

Peak level 97.4 %
Extraction speed 0.8 X
Track quality 99.9 %
Test CRC F5E7024B
Copy CRC F5E7024B
Accurately ripped (confidence 1) [741129EE] (AR v1)
Copy OK

Track 11

Filename E:\11 - St. Louis Jimmy - Going Down Slow.wav

Pre-gap length 0:00:02.32

Peak level 100.0 %
Extraction speed 0.9 X
Track quality 99.9 %
Test CRC DD029469
Copy CRC DD029469
Accurately ripped (confidence 1) [EA70D5B6] (AR v1)
Copy OK

Track 12

Filename E:\12 - Big Maceo - Macy Special.wav

Pre-gap length 0:00:01.69

Peak level 100.0 %
Extraction speed 1.0 X
Track quality 100.0 %
Test CRC C79661DC
Copy CRC C79661DC
Accurately ripped (confidence 1) [D3D58CA3] (AR v1)
Copy OK

Track 13

Filename E:\13 - Arthur 'Big Boy' Crudup - Chicago Blues.wav

Pre-gap length 0:00:02.06

Peak level 100.0 %
Extraction speed 0.9 X
Track quality 99.9 %
Test CRC 6DC5D884
Copy CRC 6DC5D884
Accurately ripped (confidence 1) [F9C232B7] (AR v1)
Copy OK

Track 14

Filename E:\14 - Jimmie Gordon - Jumping At The Club Blue Flame.wav

Pre-gap length 0:00:02.11

Peak level 66.5 %
Extraction speed 1.0 X
Track quality 100.0 %
Test CRC 101544FD
Copy CRC 101544FD
Accurately ripped (confidence 1) [36B0A394] (AR v1)
Copy OK

Track 15

Filename E:\15 - Lee Brown - Round The World Boogie.wav

Pre-gap length 0:00:02.00

Peak level 83.1 %
Extraction speed 1.0 X
Track quality 100.0 %
Test CRC D3F74F01
Copy CRC D3F74F01
Accurately ripped (confidence 1) [B9D73565] (AR v1)
Copy OK

Track 16

Filename E:\16 - Jimmy Rogers - Round About Boogie.wav

Pre-gap length 0:00:02.00

Peak level 69.9 %
Extraction speed 1.0 X
Track quality 100.0 %
Test CRC 86B9FEAD
Copy CRC 86B9FEAD
Accurately ripped (confidence 1) [63340AF0] (AR v1)
Copy OK

Track 17

Filename E:\17 - Sonny Boy Williamson - Better Cut That Out.wav

Pre-gap length 0:00:02.08

Peak level 99.9 %
Extraction speed 1.0 X
Track quality 100.0 %
Test CRC 79C389BE
Copy CRC 79C389BE
Accurately ripped (confidence 1) [B5A8FDB6] (AR v1)
Copy OK

Track 18

Filename E:\18 - Memphis Slim - Rockin' The House.wav

Pre-gap length 0:00:02.24

Peak level 97.3 %
Extraction speed 1.0 X
Track quality 100.0 %
Test CRC 442C2AA7
Copy CRC 442C2AA7
Accurately ripped (confidence 1) [FA12571F] (AR v1)
Copy OK

Track 19

Filename E:\19 - Sunnyland Slim - Brown Skin Woman.wav

Pre-gap length 0:00:00.73

Peak level 100.0 %
Extraction speed 1.0 X
Track quality 100.0 %
Test CRC 72CD56C3
Copy CRC 72CD56C3
Accurately ripped (confidence 1) [CC182E49] (AR v1)
Copy OK

Track 20

Filename E:\20 - Snooky Pryor and Moody Jones - Boogie.wav

Pre-gap length 0:00:02.59

Peak level 100.0 %
Extraction speed 0.9 X
Track quality 100.0 %
Test CRC 8BBF5B0C
Copy CRC 8BBF5B0C
Accurately ripped (confidence 1) [7F09097C] (AR v1)
Copy OK

Track 21

Filename E:\21 - Floyd Jones with Snooky and Moody - Keep What You Got.wav

Pre-gap length 0:00:01.63

Peak level 100.0 %
Extraction speed 0.9 X
Track quality 100.0 %
Test CRC 5C9DBA4E
Copy CRC 5C9DBA4E
Accurately ripped (confidence 1) [D5C6E2EF] (AR v1)
Copy OK

Track 22

Filename E:\22 - Eddie Boyd - Chicago Is Just That Way.wav

Pre-gap length 0:00:02.08

Peak level 100.0 %
Extraction speed 1.0 X
Track quality 100.0 %
Test CRC BB54C36E
Copy CRC BB54C36E
Accurately ripped (confidence 1) [C5920A84] (AR v1)
Copy OK

Track 23

Filename E:\23 - Muddy Waters - I Can't Be Satisfied.wav

Pre-gap length 0:00:02.63

Peak level 68.1 %
Extraction speed 0.8 X
Track quality 99.9 %
Test CRC 22EE7744
Copy CRC 22EE7744
Accurately ripped (confidence 1) [12F6E656] (AR v1)
Copy OK

Track 24

Filename E:\24 - Little Johnny Jones - Big Town Playboy.wav

Pre-gap length 0:00:02.70

Peak level 89.1 %
Extraction speed 1.0 X
Track quality 100.0 %
Test CRC EFF27994
Copy CRC EFF27994
Accurately ripped (confidence 1) [48725D20] (AR v1)
Copy OK

Track 25

Filename E:\25 - Memphis Minnie - Kidman Blues.wav

Pre-gap length 0:00:02.17

Peak level 75.5 %
Extraction speed 0.8 X
Track quality 99.9 %
Test CRC 8B456892
Copy CRC 8B456892
Cannot be verified as accurate (confidence 1) [87F236D0], AccurateRip returned [BEFF10B8] (AR v2)
Copy OK


24 track(s) accurately ripped
1 track(s) could not be verified as accurate

Some tracks could not be verified as accurate

No errors occurred

End of status report

–– CUETools DB Plugin V2.1.3

[CTDB TOCID: zQI6JFpVlMsSKt4sN9pJ8ZMs0LA-] disk not present in database, Submit result: zQI6JFpVlMsSKt4sN9pJ8ZMs0LA- has been uploaded


==== Log checksum 7896CA076FD758BDBCE2E1EEF75AAADA24F892F81234833D28F20E2A13AB0CE5 ====
Exact Audio Copy V1.0 beta 3 from 29. August 2011

EAC extraction logfile from 18. October 2012, 18:13

Various Artists / Let Me Tell You About the Blues, Chicago 1925-1958 [Disc 3 of 3]

Used drive : Optiarc DVD RW AD-7240S Adapter: 0 ID: 4

Read mode : Secure
Utilize accurate stream : Yes
Defeat audio cache : Yes
Make use of C2 pointers : No

Read offset correction : 48
Overread into Lead-In and Lead-Out : No
Fill up missing offset samples with silence : Yes
Delete leading and trailing silent blocks : No
Null samples used in CRC calculations : Yes
Used interface : Native Win32 interface for Win NT & 2000
Gap handling : Appended to previous track

Used output format : User Defined Encoder
Selected bitrate : 32 kBit/s
Quality : High
Add ID3 tag : No
Command line compressor : C:\Exact Audio Copy 1.3\Flac\flac.exe
Additional command line options : -5 -V -T "ARTIST=%artist%" -T "TITLE=%title%" -T "ALBUM=%albumtitle%" -T "DATE=%year%" -T "TRACKNUMBER=%tracknr%" -T "TOTALTRACKS=%numtracks%" -T "GENRE=%genre%" -T "ALBUM ARTIST=%albumartist%" -T "ALBUMARTIST=%albumartist%" -T "COMMENT=Secure Mode, Test and Copy, AccurateRip, FLAC -5" %source%


TOC of the extracted CD

Track | Start | Length | Start sector | End sector
––––––––––––––––––––––––––––-
1 | 0:00.00 | 2:45.02 | 0 | 12376
2 | 2:45.02 | 2:54.40 | 12377 | 25466
3 | 5:39.42 | 3:16.55 | 25467 | 40221
4 | 8:56.22 | 3:08.39 | 40222 | 54360
5 | 12:04.61 | 3:00.07 | 54361 | 67867
6 | 15:04.68 | 2:42.65 | 67868 | 80082
7 | 17:47.58 | 2:45.25 | 80083 | 92482
8 | 20:33.08 | 2:51.58 | 92483 | 105365
9 | 23:24.66 | 2:58.45 | 105366 | 118760
10 | 26:23.36 | 2:56.68 | 118761 | 132028
11 | 29:20.29 | 3:05.67 | 132029 | 145970
12 | 32:26.21 | 2:48.68 | 145971 | 158638
13 | 35:15.14 | 3:06.07 | 158639 | 172595
14 | 38:21.21 | 2:50.66 | 172596 | 185411
15 | 41:12.12 | 3:04.20 | 185412 | 199231
16 | 44:16.32 | 2:55.18 | 199232 | 212374
17 | 47:11.50 | 2:39.31 | 212375 | 224330
18 | 49:51.06 | 2:29.06 | 224331 | 235511
19 | 52:20.12 | 2:57.74 | 235512 | 248860
20 | 55:18.11 | 3:08.27 | 248861 | 262987
21 | 58:26.38 | 3:07.45 | 262988 | 277057
22 | 61:34.08 | 2:56.33 | 277058 | 290290
23 | 64:30.41 | 2:26.57 | 290291 | 301297
24 | 66:57.23 | 3:02.63 | 301298 | 315010
25 | 70:00.11 | 2:31.21 | 315011 | 326356


Track 1

Filename E:\01 - Jimmy Rogers - Goin' Away Baby.wav

Pre-gap length 0:00:02.00

Peak level 79.4 %
Extraction speed 0.8 X
Track quality 99.9 %
Test CRC D00A5E2A
Copy CRC D00A5E2A
Accurately ripped (confidence 1) [AAFEDDE2] (AR v1)
Copy OK

Track 2

Filename E:\02 - Little Walter - I Just Keep Loving Her.wav

Pre-gap length 0:00:01.65

Peak level 85.4 %
Extraction speed 1.0 X
Track quality 100.0 %
Test CRC C53D637C
Copy CRC C53D637C
Accurately ripped (confidence 1) [91D12884] (AR v1)
Copy OK

Track 3

Filename E:\03 - Tampa Red - Love Her With A Feeling.wav

Pre-gap length 0:00:01.38

Peak level 100.0 %
Extraction speed 1.0 X
Track quality 100.0 %
Test CRC 29F4AA65
Copy CRC 29F4AA65
Accurately ripped (confidence 1) [863C554C] (AR v1)
Copy OK

Track 4

Filename E:\04 - Tony Hollins - Crawlin' King Snake.wav

Pre-gap length 0:00:02.06

Peak level 86.2 %
Extraction speed 1.0 X
Track quality 100.0 %
Test CRC 00FF9804
Copy CRC 00FF9804
Accurately ripped (confidence 1) [712CFAB4] (AR v1)
Copy OK

Track 5

Filename E:\05 - Big Bill Broonzy - South Bound Train.wav

Pre-gap length 0:00:01.58

Peak level 75.0 %
Extraction speed 1.0 X
Track quality 100.0 %
Test CRC 4BFAF553
Copy CRC 4BFAF553
Accurately ripped (confidence 1) [4C079349] (AR v1)
Copy OK

Track 6

Filename E:\06 - Robert Lockwood - Dust My Broom.wav

Pre-gap length 0:00:01.58

Peak level 100.0 %
Extraction speed 1.0 X
Track quality 100.0 %
Test CRC 5A48F2E9
Copy CRC 5A48F2E9
Accurately ripped (confidence 1) [12D37266] (AR v1)
Copy OK

Track 7

Filename E:\07 - Little Walter - Juke.wav

Pre-gap length 0:00:03.04

Peak level 79.2 %
Extraction speed 0.8 X
Track quality 99.9 %
Test CRC 6AF27BE4
Copy CRC 6AF27BE4
Accurately ripped (confidence 1) [35AFFAD4] (AR v1)
Copy OK

Track 8

Filename E:\08 - Robert Nighthawk - Seventy Four.wav

Pre-gap length 0:00:01.58

Peak level 88.1 %
Extraction speed 1.0 X
Track quality 100.0 %
Test CRC 3FE1D04D
Copy CRC 3FE1D04D
Accurately ripped (confidence 1) [5E528E67] (AR v1)
Copy OK

Track 9

Filename E:\09 - Sunnyland Slim - Worried About My Baby.wav

Pre-gap length 0:00:02.11

Peak level 79.4 %
Extraction speed 0.8 X
Track quality 99.9 %
Test CRC 19E44A38
Copy CRC 19E44A38
Accurately ripped (confidence 1) [03FF550E] (AR v1)
Copy OK

Track 10

Filename E:\10 - J.B. Lenoir - The Mojo.wav

Pre-gap length 0:00:00.43

Peak level 87.5 %
Extraction speed 1.0 X
Track quality 100.0 %
Test CRC 23C8D269
Copy CRC 23C8D269
Accurately ripped (confidence 1) [D2335BA7] (AR v1)
Copy OK

Track 11

Filename E:\11 - John Brim - Tough Times.wav

Pre-gap length 0:00:02.46

Peak level 78.5 %
Extraction speed 0.9 X
Track quality 99.9 %
Test CRC 792E0142
Copy CRC 792E0142
Accurately ripped (confidence 1) [0EDB5BA5] (AR v1)
Copy OK

Track 12

Filename E:\12 - Jimmy Reed - High And Lonesome.wav

Pre-gap length 0:00:01.58

Peak level 100.0 %
Extraction speed 1.0 X
Track quality 100.0 %
Test CRC 661E2DC4
Copy CRC 661E2DC4
Accurately ripped (confidence 1) [1BE74C20] (AR v1)
Copy OK

Track 13

Filename E:\13 - Junior Wells - Hoodoo Man.wav

Pre-gap length 0:00:01.58

Peak level 79.3 %
Extraction speed 1.0 X
Track quality 100.0 %
Test CRC 0525B716
Copy CRC 0525B716
Accurately ripped (confidence 1) [6E78CAD6] (AR v1)
Copy OK

Track 14

Filename E:\14 - Roosevelt Sykes - Been Through The Mill.wav

Pre-gap length 0:00:01.58

Peak level 73.7 %
Extraction speed 1.0 X
Track quality 100.0 %
Test CRC 3884BCEC
Copy CRC 3884BCEC
Accurately ripped (confidence 1) [6D5C0458] (AR v1)
Copy OK

Track 15

Filename E:\15 - Walter Horton - Hard Hearted Woman.wav

Pre-gap length 0:00:00.65

Peak level 100.0 %
Extraction speed 0.8 X
Track quality 99.9 %
Test CRC 96DB5DE1
Copy CRC 96DB5DE1
Accurately ripped (confidence 1) [340EEEA4] (AR v1)
Copy OK

Track 16

Filename E:\16 - Eddie Taylor - Ride 'Em On Down.wav

Pre-gap length 0:00:01.65

Peak level 100.0 %
Extraction speed 1.0 X
Track quality 100.0 %
Test CRC 96284D10
Copy CRC 96284D10
Accurately ripped (confidence 1) [4716F1D8] (AR v1)
Copy OK

Track 17

Filename E:\17 - Billy Boy Arnold - I Wish You Would.wav

Pre-gap length 0:00:01.25

Peak level 100.0 %
Extraction speed 1.0 X
Track quality 100.0 %
Test CRC FAF0F369
Copy CRC FAF0F369
Accurately ripped (confidence 1) [5232D882] (AR v1)
Copy OK

Track 18

Filename E:\18 - Henry Gray - That Ain't Right.wav

Pre-gap length 0:00:01.58

Peak level 94.6 %
Extraction speed 0.8 X
Track quality 99.9 %
Test CRC 5BD237B0
Copy CRC 5BD237B0
Accurately ripped (confidence 1) [140D79E6] (AR v1)
Copy OK

Track 19

Filename E:\19 - Muddy Waters - Mannish Boy.wav

Pre-gap length 0:00:02.07

Peak level 87.0 %
Extraction speed 1.0 X
Track quality 100.0 %
Test CRC 42666A05
Copy CRC 42666A05
Accurately ripped (confidence 1) [D3C52876] (AR v1)
Copy OK

Track 20

Filename E:\20 - Howlin' Wolf - Smokestack Lightnin'.wav

Pre-gap length 0:00:01.58

Peak level 100.0 %
Extraction speed 1.0 X
Track quality 100.0 %
Test CRC D31C4E2A
Copy CRC D31C4E2A
Accurately ripped (confidence 1) [DD003543] (AR v1)
Copy OK

Track 21

Filename E:\21 - Otis Rush - I Can't Quit You Baby.wav

Pre-gap length 0:00:01.04

Peak level 79.3 %
Extraction speed 1.0 X
Track quality 100.0 %
Test CRC AC10FC16
Copy CRC AC10FC16
Accurately ripped (confidence 1) [26335A1D] (AR v1)
Copy OK

Track 22

Filename E:\22 - Magic Sam - All Your Love.wav

Pre-gap length 0:00:02.46

Peak level 74.9 %
Extraction speed 1.0 X
Track quality 100.0 %
Test CRC F4A7D310
Copy CRC F4A7D310
Accurately ripped (confidence 1) [DB72A5C2] (AR v1)
Copy OK

Track 23

Filename E:\23 - Elmore James - Coming Home.wav

Pre-gap length 0:00:01.67

Peak level 100.0 %
Extraction speed 0.9 X
Track quality 100.0 %
Test CRC 20743C89
Copy CRC 20743C89
Accurately ripped (confidence 1) [13076701] (AR v1)
Copy OK

Track 24

Filename E:\24 - Buddy Guy - Sit And Cry (The Blues).wav

Pre-gap length 0:00:01.73

Peak level 84.0 %
Extraction speed 1.0 X
Track quality 100.0 %
Test CRC 76ECE416
Copy CRC 76ECE416
Accurately ripped (confidence 1) [11B28EEC] (AR v1)
Copy OK

Track 25

Filename E:\25 - Sonny Boy Williamson - Your Funeral And My Trial.wav

Pre-gap length 0:00:01.58

Peak level 73.0 %
Extraction speed 1.0 X
Track quality 100.0 %
Test CRC A7BB9063
Copy CRC A7BB9063
Cannot be verified as accurate (confidence 1) [F84C84FE], AccurateRip returned [ED1CEA39] (AR v2)
Copy OK


24 track(s) accurately ripped
1 track(s) could not be verified as accurate

Some tracks could not be verified as accurate

No errors occurred

End of status report

–– CUETools DB Plugin V2.1.3

[CTDB TOCID: SSy0LdmO59FLjAEH9BwJA.y7cN4-] disk not present in database, Submit result: SSy0LdmO59FLjAEH9BwJA.y7cN4- has been uploaded


==== Log checksum 43479E156CD93698DE1C5A6BBE3BC17E0B7C2B2B48460968469460F53667396D ====


Various Artists - Let Me Tell You About The Blues - Chicago: The Evolution Of Chicago Blues 1925-1958 (2009) {3 CD Box Set}


NEXT -> more Let Me Tell You About The Blues series on the way…

see more Let Me Tell You About The Blues Series…


===