Tags
Language
Tags

Various Artists - Let the Electric Children Play: The Underground Story of Transatlantic Records 1968 - 1976 (2017) {3CD Set}

Posted By: ruskaval
Various Artists - Let the Electric Children Play: The Underground Story of Transatlantic Records 1968 - 1976 (2017) {3CD Set}

Various Artists - Let the Electric Children Play: The Underground Story of Transatlantic Records 1968 - 1976 (2017) {3CD Set}
EAC rip (secure mode) | FLAC (tracks)+CUE+LOG -> 1.45 Gb | MP3 @320 -> 540 Mb
Full Artwork @ 300 dpi (jpg) -> 33 Mb | 5% repair rar
© 1968-76, 2017 Transatlantic Records / Esoteric Recordings / Cherry Red Records | ECLEC 32600
Rock / Progressive Rock / Folk Rock / Underground Rock / Psychedelic

NEW REMASTERED 3 CD CLAMSHELL BOX SET VARIOUS ARTISTS ANTHOLOGY DOCUMENTING THE UNDERGROUND ERA OF TRANSATLANTIC RECORDS BETWEEN 1968 – 1976.

NEARLY FOUR HOURS OF MUSIC FROM ARTISTS INCLUDING ALAN HULL, STRAY, THE DEVIANTS, PENTANGLE, MICK FARREN, JODY GRIND, THE HUMBLEBUMS, MARSUPILAMI, GERRY RAFFERTY, SKIN ALLEY, UNICORN & MANY MORE.

Esoteric Recordings are proud to announce the release of a new deluxe 3CD which tells the story of the so- called “underground” era of one of Britain’s great independent record labels of the 1960s & 1970s, Transatlantic Records.

In the heady atmosphere of the late 1960s, the sea change in British popular music spearheaded by the Beatles experimentation on the Sergeant Pepper album and swiftly followed by the likes of Cream, Pink Floyd, Traffic, Family, Procol Harum, Jethro Tull and a host of groups and musicians who followed in their footsteps led to the album being seen as the medium in which “serious” musicians would explore and develop their craft. The apparently disparate genres of blues, jazz, rock, folk and even world music were fused together by many diverse acts all of whom were eager to be regarded as “progressive” in their musical approach. The so-called “underground” audience eagerly consumed this music, which sat alongside the social changes that were also taking place.

In the UK the major labels established imprints such as Harvest, Vertigo and Deram to market music to this audience, inspired by the vision of independent labels such as Island Records. Another, smaller British independent label also swiftly tapped in to this new musical movement, Transatlantic Records. This proudly independent imprint, founded in 1961 by Nat Joseph, looked beyond its initial folk, jazz and blues output to sign a distinctly quirky and diverse roster of “underground” acts. Between 1968 and 1976 Transatlantic explored all aspects of the “progressive” and “underground” scenes; from the “heavy” groups such as The Deviants, Jody Grind, Little Free Rock and Stray, to the acts on the fringes of folk and rock such as Pentangle, Mr Fox, Alan Hull, The Humblebums, Gryphon and Carolanne Pegg, to jazz rockers such as Circus and Marsupilami.

Featuring over three and a half hours of newly re-mastered music over three CDs, “Let the Electric Children Play” documents the fascinating story of a unique period in the history of one of Britain’s most eccentric labels. This deluxe anthology also includes a lavishly illustrated booklet with new essay and artist biographies housed in a clamshell boxed set.[/quote

I'm very sorry but it's impossible to scan the booklet!

Personnel & tracklist:

Disc: 1

1. WE CAN SWING TOGETHER - Alan Hull
2. II B.S. - Circus
3. MIDSUMMER NIGHT'S HAPPENING - The Sallyangie
4. LIGHT FLIGHT - Pentangle
5. BILLY THE MONSTER - The Deviants
6. PAINT IT BLACK - Jody Grind
7. NORWEGIAN WOOD - Circus
8. OBADIAH'S GRAVE - Alan Hull
9. LUCIFER'S CAGE - Gordon Giltrap
10. ONCE I HAD A SWEETHEART - Pentangle
11. METAMORPHOSIS EXPLOSION - The Deviants
12. SATURDAY ROUNDABOUT SUNDAY (SINGLE VERSION) - The Humblebums
13. MAKIN' TIME - Little Free Rock
14. MONA (A FRAGMENT) - Mick Farren
15. PLASTIC SHIT - Jody Grind

Various Artists - Let the Electric Children Play: The Underground Story of Transatlantic Records 1968 - 1976 (2017) {3CD Set}


Disc: 2
1. ALL IN YOUR MIND - Stray
2. BORN TO BE FREE - Marsupilami
3. WE'VE HAD IT - Jody Grind
4. MICE AND RATS IN THE LOFT - Jan Dukes De Grey
5. HOMAGE TO THE GOD OF LIGHT - Peter Bardens
6. AROUND THE WORLD IN 80 DAYS - Stray
7. MENDLE - Mr. Fox
8. PRELUDE TO THE ARENA - Marsupilami
9. DON'T EVER GIVE UP TRYING - Unicorn
10. REFLECTION - Pentangle
11. SKIN VALLEY SERENADE - Skin Alley

Various Artists - Let the Electric Children Play: The Underground Story of Transatlantic Records 1968 - 1976 (2017) {3CD Set}


Disc: 3
1. TEAR DOWN THE WALL - Peter Bardens
2. SON OF THE FATHER - Stray
3. DON'T COUNT ME OUT - Gerry Rafferty
4. NICK'S SEVEN - Skin Alley
5. SONG FROM THE 4th ERA - CMU
6. A DISTANT THOUGHT, A POINT OF LIGHT - CMU
7. THE UNGODLY - Decameron
8. FAIR FORTUNE'S STAR - Carolanne Pegg
9. MOVE IT (SINGLE VERSION) - Stray
10. SHELTER - Renia
11. OPENING MOVE - Gryphon
12. JOURNEY'S END - Decameron
13. CRIMINAL WORLD - Metro

Various Artists - Let the Electric Children Play: The Underground Story of Transatlantic Records 1968 - 1976 (2017) {3CD Set}


Exact Audio Copy V1.2 from 12. August 2016

EAC extraction logfile from 14. November 2017, 13:32

Various Artists / Let The Electric Children Play CD1

Used drive : TSSTcorpCDDVDW SE-S084F Adapter: 1 ID: 1

Read mode : Secure
Utilize accurate stream : Yes
Defeat audio cache : Yes
Make use of C2 pointers : No

Read offset correction : 6
Overread into Lead-In and Lead-Out : No
Fill up missing offset samples with silence : Yes
Delete leading and trailing silent blocks : No
Null samples used in CRC calculations : Yes
Used interface : Native Win32 interface for Win NT & 2000
Gap handling : Appended to previous track

Used output format : User Defined Encoder
Selected bitrate : 1024 kBit/s
Quality : High
Add ID3 tag : No
Command line compressor : C:\Program Files (x86)\Exact Audio Copy\Flac\flac.exe
Additional command line options : -8 -V -T "ARTIST=%artist%" -T "TITLE=%title%" -T "ALBUM=%albumtitle%" -T "DATE=%year%" -T "TRACKNUMBER=%tracknr%" -T "GENRE=%genre%" -T "PERFORMER=%albuminterpret%" -T "COMPOSER=%composer%" %haslyrics%–tag-from-file=LYRICS="%lyricsfile%"%haslyrics% -T "ALBUMARTIST=%albumartist%" -T "DISCNUMBER=%cdnumber%" -T "TOTALDISCS=%totalcds%" -T "TOTALTRACKS=%numtracks%" -T "COMMENT=%comment%" %source% -o %dest%


TOC of the extracted CD

Track | Start | Length | Start sector | End sector
––––––––––––––––––––––––––––-
1 | 0:00.00 | 3:30.14 | 0 | 15763
2 | 3:30.14 | 6:31.20 | 15764 | 45108
3 | 10:01.34 | 4:10.49 | 45109 | 63907
4 | 14:12.08 | 3:16.04 | 63908 | 78611
5 | 17:28.12 | 3:27.34 | 78612 | 94170
6 | 20:55.46 | 5:06.69 | 94171 | 117189
7 | 26:02.40 | 7:18.44 | 117190 | 150083
8 | 33:21.09 | 2:41.05 | 150084 | 162163
9 | 36:02.14 | 3:41.73 | 162164 | 178811
10 | 39:44.12 | 4:37.21 | 178812 | 199607
11 | 44:21.33 | 8:54.09 | 199608 | 239666
12 | 53:15.42 | 3:09.63 | 239667 | 253904
13 | 56:25.30 | 10:28.51 | 253905 | 301055
14 | 66:54.06 | 3:17.36 | 301056 | 315866
15 | 70:11.42 | 7:20.03 | 315867 | 348869


Track 1

Filename C:\Users\ian\Desktop\VA - Let The Electric Children Play The Underground Story Of Transatlantic Records 1968-76 (2017) [FLAC] {3CD}\Let The Electric Children Play CD1\01 - Alan Hull - We Can Swing Together.wav

Pre-gap length 0:00:02.00

Peak level 99.4 %
Extraction speed 2.3 X
Track quality 100.0 %
Test CRC 91B6F173
Copy CRC 91B6F173
Track not present in AccurateRip database
Copy OK

Track 2

Filename C:\Users\ian\Desktop\VA - Let The Electric Children Play The Underground Story Of Transatlantic Records 1968-76 (2017) [FLAC] {3CD}\Let The Electric Children Play CD1\02 - Circus - II B S.wav

Pre-gap length 0:00:02.10

Peak level 96.0 %
Extraction speed 2.8 X
Track quality 100.0 %
Test CRC 4216991A
Copy CRC 4216991A
Track not present in AccurateRip database
Copy OK

Track 3

Filename C:\Users\ian\Desktop\VA - Let The Electric Children Play The Underground Story Of Transatlantic Records 1968-76 (2017) [FLAC] {3CD}\Let The Electric Children Play CD1\03 - The Sallyangie - Midsummer Nights Happening.wav

Pre-gap length 0:00:01.85

Peak level 92.7 %
Extraction speed 2.6 X
Track quality 99.9 %
Test CRC 722FA0F2
Copy CRC 722FA0F2
Track not present in AccurateRip database
Copy OK

Track 4

Filename C:\Users\ian\Desktop\VA - Let The Electric Children Play The Underground Story Of Transatlantic Records 1968-76 (2017) [FLAC] {3CD}\Let The Electric Children Play CD1\04 - Pentangle - Light Flight.wav

Pre-gap length 0:00:02.10

Peak level 89.6 %
Extraction speed 2.9 X
Track quality 100.0 %
Test CRC E0E0550A
Copy CRC E0E0550A
Track not present in AccurateRip database
Copy OK

Track 5

Filename C:\Users\ian\Desktop\VA - Let The Electric Children Play The Underground Story Of Transatlantic Records 1968-76 (2017) [FLAC] {3CD}\Let The Electric Children Play CD1\05 - The Deviants - Billy The Monster.wav

Pre-gap length 0:00:01.81

Peak level 92.7 %
Extraction speed 2.7 X
Track quality 99.9 %
Test CRC C0AD4887
Copy CRC C0AD4887
Track not present in AccurateRip database
Copy OK

Track 6

Filename C:\Users\ian\Desktop\VA - Let The Electric Children Play The Underground Story Of Transatlantic Records 1968-76 (2017) [FLAC] {3CD}\Let The Electric Children Play CD1\06 - Jody Grind - Paint It Black.wav

Pre-gap length 0:00:02.53

Peak level 66.4 %
Extraction speed 3.4 X
Track quality 100.0 %
Test CRC 0ED4587C
Copy CRC 0ED4587C
Track not present in AccurateRip database
Copy OK

Track 7

Filename C:\Users\ian\Desktop\VA - Let The Electric Children Play The Underground Story Of Transatlantic Records 1968-76 (2017) [FLAC] {3CD}\Let The Electric Children Play CD1\07 - Circus - Norwegian Wood.wav

Pre-gap length 0:00:01.74

Peak level 92.7 %
Extraction speed 3.5 X
Track quality 99.9 %
Test CRC 64B14288
Copy CRC 64B14288
Track not present in AccurateRip database
Copy OK

Track 8

Filename C:\Users\ian\Desktop\VA - Let The Electric Children Play The Underground Story Of Transatlantic Records 1968-76 (2017) [FLAC] {3CD}\Let The Electric Children Play CD1\08 - Alan Hull - Obadiahs Grave.wav

Pre-gap length 0:00:02.41

Peak level 94.9 %
Extraction speed 3.4 X
Track quality 100.0 %
Test CRC 412FA426
Copy CRC 412FA426
Track not present in AccurateRip database
Copy OK

Track 9

Filename C:\Users\ian\Desktop\VA - Let The Electric Children Play The Underground Story Of Transatlantic Records 1968-76 (2017) [FLAC] {3CD}\Let The Electric Children Play CD1\09 - Gordon Giltrap - Lucifers Cage.wav

Pre-gap length 0:00:02.06

Peak level 55.9 %
Extraction speed 3.7 X
Track quality 100.0 %
Test CRC 2D135049
Copy CRC 2D135049
Track not present in AccurateRip database
Copy OK

Track 10

Filename C:\Users\ian\Desktop\VA - Let The Electric Children Play The Underground Story Of Transatlantic Records 1968-76 (2017) [FLAC] {3CD}\Let The Electric Children Play CD1\10 - Pentangle - Once I Had A Sweetheart.wav

Pre-gap length 0:00:01.74

Peak level 86.5 %
Extraction speed 4.0 X
Track quality 100.0 %
Test CRC 2759E638
Copy CRC 2759E638
Track not present in AccurateRip database
Copy OK

Track 11

Filename C:\Users\ian\Desktop\VA - Let The Electric Children Play The Underground Story Of Transatlantic Records 1968-76 (2017) [FLAC] {3CD}\Let The Electric Children Play CD1\11 - The Deviants - Metamorphosis Explosion.wav

Pre-gap length 0:00:02.05

Peak level 93.7 %
Extraction speed 4.4 X
Track quality 100.0 %
Test CRC 4E9937C0
Copy CRC 4E9937C0
Track not present in AccurateRip database
Copy OK

Track 12

Filename C:\Users\ian\Desktop\VA - Let The Electric Children Play The Underground Story Of Transatlantic Records 1968-76 (2017) [FLAC] {3CD}\Let The Electric Children Play CD1\12 - The Humblebums - Saturday Roundabout Sunday [Single].wav

Pre-gap length 0:00:02.05

Peak level 64.9 %
Extraction speed 4.0 X
Track quality 100.0 %
Test CRC 0E4BD37D
Copy CRC 0E4BD37D
Track not present in AccurateRip database
Copy OK

Track 13

Filename C:\Users\ian\Desktop\VA - Let The Electric Children Play The Underground Story Of Transatlantic Records 1968-76 (2017) [FLAC] {3CD}\Let The Electric Children Play CD1\13 - Little Free Rock - Makin Time.wav

Pre-gap length 0:00:01.85

Peak level 94.5 %
Extraction speed 4.8 X
Track quality 100.0 %
Test CRC 95CB12E5
Copy CRC 95CB12E5
Track not present in AccurateRip database
Copy OK

Track 14

Filename C:\Users\ian\Desktop\VA - Let The Electric Children Play The Underground Story Of Transatlantic Records 1968-76 (2017) [FLAC] {3CD}\Let The Electric Children Play CD1\14 - Mick Farren - Mona (A Fragment).wav

Pre-gap length 0:00:02.02

Peak level 92.7 %
Extraction speed 4.4 X
Track quality 100.0 %
Test CRC 8CA8AECC
Copy CRC 8CA8AECC
Track not present in AccurateRip database
Copy OK

Track 15

Filename C:\Users\ian\Desktop\VA - Let The Electric Children Play The Underground Story Of Transatlantic Records 1968-76 (2017) [FLAC] {3CD}\Let The Electric Children Play CD1\15 - Jody Grind - Plastic Shit.wav

Pre-gap length 0:00:02.62

Peak level 58.6 %
Extraction speed 5.0 X
Track quality 100.0 %
Test CRC C17095FE
Copy CRC C17095FE
Track not present in AccurateRip database
Copy OK


None of the tracks are present in the AccurateRip database

No errors occurred

End of status report

–– CUETools DB Plugin V2.1.6

[CTDB TOCID: iAYGfivB4AwNO0ZOt7Z4SNbP_XY-] found
Submit result: iAYGfivB4AwNO0ZOt7Z4SNbP_XY- has been confirmed
Track | CTDB Status
1 | (4/4) Accurately ripped
2 | (4/4) Accurately ripped
3 | (4/4) Accurately ripped
4 | (4/4) Accurately ripped
5 | (4/4) Accurately ripped
6 | (4/4) Accurately ripped
7 | (4/4) Accurately ripped
8 | (4/4) Accurately ripped
9 | (4/4) Accurately ripped
10 | (4/4) Accurately ripped
11 | (4/4) Accurately ripped
12 | (4/4) Accurately ripped
13 | (4/4) Accurately ripped
14 | (4/4) Accurately ripped
15 | (4/4) Accurately ripped


==== Log checksum AC749DD4D8CC2B9C56A23742D4773B3EE0D300CA6C78B1BFABDE0AA86EE63267 ====



Exact Audio Copy V1.2 from 12. August 2016

EAC extraction logfile from 14. November 2017, 14:20

Various Artists / Let The Electric Children Play CD2

Used drive : TSSTcorpCDDVDW SE-S084F Adapter: 1 ID: 1

Read mode : Secure
Utilize accurate stream : Yes
Defeat audio cache : Yes
Make use of C2 pointers : No

Read offset correction : 6
Overread into Lead-In and Lead-Out : No
Fill up missing offset samples with silence : Yes
Delete leading and trailing silent blocks : No
Null samples used in CRC calculations : Yes
Used interface : Native Win32 interface for Win NT & 2000
Gap handling : Appended to previous track

Used output format : User Defined Encoder
Selected bitrate : 1024 kBit/s
Quality : High
Add ID3 tag : No
Command line compressor : C:\Program Files (x86)\Exact Audio Copy\Flac\flac.exe
Additional command line options : -8 -V -T "ARTIST=%artist%" -T "TITLE=%title%" -T "ALBUM=%albumtitle%" -T "DATE=%year%" -T "TRACKNUMBER=%tracknr%" -T "GENRE=%genre%" -T "PERFORMER=%albuminterpret%" -T "COMPOSER=%composer%" %haslyrics%–tag-from-file=LYRICS="%lyricsfile%"%haslyrics% -T "ALBUMARTIST=%albumartist%" -T "DISCNUMBER=%cdnumber%" -T "TOTALDISCS=%totalcds%" -T "TOTALTRACKS=%numtracks%" -T "COMMENT=%comment%" %source% -o %dest%


TOC of the extracted CD

Track | Start | Length | Start sector | End sector
––––––––––––––––––––––––––––-
1 | 0:00.00 | 9:24.11 | 0 | 42310
2 | 9:24.11 | 5:45.72 | 42311 | 68257
3 | 15:10.08 | 5:07.21 | 68258 | 91303
4 | 20:17.29 | 8:21.25 | 91304 | 128903
5 | 28:38.54 | 13:33.74 | 128904 | 189952
6 | 42:12.53 | 3:38.53 | 189953 | 206355
7 | 45:51.31 | 7:13.16 | 206356 | 238846
8 | 53:04.47 | 5:22.50 | 238847 | 263046
9 | 58:27.22 | 5:08.36 | 263047 | 286182
10 | 63:35.58 | 11:13.67 | 286183 | 336724
11 | 74:49.50 | 3:44.33 | 336725 | 353557


Track 1

Filename C:\Users\ian\Desktop\VA - Let The Electric Children Play The Underground Story Of Transatlantic Records 1968-76 (2017) [FLAC] {3CD}\Let The Electric Children Play CD2\01 - Stray - All In Your Mind.wav

Pre-gap length 0:00:02.00

Peak level 76.8 %
Extraction speed 2.8 X
Track quality 100.0 %
Test CRC 13327801
Copy CRC 13327801
Track not present in AccurateRip database
Copy OK

Track 2

Filename C:\Users\ian\Desktop\VA - Let The Electric Children Play The Underground Story Of Transatlantic Records 1968-76 (2017) [FLAC] {3CD}\Let The Electric Children Play CD2\02 - Marsupilami - Born To Be Free.wav

Pre-gap length 0:00:02.41

Peak level 81.7 %
Extraction speed 3.0 X
Track quality 100.0 %
Test CRC 5109671E
Copy CRC 5109671E
Track not present in AccurateRip database
Copy OK

Track 3

Filename C:\Users\ian\Desktop\VA - Let The Electric Children Play The Underground Story Of Transatlantic Records 1968-76 (2017) [FLAC] {3CD}\Let The Electric Children Play CD2\03 - Jody Grind - We ve Had It.wav

Pre-gap length 0:00:02.72

Peak level 96.7 %
Extraction speed 3.3 X
Track quality 100.0 %
Test CRC 56F12FB4
Copy CRC 56F12FB4
Track not present in AccurateRip database
Copy OK

Track 4

Filename C:\Users\ian\Desktop\VA - Let The Electric Children Play The Underground Story Of Transatlantic Records 1968-76 (2017) [FLAC] {3CD}\Let The Electric Children Play CD2\04 - Jan Dukes De Grey - Mice And Rats In The Loft.wav

Pre-gap length 0:00:02.18

Peak level 99.4 %
Extraction speed 3.5 X
Track quality 99.9 %
Test CRC 1F60D212
Copy CRC 1F60D212
Track not present in AccurateRip database
Copy OK

Track 5

Filename C:\Users\ian\Desktop\VA - Let The Electric Children Play The Underground Story Of Transatlantic Records 1968-76 (2017) [FLAC] {3CD}\Let The Electric Children Play CD2\05 - Peter Bardens - Homage To The God Of Light.wav

Pre-gap length 0:00:02.32

Peak level 91.8 %
Extraction speed 4.2 X
Track quality 100.0 %
Test CRC 832733CE
Copy CRC 832733CE
Track not present in AccurateRip database
Copy OK

Track 6

Filename C:\Users\ian\Desktop\VA - Let The Electric Children Play The Underground Story Of Transatlantic Records 1968-76 (2017) [FLAC] {3CD}\Let The Electric Children Play CD2\06 - Stray - Around The World In 80 Days.wav

Pre-gap length 0:00:01.53

Peak level 67.7 %
Extraction speed 3.9 X
Track quality 100.0 %
Test CRC CEE88AE3
Copy CRC CEE88AE3
Track not present in AccurateRip database
Copy OK

Track 7

Filename C:\Users\ian\Desktop\VA - Let The Electric Children Play The Underground Story Of Transatlantic Records 1968-76 (2017) [FLAC] {3CD}\Let The Electric Children Play CD2\07 - Mr Fox - Mendle.wav

Pre-gap length 0:00:01.89

Peak level 79.4 %
Extraction speed 4.1 X
Track quality 99.9 %
Test CRC FC39AA29
Copy CRC FC39AA29
Track not present in AccurateRip database
Copy OK

Track 8

Filename C:\Users\ian\Desktop\VA - Let The Electric Children Play The Underground Story Of Transatlantic Records 1968-76 (2017) [FLAC] {3CD}\Let The Electric Children Play CD2\08 - Marsupilami - Prelude To The Arena.wav

Pre-gap length 0:00:01.21

Peak level 99.4 %
Extraction speed 4.0 X
Track quality 99.9 %
Test CRC 2FA7A558
Copy CRC 2FA7A558
Track not present in AccurateRip database
Copy OK

Track 9

Filename C:\Users\ian\Desktop\VA - Let The Electric Children Play The Underground Story Of Transatlantic Records 1968-76 (2017) [FLAC] {3CD}\Let The Electric Children Play CD2\09 - Unicorn - Dont Ever Give Up Trying.wav

Pre-gap length 0:00:02.33

Peak level 92.7 %
Extraction speed 4.6 X
Track quality 100.0 %
Test CRC F629DA94
Copy CRC F629DA94
Track not present in AccurateRip database
Copy OK

Track 10

Filename C:\Users\ian\Desktop\VA - Let The Electric Children Play The Underground Story Of Transatlantic Records 1968-76 (2017) [FLAC] {3CD}\Let The Electric Children Play CD2\10 - Pentangle - Reflection.wav

Pre-gap length 0:00:02.28

Peak level 92.7 %
Extraction speed 5.0 X
Track quality 100.0 %
Test CRC 202F879B
Copy CRC 202F879B
Track not present in AccurateRip database
Copy OK

Track 11

Filename C:\Users\ian\Desktop\VA - Let The Electric Children Play The Underground Story Of Transatlantic Records 1968-76 (2017) [FLAC] {3CD}\Let The Electric Children Play CD2\11 - Skin Alley - Skin Valley Serenade.wav

Pre-gap length 0:00:01.98

Peak level 93.8 %
Extraction speed 4.1 X
Track quality 99.9 %
Test CRC 3D1200F3
Copy CRC 3D1200F3
Track not present in AccurateRip database
Copy OK


None of the tracks are present in the AccurateRip database

No errors occurred

End of status report

–– CUETools DB Plugin V2.1.6

[CTDB TOCID: XkrFJqx1gGVrB_tB9Ey8VZL5DzU-] found
Submit result: XkrFJqx1gGVrB_tB9Ey8VZL5DzU- has been confirmed
Track | CTDB Status
1 | (4/4) Accurately ripped
2 | (4/4) Accurately ripped
3 | (4/4) Accurately ripped
4 | (4/4) Accurately ripped
5 | (4/4) Accurately ripped
6 | (4/4) Accurately ripped
7 | (4/4) Accurately ripped
8 | (4/4) Accurately ripped
9 | (4/4) Accurately ripped
10 | (4/4) Accurately ripped
11 | (4/4) Accurately ripped


==== Log checksum D12449E1097DF4792F31A6A92A3F81CE6B6815291F8184E053787361E4670BA1 ====




Exact Audio Copy V1.2 from 12. August 2016

EAC extraction logfile from 13. November 2017, 18:42

Various Artists / Let The Electric Children Play CD3

Used drive : TSSTcorpCDDVDW SE-S084F Adapter: 1 ID: 1

Read mode : Secure
Utilize accurate stream : Yes
Defeat audio cache : Yes
Make use of C2 pointers : No

Read offset correction : 6
Overread into Lead-In and Lead-Out : No
Fill up missing offset samples with silence : Yes
Delete leading and trailing silent blocks : No
Null samples used in CRC calculations : Yes
Used interface : Native Win32 interface for Win NT & 2000
Gap handling : Appended to previous track

Used output format : User Defined Encoder
Selected bitrate : 1024 kBit/s
Quality : High
Add ID3 tag : No
Command line compressor : C:\Program Files (x86)\Exact Audio Copy\Flac\flac.exe
Additional command line options : -8 -V -T "ARTIST=%artist%" -T "TITLE=%title%" -T "ALBUM=%albumtitle%" -T "DATE=%year%" -T "TRACKNUMBER=%tracknr%" -T "GENRE=%genre%" -T "PERFORMER=%albuminterpret%" -T "COMPOSER=%composer%" %haslyrics%–tag-from-file=LYRICS="%lyricsfile%"%haslyrics% -T "ALBUMARTIST=%albumartist%" -T "DISCNUMBER=%cdnumber%" -T "TOTALDISCS=%totalcds%" -T "TOTALTRACKS=%numtracks%" -T "COMMENT=%comment%" %source% -o %dest%


TOC of the extracted CD

Track | Start | Length | Start sector | End sector
––––––––––––––––––––––––––––-
1 | 0:00.00 | 7:25.10 | 0 | 33384
2 | 7:25.10 | 5:50.15 | 33385 | 59649
3 | 13:15.25 | 3:49.28 | 59650 | 76852
4 | 17:04.53 | 5:01.40 | 76853 | 99467
5 | 22:06.18 | 2:21.42 | 99468 | 110084
6 | 24:27.60 | 6:48.65 | 110085 | 140749
7 | 31:16.50 | 4:09.40 | 140750 | 159464
8 | 35:26.15 | 10:02.13 | 159465 | 204627
9 | 45:28.28 | 3:22.68 | 204628 | 219845
10 | 48:51.21 | 4:48.06 | 219846 | 241451
11 | 53:39.27 | 9:44.60 | 241452 | 285311
12 | 63:24.12 | 4:42.67 | 285312 | 306528
13 | 68:07.04 | 5:26.53 | 306529 | 331031


Track 1

Filename C:\Users\ian\Desktop\VA - Let The Electric Children Play The Underground Story Of Transatlantic Records 1968-76 (2017) [FLAC] {3CD}\Let The Electric Children Play CD3\01 - Peter Bardens - Tear Down The Wall.wav

Pre-gap length 0:00:02.00

Peak level 92.4 %
Extraction speed 2.9 X
Track quality 100.0 %
Test CRC C8BD97C3
Copy CRC C8BD97C3
Track not present in AccurateRip database
Copy OK

Track 2

Filename C:\Users\ian\Desktop\VA - Let The Electric Children Play The Underground Story Of Transatlantic Records 1968-76 (2017) [FLAC] {3CD}\Let The Electric Children Play CD3\02 - Stray - Son Of The Father.wav

Pre-gap length 0:00:01.89

Peak level 86.3 %
Extraction speed 3.3 X
Track quality 100.0 %
Test CRC 7E3D27E2
Copy CRC 7E3D27E2
Track not present in AccurateRip database
Copy OK

Track 3

Filename C:\Users\ian\Desktop\VA - Let The Electric Children Play The Underground Story Of Transatlantic Records 1968-76 (2017) [FLAC] {3CD}\Let The Electric Children Play CD3\03 - Gerry Rafferty - Dont Count Me Out.wav

Pre-gap length 0:00:02.24

Peak level 90.6 %
Extraction speed 2.8 X
Track quality 99.9 %
Test CRC 18A3AC22
Copy CRC 18A3AC22
Track not present in AccurateRip database
Copy OK

Track 4

Filename C:\Users\ian\Desktop\VA - Let The Electric Children Play The Underground Story Of Transatlantic Records 1968-76 (2017) [FLAC] {3CD}\Let The Electric Children Play CD3\04 - Skin Alley - Nicks Seven.wav

Pre-gap length 0:00:01.76

Peak level 97.1 %
Extraction speed 3.7 X
Track quality 100.0 %
Test CRC 832FACAE
Copy CRC 832FACAE
Track not present in AccurateRip database
Copy OK

Track 5

Filename C:\Users\ian\Desktop\VA - Let The Electric Children Play The Underground Story Of Transatlantic Records 1968-76 (2017) [FLAC] {3CD}\Let The Electric Children Play CD3\05 - CMU - Song From The 4th Era.wav

Pre-gap length 0:00:01.90

Peak level 93.6 %
Extraction speed 3.4 X
Track quality 100.0 %
Test CRC 3A11AF3C
Copy CRC 3A11AF3C
Track not present in AccurateRip database
Copy OK

Track 6

Filename C:\Users\ian\Desktop\VA - Let The Electric Children Play The Underground Story Of Transatlantic Records 1968-76 (2017) [FLAC] {3CD}\Let The Electric Children Play CD3\06 - CMU - A Distant Thought A Point Of Light.wav

Peak level 98.2 %
Extraction speed 4.1 X
Track quality 100.0 %
Test CRC 66899E22
Copy CRC 66899E22
Track not present in AccurateRip database
Copy OK

Track 7

Filename C:\Users\ian\Desktop\VA - Let The Electric Children Play The Underground Story Of Transatlantic Records 1968-76 (2017) [FLAC] {3CD}\Let The Electric Children Play CD3\07 - Decameron - The Ungodly.wav

Pre-gap length 0:00:02.21

Peak level 97.5 %
Extraction speed 4.1 X
Track quality 100.0 %
Test CRC 0BAB161C
Copy CRC 0BAB161C
Track not present in AccurateRip database
Copy OK

Track 8

Filename C:\Users\ian\Desktop\VA - Let The Electric Children Play The Underground Story Of Transatlantic Records 1968-76 (2017) [FLAC] {3CD}\Let The Electric Children Play CD3\08 - Carolanne Pegg - Fair Fortunes Star.wav

Pre-gap length 0:00:02.54

Peak level 89.6 %
Extraction speed 4.7 X
Track quality 100.0 %
Test CRC E6772EAF
Copy CRC E6772EAF
Track not present in AccurateRip database
Copy OK

Track 9

Filename C:\Users\ian\Desktop\VA - Let The Electric Children Play The Underground Story Of Transatlantic Records 1968-76 (2017) [FLAC] {3CD}\Let The Electric Children Play CD3\09 - Stray - Move It [Single].wav

Pre-gap length 0:00:01.80

Peak level 99.4 %
Extraction speed 4.4 X
Track quality 100.0 %
Test CRC 772C9221
Copy CRC 772C9221
Track not present in AccurateRip database
Copy OK

Track 10

Filename C:\Users\ian\Desktop\VA - Let The Electric Children Play The Underground Story Of Transatlantic Records 1968-76 (2017) [FLAC] {3CD}\Let The Electric Children Play CD3\10 - Renia - Shelter.wav

Pre-gap length 0:00:01.94

Peak level 99.4 %
Extraction speed 4.8 X
Track quality 100.0 %
Test CRC FE41BD5A
Copy CRC FE41BD5A
Track not present in AccurateRip database
Copy OK

Track 11

Filename C:\Users\ian\Desktop\VA - Let The Electric Children Play The Underground Story Of Transatlantic Records 1968-76 (2017) [FLAC] {3CD}\Let The Electric Children Play CD3\11 - Gryphon - Opening Move.wav

Pre-gap length 0:00:02.09

Peak level 82.2 %
Extraction speed 5.3 X
Track quality 100.0 %
Test CRC 737A404C
Copy CRC 737A404C
Track not present in AccurateRip database
Copy OK

Track 12

Filename C:\Users\ian\Desktop\VA - Let The Electric Children Play The Underground Story Of Transatlantic Records 1968-76 (2017) [FLAC] {3CD}\Let The Electric Children Play CD3\12 - Decameron - Journeys End.wav

Pre-gap length 0:00:02.00

Peak level 88.3 %
Extraction speed 5.1 X
Track quality 100.0 %
Test CRC 22EF837F
Copy CRC 22EF837F
Track not present in AccurateRip database
Copy OK

Track 13

Filename C:\Users\ian\Desktop\VA - Let The Electric Children Play The Underground Story Of Transatlantic Records 1968-76 (2017) [FLAC] {3CD}\Let The Electric Children Play CD3\13 - Metro - Criminal World.wav

Pre-gap length 0:00:01.90

Peak level 97.1 %
Extraction speed 4.7 X
Track quality 99.9 %
Test CRC 1B2F8F28
Copy CRC 1B2F8F28
Track not present in AccurateRip database
Copy OK


None of the tracks are present in the AccurateRip database

No errors occurred

End of status report

–– CUETools DB Plugin V2.1.6

[CTDB TOCID: BJC4OIFzeOHborMN0Cro4.UKTyA-] found
Submit result: BJC4OIFzeOHborMN0Cro4.UKTyA- has been confirmed
Track | CTDB Status
1 | (3/3) Accurately ripped
2 | (3/3) Accurately ripped
3 | (3/3) Accurately ripped
4 | (3/3) Accurately ripped
5 | (3/3) Accurately ripped
6 | (3/3) Accurately ripped
7 | (3/3) Accurately ripped
8 | (3/3) Accurately ripped
9 | (3/3) Accurately ripped
10 | (3/3) Accurately ripped
11 | (3/3) Accurately ripped
12 | (3/3) Accurately ripped
13 | (3/3) Accurately ripped


==== Log checksum EC3A45B1A0918FC6C6D4C036B66CC7DFEF5CC0C7C2BDD0B9AC8EF95508EA4F9C ====


Various Artists - Let the Electric Children Play: The Underground Story of Transatlantic Records 1968 - 1976 (2017) {3CD Set}



===