Subcategories

VA - Meditation: Classical Relaxation (10 CD Box-Set) (1991) [Repost]

Posted By: delpotro
VA - Meditation: Classical Relaxation (10 CD Box-Set) (1991) [Repost]

VA - Meditation: Classical Relaxation (10 CD Box-Set) (1991)
EAC Rip | FLAC (tracks+log+.cue) | 10:14:47 | 2,11 Gb
Classical | Label: LaserLight Digital

At a simply unbeatable price, Meditation offers ten CDs worth of intimate instrumental favorites by classical masters. These timeless melodies are a soothing, soul-satisfying balm for our hectic, harried lives. Sail away with Pachelbel's Canon, Albinoni's Adagio, Beethoven's "Moonlight" Sonata, Debussy's "Clair de lune," and Brahms's Lullaby, as well as melting masterworks by Mozart, Bach, Tchaikovsky, Chopin, Mendelssohn, and many others.
Tracklist:
Disc 1 (56:54)
1. New Leipzig Bach Collegium Musicum & Max Pommer – Canon (04:19)
2. Istvan Szekely, Franz Liszt Chamber Orchestra & Janos Rolla – Andante (05:33)
3. Berlin Radio Symphony Orchestra & Heinz Fricke – Notturno (02:23)
4. Bartok Quartet & Miklos Perenyi – Adagio (13:19)
5. German Bach Soloists & Helmut Winschermann – Air (04:02)
6. Bela Kovacs, Franz Liszt Chamber Orchestra & Janos Rolla – Adagio (06:55)
7. Budapest Philharmonic Orchestra & Janos Kovacs – Andante Con Moto (10:20)
8. Ludwig Güttler & Friedrich Kircheis – Adagio (03:37)
9. Helmut Rucker, Dresden Philharmonic & Herbert Kegel – Dance Of The Blessed Spirits (06:26)

Disc 2 (51:45)
1. Budapest Philharmonic Orchestra & Andras Korodi – Méditation (05:05)
2. Miklos Szenthelyi, Hungarian State Orchestra & György Gyorivanyi-Rath – Romance In G, Op. 26 (07:58)
3. Dresden Philharmonic & Herbert Kegel – The Last Spring (06:01)
4. Budapest Strings – Minuet (02:29)
5. Budapest Strings – Serenade, Op. 3 No. 5 (04:37)
6. Budapest Strings – Poème, Op. 41 No. 6 (02:24)
7. Dresden Philharmonic & Herbert Kegel – Elegaic Melody No. 1 (04:20)
8. Franz Liszt Chamber Orchestra – Elegia (07:50)
9. Budapest Strings – I Love You (01:29)
10. Budapest Philharmonic Orchestra & Andras Korodi – Dance Of The Hours (09:32)

Disc 3 (51:01)
1. Dresden Philharmonic & Herbert Kegel – Adagio (09:48)
2. Budapest Strings – Romance In F Minor, Op. 11 (10:28)
3. Vienna Symphony Orchestra & Yuri Ahronovitch – Solveig's Song (05:08)
4. Miklos Szenthelyi, Hungarian State Orchestra & György Gyorivanyi-Rath – Romance For Violin No. 2 In F, Op. 50 (09:23)
5. Budapest Philharmonic Orchestra & Janos Kovacs – Ballet Music In G (06:31)
6. Budapest Festival Orchestra & Ivan Fischer – Adagietto (09:43)

Disc 4 (01:04:54)
1. Budapest Philharmonic Orchestra & Janos Sandor – Morning (03:30)
2. Budapest Strings – Ständchen (Serenade) (03:17)
3. Stuttgart Radio Symphony Orchestra & Sir Neville Marriner – Preghiera (Ave Verum) (03:43)
4. Evelyne Dubourg – Adagio Sostenuto (05:21)
5. Daniel Gerard, Vienna Mozart Ensemble & Herbert Kraus – Piano Concerto No. 23 In A, 2nd Movement (05:53)
6. Budapest Philharmonic Orchestra & Janos Kovacs – Intermezzo (08:16)
7. Emmy Verhey, Budapest Symphony Orchestra & Arpad Joo – Violin Concerto In E Minor, 2nd Movement (08:11)
8. Berlin Chamber Orchestra & Peter Wohlert – Serenade For String Orchestra, 1st Movement (04:02)
9. Budapest Philharmonic Orchestra & Janos Sandor – Intermezzo (04:01)
10. Zoltan Tokos & Budapest Strings – Concierto De Aranjuez, 2nd Movement (11:15)
11. Danielle Dechenne, Emmy Verhey, Ferdinand Erblich, Jean Decroos & Peter Jansen – "Trout" Quintet - Theme And Variations (07:25)

Disc 5 (01:16:14)
1. Budapest Philharmonic Orchestra & Janos Sandor – Barcarolle (03:27)
2. Dresden Philharmonic & Herbert Kegel – Valse Triste (04:41)
3. Donatella Failoni – Liebestraum No. 3 In A Flat (04:12)
4. Budapest Strings – Minuet (03:32)
5. Burkhard Glaetzner, New Leipzig Bach Collegium Musicum & Max Pommer – Oboe Concerto In D Minor (Excerpt) (03:03)
6. Istvan Szekely – Piano Sonata No. 8, "Pathétique", 2nd Movement (04:59)
7. Budapest Philharmonic Orchestra & Andras Korodi – Intermezzo Sinfonico (03:29)
8. Cologne Concerto – Sinfonia (05:27)
9. Budapest Strings – Ave Maria (04:45)
10. Bernd Heiser, Vienna Mozart Ensemble & Herbert Kraus – Horn Concerto No. 3, 2nd Movement (04:18)
11. Prague Festival Orchestra & Pavel Urbanek – Symphony No. 1, 3rd Movement (10:20)
12. Budapest Strings – Träumerei (03:05)
13. Budapest Philharmonic Orchestra & Janos Sandor – Ase's Death (05:14)
14. Budapest Strings – Largo (03:01)
15. Prague Festival Orchestra & Pavel Urbanek – Symphony No. 9. "From The New World", 2nd Movement (12:41)

Disc 6 (01:02:33)
1. Bavarian Radio Symphony Orchestra & Hans Vonk – Swan Lake - Scene (02:46)
2. Berlin Chamber Orchestra & Peter Wohlert – Eine Kleine Nachtmusik - Romance (05:41)
3. Krzysztof Jablonski – Nocturne In B Major, Op. 9 No. 3 (06:17)
4. Sofia National Opera Chorus, Orchestra & Rouslan Raychev – Humming Chorus (03:06)
5. Budapest Philharmonic Orchestra & Janos Kovacs – Notturno (06:42)
6. Salzburg Mozarteum Orchestra & Hans Graf – Symphony No. 35 "Haffner" - Andante (06:32)
7. Budapest Philharmonic Orchestra & Janos Sandor – Carmen Suite No. 1 - Intermezzo (02:39)
8. Peter Rösel – Piano Sonata In B Flat Major, D 960 - Andante Sostenuto (09:47)
9. Christian Altenburger, Wolfgang Christ, German Bach Soloists & Helmut Winschermann – Sinfonia Concertante In E Flat Major - Andante (10:39)
10. Adam Harasiewicz, Warsaw National Philharmonic & Kazimierz Kord – Piano Concerto No. 2 - Larghetto (08:24)

Disc 7 (01:01:17)
1. Jenö Jandó – Impromptu In G Flat Major (05:23)
2. Ernö Sebestyen & Andreas Juffinger – Evening Song (03:59)
3. Luxembourg Radio Orchestra & Leopold Hager – Serenade No. 1 - Adagio Non Troppo (12:23)
4. Evelyne Dubourg – The Merry Peasant (00:50)
5. Eckart Haupt, Peter Mirring, Peter Schikora & Gerhard Pluskwik – Flute Quartet In G Major (08:16)
6. Dresden Philharmonic & Herbert Kegel – Symphony No. 7 - Allegretto (09:23)
7. Budapest Strings – Cradle Song (01:45)
8. László Szendrey-Karper, Zoltán Jenez, Pál Lukacz & Ede Banda – Theme And Variations (04:35)
9. Jenö Jandó – The Seasons - "June" (Barcarolle) (05:09)
10. Salzburg Mozarteum Orchestra & Hans Graf – Symphony No. 36 "Linz" - Poco Adagio (09:34)

Disc 8 (01:00:28)
1. Franz Just – Prelude In C Minor (02:05)
2. Daniel Gerard, Berlin Radio Symphony Orchestra & Peter Wohlert – Piano Concerto In A Minor - Adagio (07:05)
3. Kurt Berger, Vienna Mozart Ensemble & Herbert Kraus – Flute Concerto No. 2 - Adagio Non Troppo (05:24)
4. Evert van Trigt & Benno Pierweijer – Andante (04:53)
5. Jenö Jandó – Impromptu In B Flat Major (10:45)
6. Leipzig Radio Symphony Orchestra & Max Pommer – Clair De Lune (04:16)
7. Salzburg Mozarteum Camerata Academica & Sándor Végh – Divertimento In D K251 - Andantino (03:58)
8. Budapest Strings – Caro Mio Ben (03:07)
9. Daniel Gerard, Vienna Mozart Ensemble & Herbert Kraus – Piano Concerto No. 9 "Jeunehomme" - Andante (10:43)
10. Ernö Sebestyen & Andreas Juffinger – Theme And Variations (08:12)

Disc 9 (01:00:37)
1. Bavarian Radio Symphony Orchestra & Hans Vonk – The Sleeping Beauty - Panorama (02:58)
2. Budapest Strings – Waltz, Op. 39 No. 15 (02:22)
3. Eckart Haupt & Dresden Baroque Soloists – Flute Concerto In G Minor - Andante (03:32)
4. Evelyne Dubourg – Impromptu In A Flat (07:19)
5. Christian Altenburger, German Bach Soloists & Helmut Winschermann – Violin Concerto No. 5 - Adagio (09:59)
6. Budapest Philharmonic Orchestra & János Kovács – Symphony No. 3 - Allegro (04:30)
7. New Leipzig Bach Collegium Musicum & Max Pommer – Brandenburg Concerto No. 2 - Andante (03:32)
8. Garrick Ohlsson – Piano Sonata No. 3 - Largo (08:40)
9. Stuttgart Radio Symphony Orchestra & Sir Neville Marriner – Suite No. 1 - Intermezzo (07:44)
10. Anton Dikov, Sofia Philharmonic Orchestra & Emil Tabakov – Piano Concerto No. 3 - Largo (10:01)

Disc 10 (01:02:09)
1. Sofia Symphony Orchestra & Vassil Stefanov – La Traviata - Prelude Act 1 (03:42)
2. Evelyne Dubourg – Foreign Countries And People (01:32)
3. Budapest Strings – Chanson Triste (03:12)
4. English Chamber Orchestra & Geoffrey Simon – Symphony No. 5 - Andante (09:32)
5. Donatella Failoni – La Campanella (05:42)
6. Eckart Haupt, C.P.E. Bach Chamber Orchestra & Hartmut Haenchen – Flute Concerto In B Flat - Adagio (07:20)
7. Ivo Pogorelich – Funeral March (06:09)
8. Hungarian State Orchestra & Janos Ferencsik – Symphony No. 94 "Surprise" - Andante (06:27)
9. Hans Friedrich, Angelica Berger, Vienna Mozart Ensemble & Herbert Kraus – Concerto For Flute And Harp - Andantino (08:34)
10. Prague Festival Orchestra & Pavel Urbanek – Symphony No. 6 "Pathétique" - Adagio Lamentoso (09:59)

Exact Audio Copy V0.99 prebeta 5 from 4. May 2009

EAC extraction logfile from 10. October 2009, 19:14

Various / Meditation: Classical Relaxation, Volume 1

Used drive : _NEC DVD_RW ND-3500AG Adapter: 1 ID: 0

Read mode : Secure
Utilize accurate stream : Yes
Defeat audio cache : Yes
Make use of C2 pointers : No

Read offset correction : 48
Overread into Lead-In and Lead-Out : No
Fill up missing offset samples with silence : Yes
Delete leading and trailing silent blocks : No
Null samples used in CRC calculations : Yes
Used interface : Native Win32 interface for Win NT & 2000
Gap handling : Appended to previous track

Used output format : User Defined Encoder
Selected bitrate : 192 kBit/s
Quality : High
Add ID3 tag : No
Command line compressor : C:\Program Files\Exact Audio Copy\Flac\flac.exe
Additional command line options : -V -8 -T "artist=%a" -T "title=%t" -T "album=%g" -T "date=%y" -T "tracknumber=%n" -T "genre=%m" %s


TOC of the extracted CD

Track | Start | Length | Start sector | End sector
––––––––––––––––––––––––––––-
1 | 0:00.00 | 4:24.00 | 0 | 19799
2 | 4:24.00 | 5:38.00 | 19800 | 45149
3 | 10:02.00 | 2:28.00 | 45150 | 56249
4 | 12:30.00 | 13:24.00 | 56250 | 116549
5 | 25:54.00 | 4:08.00 | 116550 | 135149
6 | 30:02.00 | 7:00.00 | 135150 | 166649
7 | 37:02.00 | 10:25.00 | 166650 | 213524
8 | 47:27.00 | 3:42.00 | 213525 | 230174
9 | 51:09.00 | 6:26.52 | 230175 | 259176


Track 1

Filename D:\EACrips\Meditation- Classical Relaxation, Volume 1 - 1991\01 - Johann Pachelbel - Canon.wav

Pre-gap length 0:00:02.00

Peak level 75.9 %
Track quality 99.9 %
Test CRC C50168D3
Copy CRC C50168D3
Cannot be verified as accurate (confidence 4) [1B28C37F], AccurateRip returned [FCABA71A]
Copy OK

Track 2

Filename D:\EACrips\Meditation- Classical Relaxation, Volume 1 - 1991\02 - Wolfgang Amadeus Mozart - Andante, from Piano Concerto No. 21, 'Elvira Madigan'.wav

Pre-gap length 0:00:04.33

Peak level 37.0 %
Track quality 100.0 %
Test CRC 49503497
Copy CRC 49503497
Cannot be verified as accurate (confidence 4) [0452061C], AccurateRip returned [DF8EC12C]
Copy OK

Track 3

Filename D:\EACrips\Meditation- Classical Relaxation, Volume 1 - 1991\03 - Léo Delibes - Notturno, from 'Coppellia'.wav

Pre-gap length 0:00:04.26

Peak level 16.2 %
Track quality 100.0 %
Test CRC 3E8FC8AE
Copy CRC 3E8FC8AE
Cannot be verified as accurate (confidence 4) [67CC9ABA], AccurateRip returned [0323870A]
Copy OK

Track 4

Filename D:\EACrips\Meditation- Classical Relaxation, Volume 1 - 1991\04 - Franz Schubert - Adagio, from String Quintet in C.wav

Pre-gap length 0:00:04.50

Peak level 32.2 %
Track quality 100.0 %
Test CRC 70831D7B
Copy CRC 70831D7B
Cannot be verified as accurate (confidence 4) [6FCAB5DC], AccurateRip returned [2B803054]
Copy OK

Track 5

Filename D:\EACrips\Meditation- Classical Relaxation, Volume 1 - 1991\05 - Johann Sebastian Bach - Air, from Orchestral Suite No.3.wav

Pre-gap length 0:00:04.93

Peak level 22.2 %
Track quality 100.0 %
Test CRC 60F3A684
Copy CRC 60F3A684
Cannot be verified as accurate (confidence 4) [138A3B86], AccurateRip returned [4DAE7B1F]
Copy OK

Track 6

Filename D:\EACrips\Meditation- Classical Relaxation, Volume 1 - 1991\06 - Wolfgang Amadeus Mozart - Adagio from Clarinet Concerto.wav

Pre-gap length 0:00:05.66

Peak level 38.3 %
Track quality 100.0 %
Test CRC 6098429F
Copy CRC 6098429F
Cannot be verified as accurate (confidence 4) [3ABA7D92], AccurateRip returned [E8060CDB]
Copy OK

Track 7

Filename D:\EACrips\Meditation- Classical Relaxation, Volume 1 - 1991\07 - Franz Schubert - Andante con moto, from Symphony No. 8, 'Unfinished'.wav

Pre-gap length 0:00:04.26

Peak level 55.8 %
Track quality 100.0 %
Test CRC 2469F621
Copy CRC 2469F621
Cannot be verified as accurate (confidence 4) [962DDE27], AccurateRip returned [8AC4DB7F]
Copy OK

Track 8

Filename D:\EACrips\Meditation- Classical Relaxation, Volume 1 - 1991\08 - Tomaso Giovanni Albinoni - Adagio, from Concerto, Op. 9 No. 2.wav

Pre-gap length 0:00:04.53

Peak level 31.1 %
Track quality 100.0 %
Test CRC 3920B51A
Copy CRC 3920B51A
Cannot be verified as accurate (confidence 3) [5AED66F1], AccurateRip returned [3C439774]
Copy OK

Track 9

Filename D:\EACrips\Meditation- Classical Relaxation, Volume 1 - 1991\09 - Christoph Willibald Gluck - Dance of the Blessed Spirits, from 'Orpheus and Eurydice'.wav

Pre-gap length 0:00:04.37

Peak level 17.6 %
Track quality 100.0 %
Test CRC C3F3CA8C
Copy CRC C3F3CA8C
Cannot be verified as accurate (confidence 4) [E93B68FF], AccurateRip returned [078BC27E]
Copy OK


No tracks could be verified as accurate
You may have a different pressing from the one(s) in the database

No errors occurred

End of status report

Exact Audio Copy V0.99 prebeta 5 from 4. May 2009

EAC extraction logfile from 10. October 2009, 19:14

Various / Meditation: Classical Relaxation, Volume 1

Used drive : _NEC DVD_RW ND-3500AG Adapter: 1 ID: 0

Read mode : Secure
Utilize accurate stream : Yes
Defeat audio cache : Yes
Make use of C2 pointers : No

Read offset correction : 48
Overread into Lead-In and Lead-Out : No
Fill up missing offset samples with silence : Yes
Delete leading and trailing silent blocks : No
Null samples used in CRC calculations : Yes
Used interface : Native Win32 interface for Win NT & 2000
Gap handling : Appended to previous track

Used output format : User Defined Encoder
Selected bitrate : 192 kBit/s
Quality : High
Add ID3 tag : No
Command line compressor : C:\Program Files\Exact Audio Copy\Flac\flac.exe
Additional command line options : -V -8 -T "artist=%a" -T "title=%t" -T "album=%g" -T "date=%y" -T "tracknumber=%n" -T "genre=%m" %s


TOC of the extracted CD

Track | Start | Length | Start sector | End sector
––––––––––––––––––––––––––––-
1 | 0:00.00 | 4:24.00 | 0 | 19799
2 | 4:24.00 | 5:38.00 | 19800 | 45149
3 | 10:02.00 | 2:28.00 | 45150 | 56249
4 | 12:30.00 | 13:24.00 | 56250 | 116549
5 | 25:54.00 | 4:08.00 | 116550 | 135149
6 | 30:02.00 | 7:00.00 | 135150 | 166649
7 | 37:02.00 | 10:25.00 | 166650 | 213524
8 | 47:27.00 | 3:42.00 | 213525 | 230174
9 | 51:09.00 | 6:26.52 | 230175 | 259176


Track 1

Filename D:\EACrips\Meditation- Classical Relaxation, Volume 1 - 1991\01 - Johann Pachelbel - Canon.wav

Pre-gap length 0:00:02.00

Peak level 75.9 %
Track quality 99.9 %
Test CRC C50168D3
Copy CRC C50168D3
Cannot be verified as accurate (confidence 4) [1B28C37F], AccurateRip returned [FCABA71A]
Copy OK

Track 2

Filename D:\EACrips\Meditation- Classical Relaxation, Volume 1 - 1991\02 - Wolfgang Amadeus Mozart - Andante, from Piano Concerto No. 21, 'Elvira Madigan'.wav

Pre-gap length 0:00:04.33

Peak level 37.0 %
Track quality 100.0 %
Test CRC 49503497
Copy CRC 49503497
Cannot be verified as accurate (confidence 4) [0452061C], AccurateRip returned [DF8EC12C]
Copy OK

Track 3

Filename D:\EACrips\Meditation- Classical Relaxation, Volume 1 - 1991\03 - Léo Delibes - Notturno, from 'Coppellia'.wav

Pre-gap length 0:00:04.26

Peak level 16.2 %
Track quality 100.0 %
Test CRC 3E8FC8AE
Copy CRC 3E8FC8AE
Cannot be verified as accurate (confidence 4) [67CC9ABA], AccurateRip returned [0323870A]
Copy OK

Track 4

Filename D:\EACrips\Meditation- Classical Relaxation, Volume 1 - 1991\04 - Franz Schubert - Adagio, from String Quintet in C.wav

Pre-gap length 0:00:04.50

Peak level 32.2 %
Track quality 100.0 %
Test CRC 70831D7B
Copy CRC 70831D7B
Cannot be verified as accurate (confidence 4) [6FCAB5DC], AccurateRip returned [2B803054]
Copy OK

Track 5

Filename D:\EACrips\Meditation- Classical Relaxation, Volume 1 - 1991\05 - Johann Sebastian Bach - Air, from Orchestral Suite No.3.wav

Pre-gap length 0:00:04.93

Peak level 22.2 %
Track quality 100.0 %
Test CRC 60F3A684
Copy CRC 60F3A684
Cannot be verified as accurate (confidence 4) [138A3B86], AccurateRip returned [4DAE7B1F]
Copy OK

Track 6

Filename D:\EACrips\Meditation- Classical Relaxation, Volume 1 - 1991\06 - Wolfgang Amadeus Mozart - Adagio from Clarinet Concerto.wav

Pre-gap length 0:00:05.66

Peak level 38.3 %
Track quality 100.0 %
Test CRC 6098429F
Copy CRC 6098429F
Cannot be verified as accurate (confidence 4) [3ABA7D92], AccurateRip returned [E8060CDB]
Copy OK

Track 7

Filename D:\EACrips\Meditation- Classical Relaxation, Volume 1 - 1991\07 - Franz Schubert - Andante con moto, from Symphony No. 8, 'Unfinished'.wav

Pre-gap length 0:00:04.26

Peak level 55.8 %
Track quality 100.0 %
Test CRC 2469F621
Copy CRC 2469F621
Cannot be verified as accurate (confidence 4) [962DDE27], AccurateRip returned [8AC4DB7F]
Copy OK

Track 8

Filename D:\EACrips\Meditation- Classical Relaxation, Volume 1 - 1991\08 - Tomaso Giovanni Albinoni - Adagio, from Concerto, Op. 9 No. 2.wav

Pre-gap length 0:00:04.53

Peak level 31.1 %
Track quality 100.0 %
Test CRC 3920B51A
Copy CRC 3920B51A
Cannot be verified as accurate (confidence 3) [5AED66F1], AccurateRip returned [3C439774]
Copy OK

Track 9

Filename D:\EACrips\Meditation- Classical Relaxation, Volume 1 - 1991\09 - Christoph Willibald Gluck - Dance of the Blessed Spirits, from 'Orpheus and Eurydice'.wav

Pre-gap length 0:00:04.37

Peak level 17.6 %
Track quality 100.0 %
Test CRC C3F3CA8C
Copy CRC C3F3CA8C
Cannot be verified as accurate (confidence 4) [E93B68FF], AccurateRip returned [078BC27E]
Copy OK


No tracks could be verified as accurate
You may have a different pressing from the one(s) in the database

No errors occurred

End of status report

Exact Audio Copy V0.99 prebeta 5 from 4. May 2009

EAC extraction logfile from 16. October 2009, 2:03

Various / Meditation- Classical Relaxation, Volume 3

Used drive : _NEC DVD_RW ND-3500AG Adapter: 1 ID: 0

Read mode : Secure
Utilize accurate stream : Yes
Defeat audio cache : Yes
Make use of C2 pointers : No

Read offset correction : 48
Overread into Lead-In and Lead-Out : No
Fill up missing offset samples with silence : Yes
Delete leading and trailing silent blocks : No
Null samples used in CRC calculations : Yes
Used interface : Native Win32 interface for Win NT & 2000
Gap handling : Appended to previous track

Used output format : User Defined Encoder
Selected bitrate : 192 kBit/s
Quality : High
Add ID3 tag : No
Command line compressor : C:\Program Files\Exact Audio Copy\Flac\flac.exe
Additional command line options : -V -8 -T "artist=%a" -T "title=%t" -T "album=%g" -T "date=%y" -T "tracknumber=%n" -T "genre=%m" %s


TOC of the extracted CD

Track | Start | Length | Start sector | End sector
––––––––––––––––––––––––––––-
1 | 0:00.32 | 9:54.00 | 32 | 44581
2 | 9:54.32 | 10:34.00 | 44582 | 92131
3 | 20:28.32 | 5:14.00 | 92132 | 115681
4 | 25:42.32 | 9:29.00 | 115682 | 158356
5 | 35:11.32 | 6:37.00 | 158357 | 188131
6 | 41:48.32 | 9:43.30 | 188132 | 231886


Track 1

Filename D:\EACrips\Meditation- Classical Relaxation, Volume 3 - 1991 [FLAC]\01 - Albinoni- Adagio In G Minor - Albinoni- Adagio In G Minor.wav

Pre-gap length 0:00:02.42

Peak level 45.7 %
Track quality 100.0 %
Test CRC 83CE3F70
Copy CRC 83CE3F70
Cannot be verified as accurate (confidence 2) [07D236B5], AccurateRip returned [2782468D]
Copy OK

Track 2

Filename D:\EACrips\Meditation- Classical Relaxation, Volume 3 - 1991 [FLAC]\02 - Dvorak- Romance In F Minor, Op. 11 - Dvorak- Romance In F Minor, Op. 11.wav

Pre-gap length 0:00:05.80

Peak level 78.8 %
Track quality 100.0 %
Test CRC 35E0478F
Copy CRC 35E0478F
Cannot be verified as accurate (confidence 2) [2BF356B6], AccurateRip returned [FA9E2A8C]
Copy OK

Track 3

Filename D:\EACrips\Meditation- Classical Relaxation, Volume 3 - 1991 [FLAC]\03 - Grieg- Solveig's Song, from 'Peer Gynt' - Grieg- Solveig's Song, from 'Peer Gynt'.wav

Pre-gap length 0:00:05.26

Peak level 30.2 %
Track quality 100.0 %
Test CRC DCC4C06B
Copy CRC DCC4C06B
Cannot be verified as accurate (confidence 2) [8C82AA44], AccurateRip returned [78D97B2A]
Copy OK

Track 4

Filename D:\EACrips\Meditation- Classical Relaxation, Volume 3 - 1991 [FLAC]\04 - Beethoven- Romance for Violin No. 2 In F, Op. 50 - Beethoven- Romance for Violin No. 2 In F, Op. 50.wav

Pre-gap length 0:00:05.26

Peak level 70.7 %
Track quality 100.0 %
Test CRC C0BA235A
Copy CRC C0BA235A
Cannot be verified as accurate (confidence 2) [8F531D86], AccurateRip returned [573A9200]
Copy OK

Track 5

Filename D:\EACrips\Meditation- Classical Relaxation, Volume 3 - 1991 [FLAC]\05 - Schubert- Ballet Music In G, from 'Rosamunde' - Schubert- Ballet Music In G, from 'Rosamunde'.wav

Pre-gap length 0:00:05.13

Peak level 45.7 %
Track quality 100.0 %
Test CRC B0037B7B
Copy CRC B0037B7B
Cannot be verified as accurate (confidence 2) [9EEEB13A], AccurateRip returned [E34BD85A]
Copy OK

Track 6

Filename D:\EACrips\Meditation- Classical Relaxation, Volume 3 - 1991 [FLAC]\06 - Mahler- Adagietto, from Symphony No. 5 in C Sharp Minor - Mahler- Adagietto, from Symphony No. 5 in C Sharp Minor.wav

Pre-gap length 0:00:06.00

Peak level 66.5 %
Track quality 100.0 %
Test CRC 16BEBDBB
Copy CRC 16BEBDBB
Cannot be verified as accurate (confidence 2) [3E7915DA], AccurateRip returned [4A6F3136]
Copy OK


No tracks could be verified as accurate
You may have a different pressing from the one(s) in the database

No errors occurred

End of status report

Exact Audio Copy V0.99 prebeta 5 from 4. May 2009

EAC extraction logfile from 12. October 2009, 0:27

Various / Meditation- Classical Relaxation, Volume 4

Used drive : _NEC DVD_RW ND-3500AG Adapter: 1 ID: 0

Read mode : Secure
Utilize accurate stream : Yes
Defeat audio cache : Yes
Make use of C2 pointers : No

Read offset correction : 48
Overread into Lead-In and Lead-Out : No
Fill up missing offset samples with silence : Yes
Delete leading and trailing silent blocks : No
Null samples used in CRC calculations : Yes
Used interface : Native Win32 interface for Win NT & 2000
Gap handling : Appended to previous track

Used output format : User Defined Encoder
Selected bitrate : 192 kBit/s
Quality : High
Add ID3 tag : No
Command line compressor : C:\Program Files\Exact Audio Copy\Flac\flac.exe
Additional command line options : -V -8 -T "artist=%a" -T "title=%t" -T "album=%g" -T "date=%y" -T "tracknumber=%n" -T "genre=%m" %s


TOC of the extracted CD

Track | Start | Length | Start sector | End sector
––––––––––––––––––––––––––––-
1 | 0:00.00 | 3:34.02 | 0 | 16051
2 | 3:34.02 | 3:22.00 | 16052 | 31201
3 | 6:56.02 | 3:46.73 | 31202 | 48224
4 | 10:43.00 | 5:25.27 | 48225 | 72626
5 | 16:08.27 | 5:56.48 | 72627 | 99374
6 | 22:05.00 | 8:19.50 | 99375 | 136849
7 | 30:24.50 | 8:15.10 | 136850 | 173984
8 | 38:39.60 | 4:05.10 | 173985 | 192369
9 | 42:44.70 | 4:04.60 | 192370 | 210729
10 | 46:49.55 | 11:18.55 | 210730 | 261634
11 | 58:08.35 | 7:25.20 | 261635 | 295029


Track 1

Filename D:\EACrips\Meditation- Classical Relaxation, Volume 4 - 1991 [FLAC]\01 - Grieg - Morning from 'Peer Gynt'.wav

Pre-gap length 0:00:02.00

Peak level 67.7 %
Track quality 100.0 %
Test CRC 86ABD54C
Copy CRC 86ABD54C
Accurately ripped (confidence 4) [DBAEEF88]
Copy OK

Track 2

Filename D:\EACrips\Meditation- Classical Relaxation, Volume 4 - 1991 [FLAC]\02 - Schubert - Standchen (Serenade).wav

Pre-gap length 0:00:04.42

Peak level 35.6 %
Track quality 100.0 %
Test CRC 6E44BBA2
Copy CRC 6E44BBA2
Accurately ripped (confidence 4) [854BCF0A]
Copy OK

Track 3

Filename D:\EACrips\Meditation- Classical Relaxation, Volume 4 - 1991 [FLAC]\03 - Tchaikovsky - Preghiera (Ave Verum) from 'Mozartiana' Suite.wav

Pre-gap length 0:00:04.76

Peak level 32.8 %
Track quality 100.0 %
Test CRC 08EB6097
Copy CRC 08EB6097
Accurately ripped (confidence 4) [3EB94ECC]
Copy OK

Track 4

Filename D:\EACrips\Meditation- Classical Relaxation, Volume 4 - 1991 [FLAC]\04 - Beethoven - Adagio Sostenuto from 'Moonlight' Sonata.wav

Pre-gap length 0:00:04.06

Peak level 16.9 %
Track quality 100.0 %
Test CRC 3573E229
Copy CRC 3573E229
Accurately ripped (confidence 4) [EB65A831]
Copy OK

Track 5

Filename D:\EACrips\Meditation- Classical Relaxation, Volume 4 - 1991 [FLAC]\05 - Mozart - Piano Concerto No. 23 in A, 2nd movement.wav

Pre-gap length 0:00:03.89

Peak level 41.6 %
Track quality 99.9 %
Test CRC B33CF0FC
Copy CRC B33CF0FC
Accurately ripped (confidence 4) [11B3EC84]
Copy OK

Track 6

Filename D:\EACrips\Meditation- Classical Relaxation, Volume 4 - 1991 [FLAC]\06 - Schubert - Intermezzo from 'Rosamunde'.wav

Pre-gap length 0:00:03.53

Peak level 34.3 %
Track quality 100.0 %
Test CRC 48A61428
Copy CRC 48A61428
Accurately ripped (confidence 3) [32174885]
Copy OK

Track 7

Filename D:\EACrips\Meditation- Classical Relaxation, Volume 4 - 1991 [FLAC]\07 - Mendelssohn - Violin Concerto in E minor, 2nd movement.wav

Pre-gap length 0:00:03.60

Peak level 56.7 %
Track quality 100.0 %
Test CRC E1927AA8
Copy CRC E1927AA8
Accurately ripped (confidence 3) [B9AF90EB]
Copy OK

Track 8

Filename D:\EACrips\Meditation- Classical Relaxation, Volume 4 - 1991 [FLAC]\08 - Dvorak - Serenade for String Orchestra, 1st movement.wav

Pre-gap length 0:00:03.84

Peak level 41.4 %
Track quality 100.0 %
Test CRC D55B4BE3
Copy CRC D55B4BE3
Accurately ripped (confidence 4) [A519A508]
Copy OK

Track 9

Filename D:\EACrips\Meditation- Classical Relaxation, Volume 4 - 1991 [FLAC]\09 - Bizet - Intermezzo from 'L'Arlesienne' Suite No. 2.wav

Pre-gap length 0:00:03.46

Peak level 33.3 %
Track quality 100.0 %
Test CRC D63FBF9F
Copy CRC D63FBF9F
Accurately ripped (confidence 3) [DE5333FE]
Copy OK

Track 10

Filename D:\EACrips\Meditation- Classical Relaxation, Volume 4 - 1991 [FLAC]\10 - Rodrigo - Concierto de Aranjuez, 2nd movement.wav

Pre-gap length 0:00:04.06

Peak level 48.8 %
Track quality 99.9 %
Test CRC B3B54D45
Copy CRC B3B54D45
Accurately ripped (confidence 4) [68801F8D]
Copy OK

Track 11

Filename D:\EACrips\Meditation- Classical Relaxation, Volume 4 - 1991 [FLAC]\11 - Schubert - 'Trout' Quintet - Theme and Variations.wav

Pre-gap length 0:00:03.60

Peak level 59.2 %
Track quality 100.0 %
Test CRC 5E5FFC61
Copy CRC 5E5FFC61
Accurately ripped (confidence 3) [309342E7]
Copy OK


All tracks accurately ripped

No errors occurred

End of status report

Exact Audio Copy V0.99 prebeta 5 from 4. May 2009

EAC extraction logfile from 12. October 2009, 15:09

Various / Meditation- Classical Relaxation, Volume 5

Used drive : _NEC DVD_RW ND-3500AG Adapter: 1 ID: 0

Read mode : Secure
Utilize accurate stream : Yes
Defeat audio cache : Yes
Make use of C2 pointers : No

Read offset correction : 48
Overread into Lead-In and Lead-Out : No
Fill up missing offset samples with silence : Yes
Delete leading and trailing silent blocks : No
Null samples used in CRC calculations : Yes
Used interface : Native Win32 interface for Win NT & 2000
Gap handling : Appended to previous track

Used output format : User Defined Encoder
Selected bitrate : 192 kBit/s
Quality : High
Add ID3 tag : No
Command line compressor : C:\Program Files\Exact Audio Copy\Flac\flac.exe
Additional command line options : -V -8 -T "artist=%a" -T "title=%t" -T "album=%g" -T "date=%y" -T "tracknumber=%n" -T "genre=%m" %s


TOC of the extracted CD

Track | Start | Length | Start sector | End sector
––––––––––––––––––––––––––––-
1 | 0:00.37 | 3:32.00 | 37 | 15936
2 | 3:32.37 | 4:46.00 | 15937 | 37386
3 | 8:18.37 | 4:17.00 | 37387 | 56661
4 | 12:35.37 | 3:38.00 | 56662 | 73011
5 | 16:13.37 | 3:08.00 | 73012 | 87111
6 | 19:21.37 | 5:04.00 | 87112 | 109911
7 | 24:25.37 | 3:34.00 | 109912 | 125961
8 | 27:59.37 | 5:32.00 | 125962 | 150861
9 | 33:31.37 | 4:51.00 | 150862 | 172686
10 | 38:22.37 | 4:23.00 | 172687 | 192411
11 | 42:45.37 | 10:25.00 | 192412 | 239286
12 | 53:10.37 | 3:10.00 | 239287 | 253536
13 | 56:20.37 | 5:19.00 | 253537 | 277461
14 | 61:39.37 | 3:06.00 | 277462 | 291411
15 | 64:45.37 | 12:41.18 | 291412 | 348504


Track 1

Filename D:\EACrips\Meditation- Classical Relaxation, Volume 5 - 1991 [FLAC]\01 - Jacques Offenbach - Barcarolle, from 'The Tales of Hoffman'.wav

Pre-gap length 0:00:02.49

Peak level 24.8 %
Track quality 100.0 %
Test CRC 78734A81
Copy CRC 78734A81
Track not present in AccurateRip database
Copy OK

Track 2

Filename D:\EACrips\Meditation- Classical Relaxation, Volume 5 - 1991 [FLAC]\02 - Jean Sibelius - Valse Triste.wav

Pre-gap length 0:00:04.53

Peak level 35.0 %
Track quality 100.0 %
Test CRC D02A52A9
Copy CRC D02A52A9
Track not present in AccurateRip database
Copy OK

Track 3

Filename D:\EACrips\Meditation- Classical Relaxation, Volume 5 - 1991 [FLAC]\03 - Franz Liszt - Liebestraum No. 3 in A-flat.wav

Pre-gap length 0:00:04.46

Peak level 60.1 %
Track quality 99.9 %
Test CRC 5405C0D9
Copy CRC 5405C0D9
Track not present in AccurateRip database
Copy OK

Track 4

Filename D:\EACrips\Meditation- Classical Relaxation, Volume 5 - 1991 [FLAC]\04 - Luigi Boccherini - Minuet.wav

Pre-gap length 0:00:04.89

Peak level 24.7 %
Track quality 100.0 %
Test CRC F645E5AF
Copy CRC F645E5AF
Track not present in AccurateRip database
Copy OK

Track 5

Filename D:\EACrips\Meditation- Classical Relaxation, Volume 5 - 1991 [FLAC]\05 - Johann Sebastian Bach - Oboe Concerto in D minor (excerpt).wav

Pre-gap length 0:00:05.06

Peak level 24.3 %
Track quality 100.0 %
Test CRC 9DE667B2
Copy CRC 9DE667B2
Track not present in AccurateRip database
Copy OK

Track 6

Filename D:\EACrips\Meditation- Classical Relaxation, Volume 5 - 1991 [FLAC]\06 - Ludwig van Beethoven - Piano Sonata No. 8, 'Pathetique', 2nd movement.wav

Pre-gap length 0:00:04.60

Peak level 40.3 %
Track quality 100.0 %
Test CRC 9977740D
Copy CRC 9977740D
Track not present in AccurateRip database
Copy OK

Track 7

Filename D:\EACrips\Meditation- Classical Relaxation, Volume 5 - 1991 [FLAC]\07 - Pietro Mascagni - Intermezzo Sinfonico, from 'Cavalleria rusticana'.wav

Pre-gap length 0:00:04.26

Peak level 43.4 %
Track quality 100.0 %
Test CRC A1F3C38D
Copy CRC A1F3C38D
Track not present in AccurateRip database
Copy OK

Track 8

Filename D:\EACrips\Meditation- Classical Relaxation, Volume 5 - 1991 [FLAC]\08 - Johann Sebastian Bach - Sinfonia, from 'Christmas Oratorio'.wav

Pre-gap length 0:00:04.76

Peak level 24.9 %
Track quality 100.0 %
Test CRC D4D1A537
Copy CRC D4D1A537
Track not present in AccurateRip database
Copy OK

Track 9

Filename D:\EACrips\Meditation- Classical Relaxation, Volume 5 - 1991 [FLAC]\09 - Franz Schubert - Ave Maria.wav

Pre-gap length 0:00:04.60

Peak level 34.1 %
Track quality 100.0 %
Test CRC A1882B55
Copy CRC A1882B55
Track not present in AccurateRip database
Copy OK

Track 10

Filename D:\EACrips\Meditation- Classical Relaxation, Volume 5 - 1991 [FLAC]\10 - Wolfgang Amadeus Mozart - Horn Concerto No. 3, 2nd movement.wav

Pre-gap length 0:00:05.02

Peak level 29.0 %
Track quality 99.9 %
Test CRC 39E20BF9
Copy CRC 39E20BF9
Track not present in AccurateRip database
Copy OK

Track 11

Filename D:\EACrips\Meditation- Classical Relaxation, Volume 5 - 1991 [FLAC]\11 - Gustav Mahler - Symphony No. 1, 3rd movement.wav

Pre-gap length 0:00:04.53

Peak level 23.7 %
Track quality 100.0 %
Test CRC A82E51EC
Copy CRC A82E51EC
Track not present in AccurateRip database
Copy OK

Track 12

Filename D:\EACrips\Meditation- Classical Relaxation, Volume 5 - 1991 [FLAC]\12 - Robert Schumann - Träumerei.wav

Pre-gap length 0:00:04.33

Peak level 13.5 %
Track quality 100.0 %
Test CRC D48C8688
Copy CRC D48C8688
Track not present in AccurateRip database
Copy OK

Track 13

Filename D:\EACrips\Meditation- Classical Relaxation, Volume 5 - 1991 [FLAC]\13 - Edvard Grieg - Ase's Death, from 'Peer Gynt'.wav

Pre-gap length 0:00:04.26

Peak level 51.6 %
Track quality 99.9 %
Test CRC 4845D05C
Copy CRC 4845D05C
Track not present in AccurateRip database
Copy OK

Track 14

Filename D:\EACrips\Meditation- Classical Relaxation, Volume 5 - 1991 [FLAC]\14 - Georg Friedrich Händel - Largo, from 'Xerxes'.wav

Pre-gap length 0:00:04.33

Peak level 32.4 %
Track quality 100.0 %
Test CRC 8D14C66D
Copy CRC 8D14C66D
Track not present in AccurateRip database
Copy OK

Track 15

Filename D:\EACrips\Meditation- Classical Relaxation, Volume 5 - 1991 [FLAC]\15 - Antonín Dvořák - Symphony No. 9, 'From the New World', 2nd movement.wav

Pre-gap length 0:00:04.49

Peak level 85.1 %
Track quality 100.0 %
Test CRC D469964C
Copy CRC D469964C
Track not present in AccurateRip database
Copy OK


None of the tracks are present in the AccurateRip database

No errors occurred

End of status report

Exact Audio Copy V0.99 prebeta 5 from 4. May 2009

EAC extraction logfile from 13. October 2009, 14:35

Various / Meditation- Classical Relaxation, Volume 6

Used drive : _NEC DVD_RW ND-3500AG Adapter: 1 ID: 0

Read mode : Secure
Utilize accurate stream : Yes
Defeat audio cache : Yes
Make use of C2 pointers : No

Read offset correction : 48
Overread into Lead-In and Lead-Out : No
Fill up missing offset samples with silence : Yes
Delete leading and trailing silent blocks : No
Null samples used in CRC calculations : Yes
Used interface : Native Win32 interface for Win NT & 2000
Gap handling : Appended to previous track

Used output format : User Defined Encoder
Selected bitrate : 192 kBit/s
Quality : High
Add ID3 tag : No
Command line compressor : C:\Program Files\Exact Audio Copy\Flac\flac.exe
Additional command line options : -V -8 -T "artist=%a" -T "title=%t" -T "album=%g" -T "date=%y" -T "tracknumber=%n" -T "genre=%m" %s


TOC of the extracted CD

Track | Start | Length | Start sector | End sector
––––––––––––––––––––––––––––-
1 | 0:00.37 | 2:49.25 | 37 | 12736
2 | 2:49.62 | 5:43.50 | 12737 | 38511
3 | 8:33.37 | 6:20.25 | 38512 | 67036
4 | 14:53.62 | 3:09.25 | 67037 | 81236
5 | 18:03.12 | 6:46.13 | 81237 | 111699
6 | 24:49.25 | 6:35.12 | 111700 | 141336
7 | 31:24.37 | 2:42.25 | 141337 | 153511
8 | 34:06.62 | 9:51.50 | 153512 | 197886
9 | 43:58.37 | 10:43.13 | 197887 | 246124
10 | 54:41.50 | 8:24.10 | 246125 | 283934


Track 1

Filename D:\EACrips\Meditation- Classical Relaxation, Volume 6 - 1991 [FLAC]\01 - Tchaikovsky - Swan Lake - Scene.wav

Pre-gap length 0:00:02.49

Peak level 80.5 %
Track quality 99.9 %
Test CRC 1EFE93BA
Copy CRC 1EFE93BA
Cannot be verified as accurate (confidence 1) [997E61ED], AccurateRip returned [E96BE1E5]
Copy OK

Track 2

Filename D:\EACrips\Meditation- Classical Relaxation, Volume 6 - 1991 [FLAC]\02 - Mozart - Eine kleine Nachtmusik - Romance.wav

Pre-gap length 0:00:03.41

Peak level 31.1 %
Track quality 99.9 %
Test CRC 69C0CA9A
Copy CRC 69C0CA9A
Cannot be verified as accurate (confidence 1) [EA565071], AccurateRip returned [EBDE2561]
Copy OK

Track 3

Filename D:\EACrips\Meditation- Classical Relaxation, Volume 6 - 1991 [FLAC]\03 - Chopin - Nocturne in B major, op. 9 No. 3.wav

Pre-gap length 0:00:03.02

Peak level 33.4 %
Track quality 100.0 %
Test CRC 38CD946D
Copy CRC 38CD946D
Cannot be verified as accurate (confidence 1) [91560899], AccurateRip returned [9247EF69]
Copy OK

Track 4

Filename D:\EACrips\Meditation- Classical Relaxation, Volume 6 - 1991 [FLAC]\04 - Puccini - Humming Chorus (from 'Madame Butterfly').wav

Pre-gap length 0:00:03.69

Peak level 17.5 %
Track quality 100.0 %
Test CRC 79DFFD31
Copy CRC 79DFFD31
Cannot be verified as accurate (confidence 1) [C387BB23], AccurateRip returned [EA84AE43]
Copy OK

Track 5

Filename D:\EACrips\Meditation- Classical Relaxation, Volume 6 - 1991 [FLAC]\05 - Mendelssohn - Notturno (from 'A Midsummer Night's Dream').wav

Pre-gap length 0:00:03.62

Peak level 29.0 %
Track quality 100.0 %
Test CRC 02AED95D
Copy CRC 02AED95D
Cannot be verified as accurate (confidence 1) [FF65D2C5], AccurateRip returned [FD36C64D]
Copy OK

Track 6

Filename D:\EACrips\Meditation- Classical Relaxation, Volume 6 - 1991 [FLAC]\06 - Mozart - Symphony No. 35 'Haffner' - Andante.wav

Pre-gap length 0:00:03.82

Peak level 50.3 %
Track quality 99.9 %
Test CRC B2B66A75
Copy CRC B2B66A75
Cannot be verified as accurate (confidence 1) [8CE664C2], AccurateRip returned [4D393C52]
Copy OK

Track 7

Filename D:\EACrips\Meditation- Classical Relaxation, Volume 6 - 1991 [FLAC]\07 - Bizet - Carmen Suite No. 1 - Intermezzo.wav

Pre-gap length 0:00:03.20

Peak level 44.6 %
Track quality 100.0 %
Test CRC C7796FAB
Copy CRC C7796FAB
Cannot be verified as accurate (confidence 1) [8D287610], AccurateRip returned [F3B7EA28]
Copy OK

Track 8

Filename D:\EACrips\Meditation- Classical Relaxation, Volume 6 - 1991 [FLAC]\08 - Schubert - Piano Sonata in B flat major, D960 - Andante sostenuto.wav

Pre-gap length 0:00:03.29

Peak level 42.9 %
Track quality 100.0 %
Test CRC 433574FA
Copy CRC 433574FA
Cannot be verified as accurate (confidence 1) [6040D46D], AccurateRip returned [A280FDCD]
Copy OK

Track 9

Filename D:\EACrips\Meditation- Classical Relaxation, Volume 6 - 1991 [FLAC]\09 - Mozart - Sinfonia Concertante in E flat major - Andante.wav

Pre-gap length 0:00:04.62

Peak level 42.5 %
Track quality 99.9 %
Test CRC 4A695F13
Copy CRC 4A695F13
Cannot be verified as accurate (confidence 1) [99F19FA3], AccurateRip returned [5C50D033]
Copy OK

Track 10

Filename D:\EACrips\Meditation- Classical Relaxation, Volume 6 - 1991 [FLAC]\10 - Chopin - Piano Concerto No. 2 - Larghetto.wav

Pre-gap length 0:00:04.49

Peak level 46.4 %
Track quality 100.0 %
Test CRC C845F1E9
Copy CRC C845F1E9
Cannot be verified as accurate (confidence 1) [1F983C26], AccurateRip returned [1F450028]
Copy OK


No tracks could be verified as accurate
You may have a different pressing from the one(s) in the database

No errors occurred

End of status report

Exact Audio Copy V0.99 prebeta 5 from 4. May 2009

EAC extraction logfile from 14. October 2009, 20:15

Various / Meditation- Classical Relaxation, Volume 7

Used drive : _NEC DVD_RW ND-3500AG Adapter: 1 ID: 0

Read mode : Secure
Utilize accurate stream : Yes
Defeat audio cache : Yes
Make use of C2 pointers : No

Read offset correction : 48
Overread into Lead-In and Lead-Out : No
Fill up missing offset samples with silence : Yes
Delete leading and trailing silent blocks : No
Null samples used in CRC calculations : Yes
Used interface : Native Win32 interface for Win NT & 2000
Gap handling : Appended to previous track

Used output format : User Defined Encoder
Selected bitrate : 192 kBit/s
Quality : High
Add ID3 tag : No
Command line compressor : C:\Program Files\Exact Audio Copy\Flac\flac.exe
Additional command line options : -V -8 -T "artist=%a" -T "title=%t" -T "album=%g" -T "date=%y" -T "tracknumber=%n" -T "genre=%m" %s


TOC of the extracted CD

Track | Start | Length | Start sector | End sector
––––––––––––––––––––––––––––-
1 | 0:00.37 | 5:27.00 | 37 | 24561
2 | 5:27.37 | 4:03.25 | 24562 | 42811
3 | 9:30.62 | 12:27.50 | 42812 | 98886
4 | 21:58.37 | 0:53.25 | 98887 | 102886
5 | 22:51.62 | 8:19.50 | 102887 | 140361
6 | 31:11.37 | 9:27.00 | 140362 | 182886
7 | 40:38.37 | 1:49.25 | 182887 | 191086
8 | 42:27.62 | 4:39.00 | 191087 | 212011
9 | 47:06.62 | 5:13.00 | 212012 | 235486
10 | 52:19.62 | 9:34.15 | 235487 | 278551


Track 1

Filename D:\EACrips\Meditation- Classical Relaxation, Volume 7 - 1991 [FLAC]\01 - Franz Schubert - Impromptu in G flat major.wav

Pre-gap length 0:00:02.49

Peak level 41.7 %
Track quality 100.0 %
Test CRC 7BEB91BB
Copy CRC 7BEB91BB
Cannot be verified as accurate (confidence 1) [55CBCC6D], AccurateRip returned [CEBC9CCB]
Copy OK

Track 2

Filename D:\EACrips\Meditation- Classical Relaxation, Volume 7 - 1991 [FLAC]\02 - Joseph Gabriel Rheinberger - Evening Song.wav

Pre-gap length 0:00:03.53

Peak level 30.6 %
Track quality 100.0 %
Test CRC BFDBA6CF
Copy CRC BFDBA6CF
Cannot be verified as accurate (confidence 1) [CDABB56B], AccurateRip returned [56283694]
Copy OK

Track 3

Filename D:\EACrips\Meditation- Classical Relaxation, Volume 7 - 1991 [FLAC]\03 - Johannes Brahms - Serenade No. 1 - Adagio non troppo.wav

Pre-gap length 0:00:04.26

Peak level 44.9 %
Track quality 100.0 %
Test CRC CD031935
Copy CRC CD031935
Cannot be verified as accurate (confidence 1) [BB9D38F5], AccurateRip returned [E8611819]
Copy OK

Track 4

Filename D:\EACrips\Meditation- Classical Relaxation, Volume 7 - 1991 [FLAC]\04 - Robert Schumann - The Merry Peasant.wav

Pre-gap length 0:00:04.80

Peak level 21.7 %
Track quality 100.0 %
Test CRC 0D8DF7E9
Copy CRC 0D8DF7E9
Cannot be verified as accurate (confidence 1) [34159340], AccurateRip returned [62BCC827]
Copy OK

Track 5

Filename D:\EACrips\Meditation- Classical Relaxation, Volume 7 - 1991 [FLAC]\05 - Wolfgang Amadeus Mozart - Flute Quartet in G major.wav

Pre-gap length 0:00:03.69

Peak level 36.2 %
Track quality 100.0 %
Test CRC E4B92DAA
Copy CRC E4B92DAA
Cannot be verified as accurate (confidence 1) [66AF3933], AccurateRip returned [5483A95C]
Copy OK

Track 6

Filename D:\EACrips\Meditation- Classical Relaxation, Volume 7 - 1991 [FLAC]\06 - Ludwig van Beethoven - Symphony No. 7 - Allegretto.wav

Pre-gap length 0:00:03.93

Peak level 95.2 %
Track quality 100.0 %
Test CRC 69DA5538
Copy CRC 69DA5538
Cannot be verified as accurate (confidence 1) [7F2625CF], AccurateRip returned [FF3E3A23]
Copy OK

Track 7

Filename D:\EACrips\Meditation- Classical Relaxation, Volume 7 - 1991 [FLAC]\07 - Johannes Brahms - Cradle Song.wav

Pre-gap length 0:00:04.29

Peak level 25.0 %
Track quality 100.0 %
Test CRC AF7EBFCC
Copy CRC AF7EBFCC
Cannot be verified as accurate (confidence 1) [4FF8E8FE], AccurateRip returned [D0F6C31D]
Copy OK

Track 8

Filename D:\EACrips\Meditation- Classical Relaxation, Volume 7 - 1991 [FLAC]\08 - Franz Schubert - Theme and Variations (from Quartet in G major).wav

Pre-gap length 0:00:04.16

Peak level 24.2 %
Track quality 100.0 %
Test CRC AEADD9DD
Copy CRC AEADD9DD
Cannot be verified as accurate (confidence 1) [C9FA6F46], AccurateRip returned [ED1BFC47]
Copy OK

Track 9

Filename D:\EACrips\Meditation- Classical Relaxation, Volume 7 - 1991 [FLAC]\09 - Pyotr Tchaikovsky - The Seasons - 'June' (Barcarolle).wav

Pre-gap length 0:00:03.80

Peak level 72.5 %
Track quality 100.0 %
Test CRC 4238F877
Copy CRC 4238F877
Cannot be verified as accurate (confidence 1) [3F1BE5EF], AccurateRip returned [AEA0AC42]
Copy OK

Track 10

Filename D:\EACrips\Meditation- Classical Relaxation, Volume 7 - 1991 [FLAC]\10 - Wolfgang Mozart - Symphony No. 36 'Linz' - Poco adagio.wav

Pre-gap length 0:00:04.20

Peak level 66.5 %
Track quality 100.0 %
Test CRC 4CBE8A4F
Copy CRC 4CBE8A4F
Cannot be verified as accurate (confidence 1) [1561B58D], AccurateRip returned [93603EFC]
Copy OK


No tracks could be verified as accurate
You may have a different pressing from the one(s) in the database

No errors occurred

End of status report

Exact Audio Copy V0.99 prebeta 5 from 4. May 2009

EAC extraction logfile from 14. October 2009, 13:31

Various / Meditation- Classical Relaxation, Volume 8

Used drive : _NEC DVD_RW ND-3500AG Adapter: 1 ID: 0

Read mode : Secure
Utilize accurate stream : Yes
Defeat audio cache : Yes
Make use of C2 pointers : No

Read offset correction : 48
Overread into Lead-In and Lead-Out : No
Fill up missing offset samples with silence : Yes
Delete leading and trailing silent blocks : No
Null samples used in CRC calculations : Yes
Used interface : Native Win32 interface for Win NT & 2000
Gap handling : Appended to previous track

Used output format : User Defined Encoder
Selected bitrate : 192 kBit/s
Quality : High
Add ID3 tag : No
Command line compressor : C:\Program Files\Exact Audio Copy\Flac\flac.exe
Additional command line options : -V -8 -T "artist=%a" -T "title=%t" -T "album=%g" -T "date=%y" -T "tracknumber=%n" -T "genre=%m" %s


TOC of the extracted CD

Track | Start | Length | Start sector | End sector
––––––––––––––––––––––––––––-
1 | 0:00.37 | 2:08.50 | 37 | 9686
2 | 2:09.12 | 7:09.25 | 9687 | 41886
3 | 9:18.37 | 5:29.25 | 41887 | 66586
4 | 14:47.62 | 4:56.50 | 66587 | 88836
5 | 19:44.37 | 10:50.00 | 88837 | 137586
6 | 30:34.37 | 4:19.00 | 137587 | 157011
7 | 34:53.37 | 4:01.50 | 157012 | 175136
8 | 38:55.12 | 3:11.63 | 175137 | 189524
9 | 42:07.00 | 10:48.37 | 189525 | 238161
10 | 52:55.37 | 8:12.08 | 238162 | 275069


Track 1

Filename D:\EACrips\Meditation- Classical Relaxation, Volume 8 - 1991 [FLAC]\01 - Bach - Prelude In C Minor.wav

Pre-gap length 0:00:02.49

Peak level 15.3 %
Track quality 100.0 %
Test CRC 1C4B8175
Copy CRC 1C4B8175
Cannot be verified as accurate (confidence 3) [FED8DAAD], AccurateRip returned [F4B5D6FB]
Copy OK

Track 2

Filename D:\EACrips\Meditation- Classical Relaxation, Volume 8 - 1991 [FLAC]\02 - Grieg - Piano Concerto In A Minor, Op. 16 - 2. Adagio.wav

Pre-gap length 0:00:03.93

Peak level 57.9 %
Track quality 99.9 %
Test CRC CE41935D
Copy CRC CE41935D
Cannot be verified as accurate (confidence 3) [75665BA9], AccurateRip returned [86E28A87]
Copy OK

Track 3

Filename D:\EACrips\Meditation- Classical Relaxation, Volume 8 - 1991 [FLAC]\03 - Mozart - Flute Concerto No. 2 In D, K 314 - Adagio non troppo.wav

Pre-gap length 0:00:03.96

Peak level 43.1 %
Track quality 100.0 %
Test CRC ABA1A21A
Copy CRC ABA1A21A
Cannot be verified as accurate (confidence 3) [8124156D], AccurateRip returned [AA25E457]
Copy OK

Track 4

Filename D:\EACrips\Meditation- Classical Relaxation, Volume 8 - 1991 [FLAC]\04 - Donizetti - Andante.wav

Pre-gap length 0:00:04.96

Peak level 35.6 %
Track quality 100.0 %
Test CRC 6203BDF3
Copy CRC 6203BDF3
Cannot be verified as accurate (confidence 4) [258CB7F9], AccurateRip returned [902190DE]
Copy OK

Track 5

Filename D:\EACrips\Meditation- Classical Relaxation, Volume 8 - 1991 [FLAC]\05 - Schubert - Impromptu In B Flat.wav

Pre-gap length 0:00:03.53

Peak level 65.0 %
Track quality 100.0 %
Test CRC A3985FF5
Copy CRC A3985FF5
Cannot be verified as accurate (confidence 3) [01A0CD9E], AccurateRip returned [4E144925]
Copy OK

Track 6

Filename D:\EACrips\Meditation- Classical Relaxation, Volume 8 - 1991 [FLAC]\06 - Debussy - Clair de lune.wav

Pre-gap length 0:00:05.46

Peak level 43.2 %
Track quality 99.9 %
Test CRC 117D2EE2
Copy CRC 117D2EE2
Cannot be verified as accurate (confidence 3) [ADC23D9B], AccurateRip returned [210E7593]
Copy OK

Track 7

Filename D:\EACrips\Meditation- Classical Relaxation, Volume 8 - 1991 [FLAC]\07 - Mozart - Divertimento in D, K 251 - Andantino.wav

Pre-gap length 0:00:02.89

Peak level 43.1 %
Track quality 100.0 %
Test CRC 17F69AB3
Copy CRC 17F69AB3
Cannot be verified as accurate (confidence 3) [58D6D805], AccurateRip returned [F4E26E66]
Copy OK

Track 8

Filename D:\EACrips\Meditation- Classical Relaxation, Volume 8 - 1991 [FLAC]\08 - Giordani - Caro mio ben.wav

Pre-gap length 0:00:03.93

Peak level 35.9 %
Track quality 100.0 %
Test CRC A785B068
Copy CRC A785B068
Cannot be verified as accurate (confidence 4) [872D447D], AccurateRip returned [AB4FD2BF]
Copy OK

Track 9

Filename D:\EACrips\Meditation- Classical Relaxation, Volume 8 - 1991 [FLAC]\09 - Mozart - Piano Concerto No. 9 In E Flat, K 271, 'Jeunehomme' - Andante.wav

Pre-gap length 0:00:04.76

Peak level 68.7 %
Track quality 100.0 %
Test CRC EE59D461
Copy CRC EE59D461
Cannot be verified as accurate (confidence 3) [CB81E8A6], AccurateRip returned [CCD15A99]
Copy OK

Track 10

Filename D:\EACrips\Meditation- Classical Relaxation, Volume 8 - 1991 [FLAC]\10 - Rheinberger - Theme & Variations, Op. 93.wav

Pre-gap length 0:00:05.53

Peak level 37.5 %
Track quality 99.9 %
Test CRC AB9D33FA
Copy CRC AB9D33FA
Cannot be verified as accurate (confidence 3) [468D11FF], AccurateRip returned [A80CEA92]
Copy OK


No tracks could be verified as accurate
You may have a different pressing from the one(s) in the database

No errors occurred

End of status report

Exact Audio Copy V0.99 prebeta 5 from 4. May 2009

EAC extraction logfile from 14. October 2009, 23:12

Various / Meditation- Classical Relaxation, Volume 9

Used drive : _NEC DVD_RW ND-3500AG Adapter: 1 ID: 0

Read mode : Secure
Utilize accurate stream : Yes
Defeat audio cache : Yes
Make use of C2 pointers : No

Read offset correction : 48
Overread into Lead-In and Lead-Out : No
Fill up missing offset samples with silence : Yes
Delete leading and trailing silent blocks : No
Null samples used in CRC calculations : Yes
Used interface : Native Win32 interface for Win NT & 2000
Gap handling : Appended to previous track

Used output format : User Defined Encoder
Selected bitrate : 192 kBit/s
Quality : High
Add ID3 tag : No
Command line compressor : C:\Program Files\Exact Audio Copy\Flac\flac.exe
Additional command line options : -V -8 -T "artist=%a" -T "title=%t" -T "album=%g" -T "date=%y" -T "tracknumber=%n" -T "genre=%m" %s


TOC of the extracted CD

Track | Start | Length | Start sector | End sector
––––––––––––––––––––––––––––-
1 | 0:00.37 | 3:01.38 | 37 | 13649
2 | 3:02.00 | 2:25.00 | 13650 | 24524
3 | 5:27.00 | 3:34.37 | 24525 | 40611
4 | 9:01.37 | 7:22.50 | 40612 | 73811
5 | 16:24.12 | 10:03.25 | 73812 | 119061
6 | 26:27.37 | 4:34.00 | 119062 | 139611
7 | 31:01.37 | 3:35.25 | 139612 | 155761
8 | 34:36.62 | 8:44.50 | 155762 | 195111
9 | 43:21.37 | 7:49.25 | 195112 | 230311
10 | 51:10.62 | 10:00.65 | 230312 | 275376


Track 1

Filename D:\EACrips\Meditation- Classical Relaxation, Volume 9 - 1991 [FLAC]\01 - Tchaikovsky - The Sleeping Beauty, Op. 66 - Panorama.wav

Pre-gap length 0:00:02.49

Peak level 15.6 %
Track quality 100.0 %
Test CRC 81EC0337
Copy CRC 81EC0337
Accurately ripped (confidence 1) [FA4A204A]
Copy OK

Track 2

Filename D:\EACrips\Meditation- Classical Relaxation, Volume 9 - 1991 [FLAC]\02 - Brahms - Waltz, Op. 39 No. 15.wav

Pre-gap length 0:00:03.22

Peak level 38.3 %
Track quality 100.0 %
Test CRC F68F5493
Copy CRC F68F5493
Accurately ripped (confidence 1) [C1E6EC11]
Copy OK

Track 3

Filename D:\EACrips\Meditation- Classical Relaxation, Volume 9 - 1991 [FLAC]\03 - Buffardin - Flute Concerto In G Minor - Andante.wav

Pre-gap length 0:00:03.46

Peak level 17.4 %
Track quality 99.9 %
Test CRC DDD6C97D
Copy CRC DDD6C97D
Accurately ripped (confidence 1) [A6D9AAEB]
Copy OK

Track 4

Filename D:\EACrips\Meditation- Classical Relaxation, Volume 9 - 1991 [FLAC]\04 - Schubert - Impromptu In A Flat.wav

Pre-gap length 0:00:02.86

Peak level 64.1 %
Track quality 100.0 %
Test CRC 23877F08
Copy CRC 23877F08
Accurately ripped (confidence 1) [8AAB8B71]
Copy OK

Track 5

Filename D:\EACrips\Meditation- Classical Relaxation, Volume 9 - 1991 [FLAC]\05 - Mozart - Violin Concerto No. 5 - Adagio.wav

Pre-gap length 0:00:03.60

Peak level 53.4 %
Track quality 99.9 %
Test CRC 6BA755FA
Copy CRC 6BA755FA
Accurately ripped (confidence 1) [53605B4D]
Copy OK

Track 6

Filename D:\EACrips\Meditation- Classical Relaxation, Volume 9 - 1991 [FLAC]\06 - Schubert - Symphony No. 3 - Allegretto.wav

Pre-gap length 0:00:04.20

Peak level 20.1 %
Track quality 100.0 %
Test CRC 2A66B7BC
Copy CRC 2A66B7BC
Accurately ripped (confidence 1) [59C361A1]
Copy OK

Track 7

Filename D:\EACrips\Meditation- Classical Relaxation, Volume 9 - 1991 [FLAC]\07 - Bach - Brandenburg Concerto No. 2 - Andante.wav

Pre-gap length 0:00:03.86

Peak level 28.4 %
Track quality 100.0 %
Test CRC F2651CA3
Copy CRC F2651CA3
Accurately ripped (confidence 1) [E5541BFD]
Copy OK

Track 8

Filename D:\EACrips\Meditation- Classical Relaxation, Volume 9 - 1991 [FLAC]\08 - Chopin - Piano Sonata No. 3 - Largo.wav

Pre-gap length 0:00:03.49

Peak level 40.8 %
Track quality 99.9 %
Test CRC BEDB48AA
Copy CRC BEDB48AA
Accurately ripped (confidence 1) [C3354C16]
Copy OK

Track 9

Filename D:\EACrips\Meditation- Classical Relaxation, Volume 9 - 1991 [FLAC]\09 - Tchaikovsky - Suite No. 1 - Intermezzo.wav

Pre-gap length 0:00:04.56

Peak level 78.1 %
Track quality 100.0 %
Test CRC DC82DB9D
Copy CRC DC82DB9D
Accurately ripped (confidence 1) [F200BECA]
Copy OK

Track 10

Filename D:\EACrips\Meditation- Classical Relaxation, Volume 9 - 1991 [FLAC]\10 - Beethoven - Piano Concerto No. 3 - Largo.wav

Pre-gap length 0:00:05.00

Peak level 37.0 %
Track quality 100.0 %
Test CRC BC2AAC82
Copy CRC BC2AAC82
Accurately ripped (confidence 1) [F5932CDB]
Copy OK


All tracks accurately ripped

No errors occurred

End of status report

Exact Audio Copy V0.99 prebeta 5 from 4. May 2009

EAC extraction logfile from 15. October 2009, 5:10

Various / Meditation- Classical Relaxation, Volume 10

Used drive : _NEC DVD_RW ND-3500AG Adapter: 1 ID: 0

Read mode : Secure
Utilize accurate stream : Yes
Defeat audio cache : Yes
Make use of C2 pointers : No

Read offset correction : 48
Overread into Lead-In and Lead-Out : No
Fill up missing offset samples with silence : Yes
Delete leading and trailing silent blocks : No
Null samples used in CRC calculations : Yes
Used interface : Native Win32 interface for Win NT & 2000
Gap handling : Appended to previous track

Used output format : User Defined Encoder
Selected bitrate : 192 kBit/s
Quality : High
Add ID3 tag : No
Command line compressor : C:\Program Files\Exact Audio Copy\Flac\flac.exe
Additional command line options : -V -8 -T "artist=%a" -T "title=%t" -T "album=%g" -T "date=%y" -T "tracknumber=%n" -T "genre=%m" %s


TOC of the extracted CD

Track | Start | Length | Start sector | End sector
––––––––––––––––––––––––––––-
1 | 0:00.37 | 3:47.00 | 37 | 17061
2 | 3:47.37 | 1:35.00 | 17062 | 24186
3 | 5:22.37 | 3:15.00 | 24187 | 38811
4 | 8:37.37 | 9:36.25 | 38812 | 82036
5 | 18:13.62 | 5:44.50 | 82037 | 107886
6 | 23:58.37 | 7:25.00 | 107887 | 141261
7 | 31:23.37 | 6:13.50 | 141262 | 169286
8 | 37:37.12 | 6:31.00 | 169287 | 198611
9 | 44:08.12 | 8:38.25 | 198612 | 237486
10 | 52:46.37 | 9:59.03 | 237487 | 282414


Track 1

Filename D:\EACrips\Meditation- Classical Relaxation, Volume 10 - 1991 [FLAC]\01 - Verdi - La Traviata - Prelude Act 1.wav

Pre-gap length 0:00:02.49

Peak level 19.7 %
Track quality 100.0 %
Test CRC D901A7B4
Copy CRC D901A7B4
Track not present in AccurateRip database
Copy OK

Track 2

Filename D:\EACrips\Meditation- Classical Relaxation, Volume 10 - 1991 [FLAC]\02 - Schumann - Foreign Countries & People (from Kinderscenen).wav

Pre-gap length 0:00:04.73

Peak level 11.5 %
Track quality 100.0 %
Test CRC FA0CB9B3
Copy CRC FA0CB9B3
Track not present in AccurateRip database
Copy OK

Track 3

Filename D:\EACrips\Meditation- Classical Relaxation, Volume 10 - 1991 [FLAC]\03 - Tchaikovsky - Chanson Triste.wav

Pre-gap length 0:00:03.42

Peak level 44.9 %
Track quality 100.0 %
Test CRC F88BE9BA
Copy CRC F88BE9BA
Track not present in AccurateRip database
Copy OK

Track 4

Filename D:\EACrips\Meditation- Classical Relaxation, Volume 10 - 1991 [FLAC]\04 - Schubert - Symphony No. 5 In D Flat - Andante.wav

Pre-gap length 0:00:03.20

Peak level 35.9 %
Track quality 100.0 %
Test CRC 425F8179
Copy CRC 425F8179
Track not present in AccurateRip database
Copy OK

Track 5

Filename D:\EACrips\Meditation- Classical Relaxation, Volume 10 - 1991 [FLAC]\05 - Liszt - La Campanella.wav

Pre-gap length 0:00:04.66

Peak level 75.8 %
Track quality 99.9 %
Test CRC 7E29C7C2
Copy CRC 7E29C7C2
Track not present in AccurateRip database
Copy OK

Track 6

Filename D:\EACrips\Meditation- Classical Relaxation, Volume 10 - 1991 [FLAC]\06 - Bach (CPE) - Flute Concerto In B Flat - Adagio.wav

Pre-gap length 0:00:03.00

Peak level 54.6 %
Track quality 100.0 %
Test CRC F4AE4BB2
Copy CRC F4AE4BB2
Track not present in AccurateRip database
Copy OK

Track 7

Filename D:\EACrips\Meditation- Classical Relaxation, Volume 10 - 1991 [FLAC]\07 - Chopin - Funeral March (from Piano Sonata No. 2 In B Flat Minor).wav

Pre-gap length 0:00:04.80

Peak level 65.7 %
Track quality 100.0 %
Test CRC 2FAEF225
Copy CRC 2FAEF225
Track not present in AccurateRip database
Copy OK

Track 8

Filename D:\EACrips\Meditation- Classical Relaxation, Volume 10 - 1991 [FLAC]\08 - Haydn - Symphony No. 94 'Surprise' - Andante.wav

Pre-gap length 0:00:04.49

Peak level 76.6 %
Track quality 99.9 %
Test CRC DA8991F1
Copy CRC DA8991F1
Track not present in AccurateRip database
Copy OK

Track 9

Filename D:\EACrips\Meditation- Classical Relaxation, Volume 10 - 1991 [FLAC]\09 - Mozart - Concerto For Flute & Harp - Andantino.wav

Pre-gap length 0:00:03.69

Peak level 41.4 %
Track quality 99.9 %
Test CRC 1AB43AA8
Copy CRC 1AB43AA8
Track not present in AccurateRip database
Copy OK

Track 10

Filename D:\EACrips\Meditation- Classical Relaxation, Volume 10 - 1991 [FLAC]\10 - Tchaikovsky - Symphony No. 6 In B Minor, Op.74, 'Pathйtique' - Adagio Lamentoso.wav

Pre-gap length 0:00:04.62

Peak level 76.9 %
Track quality 99.9 %
Test CRC 868B3234
Copy CRC 868B3234
Track not present in AccurateRip database
Copy OK


None of the tracks are present in the AccurateRip database

No errors occurred

End of status report

Thanks to the Original rippers Sаgi, emunas1 !