Subcategories

Various Artists - Milk Of The Tree: An Anthology Of Female Vocal Folk & Singer-Songwriters 1966-73 (2017) {3CD Set}

Posted By: ruskaval
Various Artists - Milk Of The Tree: An Anthology Of Female Vocal Folk & Singer-Songwriters 1966-73 (2017) {3CD Set}

Various Artists - Milk Of The Tree: An Anthology Of Female Vocal Folk & Singer-Songwriters 1966-73 (2017) {3CD Set}
EAC rip (secure mode) | FLAC (tracks)+CUE+LOG -> 1.21 Gb | MP3 @320 -> 523 Mb
Artwork @ 300 dpi (jpg) -> 24 Mb | 5% repair rar
© 1966-73, 2017 Grapefruit Records / Cherry Red Record | CRSEGBOX039
Folk Rock / Pregressive Folk / Psychedelia / Pop Fok / Electric Folk / Singer- Songwriters

Notwithstanding one or two isolated exceptions, it wasn’t until the mid-Sixties that independent female voices really began to be heard within the music industry. The feminist movement naturally coincided with the first signs of genuine musical emancipation. In North America, Joan Baez and Buffy Sainte-Marie emerged through the folk clubs, coffee-houses and college campuses to inspire a generation of wannabe female singers and musicians with their strong, independent mentality and social compassion, while the British scene’s combination of folk song revival and the Beatles-led pop explosion saw record company deals for a new generation of pop-folkies including Marianne Faithfull, Dana Gillespie and Vashti Bunyan.

Within a year or two, the burgeoning counter-culture saw the arrival of psychedelia and folk-rock as the likes of Pentangle and (in the US) the Linda Ronstadt-fronted Stone Poneys emerged from the clubs and into the charts. But in America at least, burnout soon set in, and the era’s excesses duly gave way to a quieter, more reflective musical and lyrical style. The LA rock and folk communities decamped to Laurel Canyon, in the Hollywood Hills region of the Santa Monica Mountains, to chill out in bucolic, soul-searching introspection. With Sixties stalwart Jackie DeShannon’s 1968 album Laurel Canyon leading the way, workers from the hit song factories of the publishing companies joined the dyed-in-the-wool folkies in a new movement of singer/songwriters that reached its zenith in 1971 with the release of seminal albums like Joni Mitchell’s Blue and Brill Building refugee Carole King’s multimillion-selling Tapestry.

Various Artists - Milk Of The Tree: An Anthology Of Female Vocal Folk & Singer-Songwriters 1966-73 (2017) {3CD Set}


In the last two or three years of the decade, the demarcation lines in British music had become similarly blurred, with amplified rock bands becoming attracted to the more pastoral strains of the folk idiom, and traditional folk club performers developing an affinity with the underground. Folk clubs evolved into Arts Labs, and the burgeoning college/university circuit provided equal opportunity for heavy rock bands, electric folk-rock acts and the introspective acoustic singer/songwriter. Suddenly, the scene was awash with female performers looking to become the British answer to Joni Mitchell, a huge influence on the scene ever since exiled American record producer Joe Boyd had circulated Joni’s songs amongst British musicians in late 1967. Mitchell quickly became established amongst aspirant performers as the singer/songwriter template.

Over the course of four hours and sixty tracks, Milk Of The Tree focuses on the music made in the late Sixties and early Seventies in both Britain and North America by either female solo artists or acts with featured female vocalists. Along the way, we encounter San Franciscan psychedelia, LA folk rock, Swinging London pop-folk, electric folk, progressive folk and even folk club folk as well as (of course) a plethora of singer- songwriters (including various ladies of the Canyon) from the movement’s golden age.

As well as featuring most of the leading figures from both sides of the Atlantic, Milk Of The Tree includes many performers who received little attention at the time but who now have a cult reputation amongst collectors. A significant number of tracks were unreleased at the time, while the set also includes the first-ever appearance by pioneering female rock duo Emily Muff, two American girls who were based in England during the period in question but failed to land a recording contract.

With a 44-page booklet crammed with rare photos and details of the various acts featured, the clambox-housed Milk Of The Tree is not only a fascinating social document but, we hope, a hugely entertaining snapshot of a particular time, place and frame of mind that produced some enduring, spellbinding music.
Various Artists - Milk Of The Tree: An Anthology Of Female Vocal Folk & Singer-Songwriters 1966-73 (2017) {3CD Set}

Like many collectors and fans of the late 60ts and early 70ts - I've been singing the praises of Cherry Red's 'Grapefruit' label for some time now. I acquired and reviewed two three-CD sets they did in late 2016 called "I'm A Freak, Baby" and "Let's All Go Down And Blow Our Minds" - wads of Heavy Psych, Hard Rock and 1967 Trippy Vibes.

Well here comes another threesome but this time with a more gentile theme and a far wider range. "Milk Of The Tree…" offers up 60 songs from female trailblazers primarily in the Folk and Folk-Rock fields between 1966 and 1973 – some well known names and many that shouldn't be forgotten. I've been looking forward to this Mini Box Set for some months now and in the main it hasn't disappointed. Here are the Ladies Of The Canyon…

UK released Friday, 30 June 2017 (7 July 2017 in the USA) - "Milk Of The Tree: An Anthology Of Female Vocal Folk and Singer-Songwriters 1966-73" by VARIOUS ARTISTS on Cherry Red/Grapefruit CRSEGBOX039 (Barcode 5013929183902) is a 60-Track 3CD Mini Box Set compilation of Remasters that plays out as follows:
Various Artists - Milk Of The Tree: An Anthology Of Female Vocal Folk & Singer-Songwriters 1966-73 (2017) {3CD Set}


Disc 1 (74:45 minutes):
1. Do You Believe - MELANIE (from the November 1972 US LP "Stoneground Words" on Neighborhood NRS 47005)
2. Blessed Are… - JOAN BAEZ (from the July 1971 US 2LP set "Blessed Are…" on Vanguard VSD 6570/1)
3. Light Flight - THE PENTANGLE (from the October 1969 UK 7" single on Transatlantic/Big T Records BIG 128, A-side)
4. Foolish Seasons - DANA GILLESPIE (from the October 1968 US Stereo LP "Foolish Seasons" on London PS 540)
5. Someone To Talk My Troubles To - JUDY RODERICK (from the December 1965 US LP "Woman Blue" on Vanguard VSD 79197)
6. Auntie Aviator - JOHN and BEVERLEY MARTYN (from the December 1970 UK LP "The Road To Ruin" on Island ILPS 9133)
7. Flying Away - THE SERPENT POWER (from the December 1967 US Stereo LP "The Serpent Power" on Vanguard VSD 79252)
8. It Could Have Been Better - JOAN ARMATRADING (from her debut November 1972 UK LP "Whatever's For Us" on Cube Records HIFLY 12)
9. Morning Morgantown - JUDE [featuring the Fickle Pickle] (Not originally issued, recorded mid 1970)
10. If Not By Fire - MANDY MORE (from the June 1972 UK LP "But That Is Me" on Phillips 6308 109)
11. Upstairs By A Chinese Lamp - LAURA NYRO (from the November 1970 US LP "Christmas And The Beads Of Sweat" on Columbia KC 30259)
12. I Thought I Knew The Answers - SUSAN PILLSBURY (from the November 1973 US LP "Susan Pillsbury" on Sweet Fortune SFS 804)
13. Give Her The Day - JAKI WHITREN (March 1973 UK 7" single on Epic S EPC 1338, A-side)
14. By The Sea - WENDY & BONNIE [Wendy & Bonnie Flowers] (from the June 1969 US LP "Genesis" on Skye Records SK 10060)
15. Come And Stay With Me - JACKIE DeSHANNON (from the November 1968 US Stereo LP "Laurel Canyon" on Imperial LP 12415)
16. Something Better - MARIANNE FAITHFULL (February 1969 UK withdrawn 7" single on Decca F 12889, B-side of "Sister Morphine")
17. An Everyday Consumption Song - SPIROGYRA [feat Barbara Gaskin on Lead Vocals] (from the April 1973 UK LP "Bells, Boots And Shambles" on Polydor 2310 246)
18. The Milk Of The Tree - POLLY NILES (not originally issued, recorded circa August 1969)
19. Chelsea Girls - NICO (from the October 1967 US LP "Chelsea Girl" on Verve V 5032)
20. Reverie For Roslyn - MARY-ANNE [Mary-Anne Paterson] (from the April 1970 UK LP "Me" on Joy Records JOYS 162)

Various Artists - Milk Of The Tree: An Anthology Of Female Vocal Folk & Singer-Songwriters 1966-73 (2017) {3CD Set}


Disc 2 (72:34 minutes):
1. Different Drum - THE STONE PONEYS [featuring Linda Ronstadt on Lead Vocals] (September 1967 USA 7" single on capitol 2004, A-side)
2. Please (MK. II) - ECLECTION (November 1968 USA 7" single on Elektra 45046, A-side)
3. Five Of Us - JADE [featuring Marian Segal on Lead Vocals] (from the July 1970 UK LP "Fly On Strangewings" on DJM Records DJLPS 407)
4. Who Has Seen The Wind? - THE SIMON SISTERS [Carly and Lucy Simon] (from the April 1969 US LP "The Simon Sisters Sing The Lobster Quadrille And Other Songs For Children" on Columbia CC 24506)
5. Jesus Was A Crossmaker - JUDEE SILL (October 1971 US 7" single on Asylum AS 11000, A-side)
6. January's Snow - THE WOODS BAND [featuring Gay and Terry Woods] (from the December 1971 UK LP on Greenwich GSLP 1004)
7. In My Loneliness - TRADER HORNE [featuring Judy Dyble on Lead Vocals] (from the March 1970 UK LP "Morning Way" on Dawn DNLS 3004)
8. Society's Child (Baby I've Been Thinking) - JANIS IAN (September 1966 USA 7" single on Verve Folkways KF 5027, A-side)
9. I Was - LILY & MARIA [Lily Fiszman and Maria Neumann] (from the October 1968 US LP "Lily & Maria" on Columbia CS 9707)
10. Feeling High - MELLOW CANDLE (August 1968 UK 7" single on SNB Records 55-3645, A-side)
11. Tomorrow Come Someday - TOMORROW COME SOMEDAY (from the January 1970 UK Privately-Pressed LP "Tomorrow Come Someday" on Sound News Productions SNP 97/98)
12. My Silk And Fine Array - JULIE COVINGTON (from the album "The Beautiful Changes" on Columbia SCX 6466)
13. Red Wine And Promises - NORMA WATERSON (November 1972 UK 7" single on Transatlantic/Big T Records BIG 507, A-side)
14. Mr. Fox - MR. FOX (from the November 1970 UK LP "Mr. Fox" on Transatlantic TRA 226)
15. The Dream Tree - BUFFY SAINTE-MARIE (from the September 1969 US LP "Illuminations" on Vanguard VSD 79300)
16. Munching The Candy - THE ACADEMY featuring POLLY PERKINS (March 1969 UK 7" single on Morgan Blue Town BTS 2, A-side)
17. Late November - SANDY DENNY (from the May 1971 LP "The North Star Grassman And The Ravens" on Island ILPS 9165)
18. Tomorrow Your Sorrow - HENDRICKSON ROAD HOUSE (from the December 1970 US LP "Hendrickson Road House" on Two: Dot Records HRH 81670)
19. Mornings - CHUCK & MARY PERRIN (from the January 1969 US LP "The Chuck and Mary Perrin Album" on Webster's Last Word Records WLW 2010)
20. Mr. Rubin - LESLEY DUNCAN (from the September 1971 UK LKP "Sing Children Sing" on CBS Records S 64202)

Various Artists - Milk Of The Tree: An Anthology Of Female Vocal Folk & Singer-Songwriters 1966-73 (2017) {3CD Set}


Disc 3 (76:44 minutes):
1. Come Into The Garden - CHIMERA (Not originally issued, recorded circa mid-1970)
2. Early Morning Blues And Greens - DIANE HILDERBRAND (from the December 1968 US LP on Elektra EKS 74031)
3. Rainy Day - SUSAN CHRISTIE (Not originally issued, recorded 1969)
4. Autumn Lullaby - BRIDGET St. JOHN (from the August 1969 UK LP "Ask Me No Questions" on Dandelion 63750)
5. Ballad (Of The Big Girl Now And A Mere Boy) - PRINCIPAL EDWARDS MAGIC THEATRE (December 1969 UK 7" single on Dandelion Records 4405, A-side)
6. Windy - RUTHANN FRIEDMAN (Not originally issued, recorded 1968)
7. The Lonely - DESIGN (from the January 1971 USA LP "Design" on Epic Records E 30224)
8. Mirage - SHELAGH McDONALD (from the November 1970 UK LP "The Shelagh McDonald Album" on B&C Records CAS 1010)
9. Aderyn Llwyd (Sparrow) – MARY HOPKIN (June 1969 UK 7" single on Cambrian CSP 703, A-side. A Gallagher & Lyle song)
10. Love Song - VASHTI BUNYAN (May 1966 UK 7" single on Columbia DB 7917, B-side of "Train Song")
11. Sandman's Song - ANNE BRIGGS (from the November 1971 UK LP "The Time Has Come" on CBS Records S 64612)
12. When Will I Be Loved – THE BUNCH [featuring members of Fairport Convention and Fotheringay including Sandy Denny and Linda Peters who duet on vocals here] (April 1972 UK 7" single on island WIP 6130, A-side. An Everly Brothers cover)
13. The Lady And The Well – CAROLANNE PEGG (from the April 1974 UK LP "Carolanne" on Transatlantic TRA 266)
14. Think Of Rain – MARGO GURYAN (from the October 1968 US LP "Take A Picture" on Bell Records 6022)
15. Story Of Our Time/Beneath This Sky – ITHICA [featuring Peter Howell and John Ferninando] (from the 1973 privately-pressed LP “A Game For All We Know” on Merlin Records HF 6)
16. Murdoch – TREES [featuring Celia Humphries (nee Drummond) on Lead Vocals] (from the February 1971 UK LP “On The Shore” on CBS Records 64168)
17. Banquet On The Water – THE SALLYANGIE [featuring Sally & Mike Oldfield] (from the December 1968 UK LP "Children Of The Sun" on Transatlantic TRA 176)
18. Banquet On The Water – THE SALLYANGIE [featuring Sally & Mike Oldfield on Lead Vocals and Guitars] (from the December 1968 UK LP "Children Of The Sun" on Transatlantic TRA 176)
19. Pass The Night – EMILY MUFF [featuring Kathy Bushnell and Janet Dourit] (Previously Unreleased, recorded April 1972)
20. Morgan The Pirate – MIMI FARINA (from the December 1968 US LP "Memories" on Vanguard VSD 79263)

Various Artists - Milk Of The Tree: An Anthology Of Female Vocal Folk & Singer-Songwriters 1966-73 (2017) {3CD Set}


Exact Audio Copy V1.2 from 12. August 2016

EAC extraction logfile from 11. December 2017, 12:48

Various Artists / Milk Of The Tree CD1

Used drive : HL-DT-STDVD+-RW GU90N Adapter: 1 ID: 1

Read mode : Secure
Utilize accurate stream : Yes
Defeat audio cache : Yes
Make use of C2 pointers : No

Read offset correction : 102
Overread into Lead-In and Lead-Out : No
Fill up missing offset samples with silence : Yes
Delete leading and trailing silent blocks : No
Null samples used in CRC calculations : Yes
Used interface : Native Win32 interface for Win NT & 2000
Gap handling : Appended to previous track

Used output format : User Defined Encoder
Selected bitrate : 1024 kBit/s
Quality : High
Add ID3 tag : No
Command line compressor : C:\Program Files (x86)\Exact Audio Copy\Flac\flac.exe
Additional command line options : -8 -V -T "ARTIST=%artist%" -T "TITLE=%title%" -T "ALBUM=%albumtitle%" -T "DATE=%year%" -T "TRACKNUMBER=%tracknr%" -T "GENRE=%genre%" -T "PERFORMER=%albuminterpret%" -T "COMPOSER=%composer%" %haslyrics%–tag-from-file=LYRICS="%lyricsfile%"%haslyrics% -T "ALBUMARTIST=%albumartist%" -T "DISCNUMBER=%cdnumber%" -T "TOTALDISCS=%totalcds%" -T "TOTALTRACKS=%numtracks%" -T "COMMENT=%comment%" %source% -o %dest%


TOC of the extracted CD

Track | Start | Length | Start sector | End sector
––––––––––––––––––––––––––––-
1 | 0:00.00 | 5:26.57 | 0 | 24506
2 | 5:26.57 | 3:05.28 | 24507 | 38409
3 | 8:32.10 | 3:16.39 | 38410 | 53148
4 | 11:48.49 | 2:13.28 | 53149 | 63151
5 | 14:02.02 | 2:42.56 | 63152 | 75357
6 | 16:44.58 | 6:03.42 | 75358 | 102624
7 | 22:48.25 | 4:29.32 | 102625 | 122831
8 | 27:17.57 | 4:20.18 | 122832 | 142349
9 | 31:38.00 | 2:39.53 | 142350 | 154327
10 | 34:17.53 | 4:26.26 | 154328 | 174303
11 | 38:44.04 | 5:36.32 | 174304 | 199535
12 | 44:20.36 | 2:27.63 | 199536 | 210623
13 | 46:48.24 | 2:47.37 | 210624 | 223185
14 | 49:35.61 | 4:04.09 | 223186 | 241494
15 | 53:39.70 | 3:06.58 | 241495 | 255502
16 | 56:46.53 | 2:53.02 | 255503 | 268479
17 | 59:39.55 | 4:29.51 | 268480 | 288705
18 | 64:09.31 | 1:53.32 | 288706 | 297212
19 | 66:02.63 | 7:26.55 | 297213 | 330717
20 | 73:29.43 | 1:16.12 | 330718 | 336429


Track 1

Filename C:\Users\ian\Desktop\VA - Milk Of The Tree An Anthology Of Female Vocal Folk And Singer Songwriters (1966-73) [FLAC] {3CD}\Milk Of The Tree CD1\01 - Melanie - Do You Believe.wav

Pre-gap length 0:00:02.00

Peak level 96.6 %
Extraction speed 1.3 X
Track quality 100.0 %
Test CRC A80884D8
Copy CRC A80884D8
Copy OK

Track 2

Filename C:\Users\ian\Desktop\VA - Milk Of The Tree An Anthology Of Female Vocal Folk And Singer Songwriters (1966-73) [FLAC] {3CD}\Milk Of The Tree CD1\02 - Joan Baez - Blessed Are.wav

Pre-gap length 0:00:02.00

Peak level 96.6 %
Extraction speed 1.4 X
Track quality 100.0 %
Test CRC E1BDED41
Copy CRC E1BDED41
Copy OK

Track 3

Filename C:\Users\ian\Desktop\VA - Milk Of The Tree An Anthology Of Female Vocal Folk And Singer Songwriters (1966-73) [FLAC] {3CD}\Milk Of The Tree CD1\03 - The Pentangle - Light Flight.wav

Pre-gap length 0:00:02.00

Peak level 96.6 %
Extraction speed 1.3 X
Track quality 99.9 %
Test CRC CC6444FE
Copy CRC CC6444FE
Copy OK

Track 4

Filename C:\Users\ian\Desktop\VA - Milk Of The Tree An Anthology Of Female Vocal Folk And Singer Songwriters (1966-73) [FLAC] {3CD}\Milk Of The Tree CD1\04 - Dana Gillespie - Foolish Seasons.wav

Pre-gap length 0:00:02.00

Peak level 87.0 %
Extraction speed 1.4 X
Track quality 100.0 %
Test CRC A100100E
Copy CRC A100100E
Copy OK

Track 5

Filename C:\Users\ian\Desktop\VA - Milk Of The Tree An Anthology Of Female Vocal Folk And Singer Songwriters (1966-73) [FLAC] {3CD}\Milk Of The Tree CD1\05 - Judy Roderick - Someone To Talk My Troubles To.wav

Pre-gap length 0:00:02.00

Peak level 96.6 %
Extraction speed 1.6 X
Track quality 100.0 %
Test CRC BCEF4A1F
Copy CRC BCEF4A1F
Copy OK

Track 6

Filename C:\Users\ian\Desktop\VA - Milk Of The Tree An Anthology Of Female Vocal Folk And Singer Songwriters (1966-73) [FLAC] {3CD}\Milk Of The Tree CD1\06 - John & Beverley Martyn - Auntie Aviator.wav

Pre-gap length 0:00:02.00

Peak level 96.6 %
Extraction speed 1.7 X
Track quality 99.9 %
Test CRC BEF58E72
Copy CRC BEF58E72
Copy OK

Track 7

Filename C:\Users\ian\Desktop\VA - Milk Of The Tree An Anthology Of Female Vocal Folk And Singer Songwriters (1966-73) [FLAC] {3CD}\Milk Of The Tree CD1\07 - Serpent Power - Flying Away.wav

Pre-gap length 0:00:02.00

Peak level 96.6 %
Extraction speed 1.9 X
Track quality 100.0 %
Test CRC F19D1204
Copy CRC F19D1204
Copy OK

Track 8

Filename C:\Users\ian\Desktop\VA - Milk Of The Tree An Anthology Of Female Vocal Folk And Singer Songwriters (1966-73) [FLAC] {3CD}\Milk Of The Tree CD1\08 - Joan Armatrading - It Could Have Been Better.wav

Pre-gap length 0:00:02.00

Peak level 96.6 %
Extraction speed 1.8 X
Track quality 99.9 %
Test CRC 03D5903B
Copy CRC 03D5903B
Copy OK

Track 9

Filename C:\Users\ian\Desktop\VA - Milk Of The Tree An Anthology Of Female Vocal Folk And Singer Songwriters (1966-73) [FLAC] {3CD}\Milk Of The Tree CD1\09 - Jude - Morgantown.wav

Pre-gap length 0:00:02.00

Peak level 96.6 %
Extraction speed 1.7 X
Track quality 99.9 %
Test CRC DC257A82
Copy CRC DC257A82
Copy OK

Track 10

Filename C:\Users\ian\Desktop\VA - Milk Of The Tree An Anthology Of Female Vocal Folk And Singer Songwriters (1966-73) [FLAC] {3CD}\Milk Of The Tree CD1\10 - Mandy More - If Not By Fire.wav

Pre-gap length 0:00:02.00

Peak level 96.6 %
Extraction speed 2.2 X
Track quality 100.0 %
Test CRC F1DAA894
Copy CRC F1DAA894
Copy OK

Track 11

Filename C:\Users\ian\Desktop\VA - Milk Of The Tree An Anthology Of Female Vocal Folk And Singer Songwriters (1966-73) [FLAC] {3CD}\Milk Of The Tree CD1\11 - Laura Nyro - Upstairs By A Chinese Lamp.wav

Pre-gap length 0:00:02.00

Peak level 96.6 %
Extraction speed 2.3 X
Track quality 100.0 %
Test CRC 7A573C27
Copy CRC 7A573C27
Copy OK

Track 12

Filename C:\Users\ian\Desktop\VA - Milk Of The Tree An Anthology Of Female Vocal Folk And Singer Songwriters (1966-73) [FLAC] {3CD}\Milk Of The Tree CD1\12 - Susan Pillsbury - I Thought I Knew The Answers.wav

Pre-gap length 0:00:02.00

Peak level 96.6 %
Extraction speed 2.1 X
Track quality 100.0 %
Test CRC F0371D1B
Copy CRC F0371D1B
Copy OK

Track 13

Filename C:\Users\ian\Desktop\VA - Milk Of The Tree An Anthology Of Female Vocal Folk And Singer Songwriters (1966-73) [FLAC] {3CD}\Milk Of The Tree CD1\13 - Jaki Whitren - Give Her The Day.wav

Pre-gap length 0:00:02.00

Peak level 96.6 %
Extraction speed 2.2 X
Track quality 100.0 %
Test CRC BFA0F7CF
Copy CRC BFA0F7CF
Copy OK

Track 14

Filename C:\Users\ian\Desktop\VA - Milk Of The Tree An Anthology Of Female Vocal Folk And Singer Songwriters (1966-73) [FLAC] {3CD}\Milk Of The Tree CD1\14 - Wendy & Bonnie - By The Sea.wav

Pre-gap length 0:00:02.00

Peak level 78.8 %
Extraction speed 2.4 X
Track quality 100.0 %
Test CRC 4617D8DF
Copy CRC 4617D8DF
Copy OK

Track 15

Filename C:\Users\ian\Desktop\VA - Milk Of The Tree An Anthology Of Female Vocal Folk And Singer Songwriters (1966-73) [FLAC] {3CD}\Milk Of The Tree CD1\15 - Jackie DeShannon - Come And Stay With Me.wav

Pre-gap length 0:00:02.00

Peak level 96.6 %
Extraction speed 2.4 X
Track quality 100.0 %
Test CRC B8173F53
Copy CRC B8173F53
Copy OK

Track 16

Filename C:\Users\ian\Desktop\VA - Milk Of The Tree An Anthology Of Female Vocal Folk And Singer Songwriters (1966-73) [FLAC] {3CD}\Milk Of The Tree CD1\16 - Marianne Faithfull - Something Better.wav

Pre-gap length 0:00:02.00

Peak level 96.6 %
Extraction speed 2.4 X
Track quality 100.0 %
Test CRC 24112590
Copy CRC 24112590
Copy OK

Track 17

Filename C:\Users\ian\Desktop\VA - Milk Of The Tree An Anthology Of Female Vocal Folk And Singer Songwriters (1966-73) [FLAC] {3CD}\Milk Of The Tree CD1\17 - Spirogyra - An Everyday Consumption Song.wav

Pre-gap length 0:00:02.00

Peak level 96.6 %
Extraction speed 2.6 X
Track quality 100.0 %
Test CRC D33985E9
Copy CRC D33985E9
Copy OK

Track 18

Filename C:\Users\ian\Desktop\VA - Milk Of The Tree An Anthology Of Female Vocal Folk And Singer Songwriters (1966-73) [FLAC] {3CD}\Milk Of The Tree CD1\18 - Polly Niles - The Milk Of The Tree.wav

Pre-gap length 0:00:02.00

Peak level 96.6 %
Extraction speed 2.3 X
Track quality 100.0 %
Test CRC 11236715
Copy CRC 11236715
Copy OK

Track 19

Filename C:\Users\ian\Desktop\VA - Milk Of The Tree An Anthology Of Female Vocal Folk And Singer Songwriters (1966-73) [FLAC] {3CD}\Milk Of The Tree CD1\19 - Nico - Chelsea Girls.wav

Pre-gap length 0:00:02.00

Peak level 96.6 %
Extraction speed 2.9 X
Track quality 100.0 %
Test CRC D72050EC
Copy CRC D72050EC
Copy OK

Track 20

Filename C:\Users\ian\Desktop\VA - Milk Of The Tree An Anthology Of Female Vocal Folk And Singer Songwriters (1966-73) [FLAC] {3CD}\Milk Of The Tree CD1\20 - Mary-Anne - Reverie For Roslyn.wav

Pre-gap length 0:00:02.00

Peak level 79.0 %
Extraction speed 2.1 X
Track quality 100.0 %
Test CRC 1442F090
Copy CRC 1442F090
Copy OK

No errors occurred

End of status report

–– CUETools DB Plugin V2.1.6

[CTDB TOCID: XS5zu119LPiufeXyk120HmcDPDY-] found
Submit result: XS5zu119LPiufeXyk120HmcDPDY- has been confirmed
Track | CTDB Status
1 | (6/6) Accurately ripped
2 | (6/6) Accurately ripped
3 | (6/6) Accurately ripped
4 | (6/6) Accurately ripped
5 | (6/6) Accurately ripped
6 | (6/6) Accurately ripped
7 | (6/6) Accurately ripped
8 | (6/6) Accurately ripped
9 | (6/6) Accurately ripped
10 | (6/6) Accurately ripped
11 | (6/6) Accurately ripped
12 | (6/6) Accurately ripped
13 | (6/6) Accurately ripped
14 | (6/6) Accurately ripped
15 | (6/6) Accurately ripped
16 | (6/6) Accurately ripped
17 | (6/6) Accurately ripped
18 | (6/6) Accurately ripped
19 | (6/6) Accurately ripped
20 | (6/6) Accurately ripped


==== Log checksum 968DA87A69C10B22CD8F006BBA27BA09DFB561DC3D071A4A32383A12452FFE14 ====




Exact Audio Copy V1.2 from 12. August 2016

EAC extraction logfile from 11. December 2017, 14:14

Various Artists / Milk Of The Tree Vol. 2

Used drive : HL-DT-STDVD+-RW GU90N Adapter: 1 ID: 1

Read mode : Secure
Utilize accurate stream : Yes
Defeat audio cache : Yes
Make use of C2 pointers : No

Read offset correction : 102
Overread into Lead-In and Lead-Out : No
Fill up missing offset samples with silence : Yes
Delete leading and trailing silent blocks : No
Null samples used in CRC calculations : Yes
Used interface : Native Win32 interface for Win NT & 2000
Gap handling : Appended to previous track

Used output format : User Defined Encoder
Selected bitrate : 1024 kBit/s
Quality : High
Add ID3 tag : No
Command line compressor : C:\Program Files (x86)\Exact Audio Copy\Flac\flac.exe
Additional command line options : -8 -V -T "ARTIST=%artist%" -T "TITLE=%title%" -T "ALBUM=%albumtitle%" -T "DATE=%year%" -T "TRACKNUMBER=%tracknr%" -T "GENRE=%genre%" -T "PERFORMER=%albuminterpret%" -T "COMPOSER=%composer%" %haslyrics%–tag-from-file=LYRICS="%lyricsfile%"%haslyrics% -T "ALBUMARTIST=%albumartist%" -T "DISCNUMBER=%cdnumber%" -T "TOTALDISCS=%totalcds%" -T "TOTALTRACKS=%numtracks%" -T "COMMENT=%comment%" %source% -o %dest%


TOC of the extracted CD

Track | Start | Length | Start sector | End sector
––––––––––––––––––––––––––––-
1 | 0:00.00 | 2:39.27 | 0 | 11951
2 | 2:39.27 | 2:58.47 | 11952 | 25348
3 | 5:37.74 | 4:08.60 | 25349 | 44008
4 | 9:46.59 | 2:20.23 | 44009 | 54531
5 | 12:07.07 | 3:29.65 | 54532 | 70271
6 | 15:36.72 | 4:24.43 | 70272 | 90114
7 | 20:01.40 | 2:25.15 | 90115 | 101004
8 | 22:26.55 | 3:14.67 | 101005 | 115621
9 | 25:41.47 | 4:00.36 | 115622 | 133657
10 | 29:42.08 | 2:22.37 | 133658 | 144344
11 | 32:04.45 | 2:30.37 | 144345 | 155631
12 | 34:35.07 | 4:58.64 | 155632 | 178045
13 | 39:33.71 | 3:05.41 | 178046 | 191961
14 | 42:39.37 | 5:45.07 | 191962 | 217843
15 | 48:24.44 | 2:37.61 | 217844 | 229679
16 | 51:02.30 | 2:56.26 | 229680 | 242905
17 | 53:58.56 | 4:30.57 | 242906 | 263212
18 | 58:29.38 | 3:43.47 | 263213 | 279984
19 | 62:13.10 | 3:28.18 | 279985 | 295602
20 | 65:41.28 | 6:53.12 | 295603 | 326589


Track 1

Filename C:\Users\ian\Desktop\VA - Milk Of The Tree An Anthology Of Female Vocal Folk And Singer Songwriters (1966-73) [FLAC] {3CD}\Milk Of The Tree CD2\01 - Stone Poneys - Different Drum.wav

Pre-gap length 0:00:02.00

Peak level 96.6 %
Extraction speed 1.0 X
Track quality 99.9 %
Test CRC 4C2BF357
Copy CRC 4C2BF357
Copy OK

Track 2

Filename C:\Users\ian\Desktop\VA - Milk Of The Tree An Anthology Of Female Vocal Folk And Singer Songwriters (1966-73) [FLAC] {3CD}\Milk Of The Tree CD2\02 - Eclection - Please (MK II).wav

Pre-gap length 0:00:02.00

Peak level 96.6 %
Extraction speed 1.1 X
Track quality 99.9 %
Test CRC AE5E5467
Copy CRC AE5E5467
Copy OK

Track 3

Filename C:\Users\ian\Desktop\VA - Milk Of The Tree An Anthology Of Female Vocal Folk And Singer Songwriters (1966-73) [FLAC] {3CD}\Milk Of The Tree CD2\03 - Jade - Five Of Us.wav

Pre-gap length 0:00:02.00

Peak level 96.6 %
Extraction speed 1.4 X
Track quality 100.0 %
Test CRC 74613450
Copy CRC 74613450
Copy OK

Track 4

Filename C:\Users\ian\Desktop\VA - Milk Of The Tree An Anthology Of Female Vocal Folk And Singer Songwriters (1966-73) [FLAC] {3CD}\Milk Of The Tree CD2\04 - The Simon Sisters - Who Has Seen The Wind.wav

Pre-gap length 0:00:02.00

Peak level 84.6 %
Extraction speed 1.4 X
Track quality 100.0 %
Test CRC 0313E352
Copy CRC 0313E352
Copy OK

Track 5

Filename C:\Users\ian\Desktop\VA - Milk Of The Tree An Anthology Of Female Vocal Folk And Singer Songwriters (1966-73) [FLAC] {3CD}\Milk Of The Tree CD2\05 - Judee Sill - Jesus Was A Cross Maker.wav

Pre-gap length 0:00:02.00

Peak level 96.6 %
Extraction speed 1.6 X
Track quality 100.0 %
Test CRC 36E4F9DA
Copy CRC 36E4F9DA
Copy OK

Track 6

Filename C:\Users\ian\Desktop\VA - Milk Of The Tree An Anthology Of Female Vocal Folk And Singer Songwriters (1966-73) [FLAC] {3CD}\Milk Of The Tree CD2\06 - The Woods Band - January's Snows.wav

Pre-gap length 0:00:02.00

Peak level 96.6 %
Extraction speed 1.6 X
Track quality 99.9 %
Test CRC BDBBBF54
Copy CRC BDBBBF54
Copy OK

Track 7

Filename C:\Users\ian\Desktop\VA - Milk Of The Tree An Anthology Of Female Vocal Folk And Singer Songwriters (1966-73) [FLAC] {3CD}\Milk Of The Tree CD2\07 - Trader Horne - In My Loneliness.wav

Pre-gap length 0:00:02.00

Peak level 96.6 %
Extraction speed 1.7 X
Track quality 100.0 %
Test CRC 13B2FEC9
Copy CRC 13B2FEC9
Copy OK

Track 8

Filename C:\Users\ian\Desktop\VA - Milk Of The Tree An Anthology Of Female Vocal Folk And Singer Songwriters (1966-73) [FLAC] {3CD}\Milk Of The Tree CD2\08 - Janis Ian - Society's Child (Baby I've Been Thinking).wav

Pre-gap length 0:00:02.00

Peak level 96.6 %
Extraction speed 1.5 X
Track quality 99.9 %
Test CRC 2C4F8058
Copy CRC 2C4F8058
Copy OK

Track 9

Filename C:\Users\ian\Desktop\VA - Milk Of The Tree An Anthology Of Female Vocal Folk And Singer Songwriters (1966-73) [FLAC] {3CD}\Milk Of The Tree CD2\09 - Lily & Maria - I Was.wav

Pre-gap length 0:00:02.00

Peak level 62.1 %
Extraction speed 1.9 X
Track quality 100.0 %
Test CRC B3CA8523
Copy CRC B3CA8523
Copy OK

Track 10

Filename C:\Users\ian\Desktop\VA - Milk Of The Tree An Anthology Of Female Vocal Folk And Singer Songwriters (1966-73) [FLAC] {3CD}\Milk Of The Tree CD2\10 - Mellow Candle - Feeling High.wav

Pre-gap length 0:00:02.00

Peak level 92.2 %
Extraction speed 1.8 X
Track quality 100.0 %
Test CRC A16F7004
Copy CRC A16F7004
Copy OK

Track 11

Filename C:\Users\ian\Desktop\VA - Milk Of The Tree An Anthology Of Female Vocal Folk And Singer Songwriters (1966-73) [FLAC] {3CD}\Milk Of The Tree CD2\11 - Tomorrow Come Someday - Tomorrow Come Someday.wav

Pre-gap length 0:00:02.00

Peak level 96.6 %
Extraction speed 1.9 X
Track quality 100.0 %
Test CRC D3B16715
Copy CRC D3B16715
Copy OK

Track 12

Filename C:\Users\ian\Desktop\VA - Milk Of The Tree An Anthology Of Female Vocal Folk And Singer Songwriters (1966-73) [FLAC] {3CD}\Milk Of The Tree CD2\12 - Julie Covington - My Silks And Fine Array.wav

Pre-gap length 0:00:02.00

Peak level 96.6 %
Extraction speed 2.2 X
Track quality 100.0 %
Test CRC 5D9504C5
Copy CRC 5D9504C5
Copy OK

Track 13

Filename C:\Users\ian\Desktop\VA - Milk Of The Tree An Anthology Of Female Vocal Folk And Singer Songwriters (1966-73) [FLAC] {3CD}\Milk Of The Tree CD2\13 - Norma Waterson - Red Wine And Promises.wav

Pre-gap length 0:00:02.00

Peak level 96.6 %
Extraction speed 2.1 X
Track quality 100.0 %
Test CRC CA06F6F4
Copy CRC CA06F6F4
Copy OK

Track 14

Filename C:\Users\ian\Desktop\VA - Milk Of The Tree An Anthology Of Female Vocal Folk And Singer Songwriters (1966-73) [FLAC] {3CD}\Milk Of The Tree CD2\14 - Mr Fox - Mr Fox.wav

Pre-gap length 0:00:02.00

Peak level 96.6 %
Extraction speed 2.4 X
Track quality 100.0 %
Test CRC 5D5CC1FC
Copy CRC 5D5CC1FC
Copy OK

Track 15

Filename C:\Users\ian\Desktop\VA - Milk Of The Tree An Anthology Of Female Vocal Folk And Singer Songwriters (1966-73) [FLAC] {3CD}\Milk Of The Tree CD2\15 - Buffy Sainte-Marie - The Dream Tree.wav

Pre-gap length 0:00:02.00

Peak level 96.6 %
Extraction speed 2.2 X
Track quality 100.0 %
Test CRC BDC90990
Copy CRC BDC90990
Copy OK

Track 16

Filename C:\Users\ian\Desktop\VA - Milk Of The Tree An Anthology Of Female Vocal Folk And Singer Songwriters (1966-73) [FLAC] {3CD}\Milk Of The Tree CD2\16 - The Academy featuring Polly Perkins - Munching The Candy.wav

Pre-gap length 0:00:02.00

Peak level 96.6 %
Extraction speed 2.3 X
Track quality 100.0 %
Test CRC 483166B6
Copy CRC 483166B6
Copy OK

Track 17

Filename C:\Users\ian\Desktop\VA - Milk Of The Tree An Anthology Of Female Vocal Folk And Singer Songwriters (1966-73) [FLAC] {3CD}\Milk Of The Tree CD2\17 - Sandy Denny - Late November.wav

Pre-gap length 0:00:02.00

Peak level 96.6 %
Extraction speed 2.5 X
Track quality 100.0 %
Test CRC 4563EF2B
Copy CRC 4563EF2B
Copy OK

Track 18

Filename C:\Users\ian\Desktop\VA - Milk Of The Tree An Anthology Of Female Vocal Folk And Singer Songwriters (1966-73) [FLAC] {3CD}\Milk Of The Tree CD2\18 - Hendrickson Road House - Tomorrow Your Sorrow.wav

Pre-gap length 0:00:02.00

Peak level 96.6 %
Extraction speed 2.5 X
Track quality 100.0 %
Test CRC 9FA0152D
Copy CRC 9FA0152D
Copy OK

Track 19

Filename C:\Users\ian\Desktop\VA - Milk Of The Tree An Anthology Of Female Vocal Folk And Singer Songwriters (1966-73) [FLAC] {3CD}\Milk Of The Tree CD2\19 - Chuck & Mary Perrin - Mornings.wav

Pre-gap length 0:00:02.00

Peak level 96.6 %
Extraction speed 2.5 X
Track quality 100.0 %
Test CRC 0680CFB2
Copy CRC 0680CFB2
Copy OK

Track 20

Filename C:\Users\ian\Desktop\VA - Milk Of The Tree An Anthology Of Female Vocal Folk And Singer Songwriters (1966-73) [FLAC] {3CD}\Milk Of The Tree CD2\20 - Lesley Dunca - Mr Rubin.wav

Pre-gap length 0:00:02.00

Peak level 96.6 %
Extraction speed 2.8 X
Track quality 100.0 %
Test CRC CCFEBA6E
Copy CRC CCFEBA6E
Copy OK

No errors occurred

End of status report

–– CUETools DB Plugin V2.1.6

[CTDB TOCID: kPlmMcoVO_mDPMnNAgKqY.I._oo-] found
Submit result: kPlmMcoVO_mDPMnNAgKqY.I._oo- has been confirmed
Track | CTDB Status
1 | (6/6) Accurately ripped
2 | (6/6) Accurately ripped
3 | (6/6) Accurately ripped
4 | (6/6) Accurately ripped
5 | (6/6) Accurately ripped
6 | (6/6) Accurately ripped
7 | (6/6) Accurately ripped
8 | (6/6) Accurately ripped
9 | (6/6) Accurately ripped
10 | (6/6) Accurately ripped
11 | (6/6) Accurately ripped
12 | (6/6) Accurately ripped
13 | (6/6) Accurately ripped
14 | (6/6) Accurately ripped
15 | (6/6) Accurately ripped
16 | (6/6) Accurately ripped
17 | (6/6) Accurately ripped
18 | (6/6) Accurately ripped
19 | (6/6) Accurately ripped
20 | (6/6) Accurately ripped


==== Log checksum 728CB393C248E53CAD8AEACBB6B92571C27C1020CAD05044F066D36D3FD92090 ====




Exact Audio Copy V1.2 from 12. August 2016

EAC extraction logfile from 11. December 2017, 15:47

Various Artists / Milk Of The Tree CD3

Used drive : HL-DT-STDVD+-RW GU90N Adapter: 1 ID: 1

Read mode : Secure
Utilize accurate stream : Yes
Defeat audio cache : Yes
Make use of C2 pointers : No

Read offset correction : 102
Overread into Lead-In and Lead-Out : No
Fill up missing offset samples with silence : Yes
Delete leading and trailing silent blocks : No
Null samples used in CRC calculations : Yes
Used interface : Native Win32 interface for Win NT & 2000
Gap handling : Appended to previous track

Used output format : User Defined Encoder
Selected bitrate : 1024 kBit/s
Quality : High
Add ID3 tag : No
Command line compressor : C:\Program Files (x86)\Exact Audio Copy\Flac\flac.exe
Additional command line options : -8 -V -T "ARTIST=%artist%" -T "TITLE=%title%" -T "ALBUM=%albumtitle%" -T "DATE=%year%" -T "TRACKNUMBER=%tracknr%" -T "GENRE=%genre%" -T "PERFORMER=%albuminterpret%" -T "COMPOSER=%composer%" %haslyrics%–tag-from-file=LYRICS="%lyricsfile%"%haslyrics% -T "ALBUMARTIST=%albumartist%" -T "DISCNUMBER=%cdnumber%" -T "TOTALDISCS=%totalcds%" -T "TOTALTRACKS=%numtracks%" -T "COMMENT=%comment%" %source% -o %dest%


TOC of the extracted CD

Track | Start | Length | Start sector | End sector
––––––––––––––––––––––––––––-
1 | 0:00.00 | 5:38.62 | 0 | 25411
2 | 5:38.62 | 3:15.02 | 25412 | 40038
3 | 8:53.64 | 3:11.62 | 40039 | 54425
4 | 12:05.51 | 3:00.54 | 54426 | 67979
5 | 15:06.30 | 2:45.04 | 67980 | 80358
6 | 17:51.34 | 2:29.29 | 80359 | 91562
7 | 20:20.63 | 3:02.09 | 91563 | 105221
8 | 23:22.72 | 4:04.35 | 105222 | 123556
9 | 27:27.32 | 3:10.74 | 123557 | 137880
10 | 30:38.31 | 2:00.46 | 137881 | 146926
11 | 32:39.02 | 2:42.10 | 146927 | 159086
12 | 35:21.12 | 5:03.01 | 159087 | 181812
13 | 40:24.13 | 3:16.42 | 181813 | 196554
14 | 43:40.55 | 4:36.51 | 196555 | 217305
15 | 48:17.31 | 2:26.05 | 217306 | 228260
16 | 50:43.36 | 3:00.42 | 228261 | 241802
17 | 53:44.03 | 5:10.46 | 241803 | 265098
18 | 58:54.49 | 4:46.23 | 265099 | 286571
19 | 63:40.72 | 7:22.22 | 286572 | 319743
20 | 71:03.19 | 5:41.21 | 319744 | 345339


Track 1

Filename C:\Users\ian\Desktop\VA - Milk Of The Tree An Anthology Of Female Vocal Folk And Singer Songwriters (1966-73) [FLAC] {3CD}\Milk Of The Tree CD3\01 - Chimera - Come Into The Garden.wav

Pre-gap length 0:00:02.00

Peak level 96.6 %
Extraction speed 1.4 X
Track quality 100.0 %
Test CRC E787D658
Copy CRC E787D658
Copy OK

Track 2

Filename C:\Users\ian\Desktop\VA - Milk Of The Tree An Anthology Of Female Vocal Folk And Singer Songwriters (1966-73) [FLAC] {3CD}\Milk Of The Tree CD3\02 - Diane Hildebrand - Early Morning Blues And Greens.wav

Pre-gap length 0:00:02.00

Peak level 96.6 %
Extraction speed 1.4 X
Track quality 100.0 %
Test CRC 45E4E7B2
Copy CRC 45E4E7B2
Copy OK

Track 3

Filename C:\Users\ian\Desktop\VA - Milk Of The Tree An Anthology Of Female Vocal Folk And Singer Songwriters (1966-73) [FLAC] {3CD}\Milk Of The Tree CD3\03 - Susan Christie - Rainy Day.wav

Pre-gap length 0:00:02.00

Peak level 96.6 %
Extraction speed 1.5 X
Track quality 100.0 %
Test CRC 95BD1163
Copy CRC 95BD1163
Copy OK

Track 4

Filename C:\Users\ian\Desktop\VA - Milk Of The Tree An Anthology Of Female Vocal Folk And Singer Songwriters (1966-73) [FLAC] {3CD}\Milk Of The Tree CD3\04 - Bridget St. John - Autumn Lullaby.wav

Pre-gap length 0:00:02.00

Peak level 96.6 %
Extraction speed 1.5 X
Track quality 100.0 %
Test CRC DA248300
Copy CRC DA248300
Copy OK

Track 5

Filename C:\Users\ian\Desktop\VA - Milk Of The Tree An Anthology Of Female Vocal Folk And Singer Songwriters (1966-73) [FLAC] {3CD}\Milk Of The Tree CD3\05 - Principal Edwards Magic Theatre - Ballad (Of The Big Girl Now And A Mere Boy).wav

Pre-gap length 0:00:02.00

Peak level 96.2 %
Extraction speed 1.6 X
Track quality 100.0 %
Test CRC 1C22A164
Copy CRC 1C22A164
Copy OK

Track 6

Filename C:\Users\ian\Desktop\VA - Milk Of The Tree An Anthology Of Female Vocal Folk And Singer Songwriters (1966-73) [FLAC] {3CD}\Milk Of The Tree CD3\06 - Ruthann Friedman - Windy.wav

Pre-gap length 0:00:02.00

Peak level 96.6 %
Extraction speed 1.4 X
Track quality 99.9 %
Test CRC 9A5CEB32
Copy CRC 9A5CEB32
Copy OK

Track 7

Filename C:\Users\ian\Desktop\VA - Milk Of The Tree An Anthology Of Female Vocal Folk And Singer Songwriters (1966-73) [FLAC] {3CD}\Milk Of The Tree CD3\07 - Design - The Lonely.wav

Pre-gap length 0:00:02.00

Peak level 96.6 %
Extraction speed 1.7 X
Track quality 100.0 %
Test CRC 2D2C07B8
Copy CRC 2D2C07B8
Copy OK

Track 8

Filename C:\Users\ian\Desktop\VA - Milk Of The Tree An Anthology Of Female Vocal Folk And Singer Songwriters (1966-73) [FLAC] {3CD}\Milk Of The Tree CD3\08 - Shelagh McDonald - Mirage.wav

Pre-gap length 0:00:02.00

Peak level 85.3 %
Extraction speed 1.9 X
Track quality 100.0 %
Test CRC 223EA1AC
Copy CRC 223EA1AC
Copy OK

Track 9

Filename C:\Users\ian\Desktop\VA - Milk Of The Tree An Anthology Of Female Vocal Folk And Singer Songwriters (1966-73) [FLAC] {3CD}\Milk Of The Tree CD3\09 - Mary Hopkin - Aderyn Llwyd (Sparrow).wav

Pre-gap length 0:00:02.00

Peak level 96.6 %
Extraction speed 1.9 X
Track quality 100.0 %
Test CRC 408BCA3C
Copy CRC 408BCA3C
Copy OK

Track 10

Filename C:\Users\ian\Desktop\VA - Milk Of The Tree An Anthology Of Female Vocal Folk And Singer Songwriters (1966-73) [FLAC] {3CD}\Milk Of The Tree CD3\10 - Vashti Bunyan - Love Song.wav

Pre-gap length 0:00:02.00

Peak level 86.9 %
Extraction speed 1.8 X
Track quality 100.0 %
Test CRC 60F00794
Copy CRC 60F00794
Copy OK

Track 11

Filename C:\Users\ian\Desktop\VA - Milk Of The Tree An Anthology Of Female Vocal Folk And Singer Songwriters (1966-73) [FLAC] {3CD}\Milk Of The Tree CD3\11 - Bonnie Dobson - Winter's Going.wav

Pre-gap length 0:00:02.00

Peak level 96.6 %
Extraction speed 1.9 X
Track quality 100.0 %
Test CRC 9408065F
Copy CRC 9408065F
Copy OK

Track 12

Filename C:\Users\ian\Desktop\VA - Milk Of The Tree An Anthology Of Female Vocal Folk And Singer Songwriters (1966-73) [FLAC] {3CD}\Milk Of The Tree CD3\12 - Anne Briggs - Sandman's Song.wav

Pre-gap length 0:00:02.00

Peak level 96.6 %
Extraction speed 2.2 X
Track quality 100.0 %
Test CRC DDBF3650
Copy CRC DDBF3650
Copy OK

Track 13

Filename C:\Users\ian\Desktop\VA - Milk Of The Tree An Anthology Of Female Vocal Folk And Singer Songwriters (1966-73) [FLAC] {3CD}\Milk Of The Tree CD3\13 - The Bunch - When Will I Be Loved.wav

Pre-gap length 0:00:02.00

Peak level 96.6 %
Extraction speed 1.9 X
Track quality 99.9 %
Test CRC 91F72E33
Copy CRC 91F72E33
Copy OK

Track 14

Filename C:\Users\ian\Desktop\VA - Milk Of The Tree An Anthology Of Female Vocal Folk And Singer Songwriters (1966-73) [FLAC] {3CD}\Milk Of The Tree CD3\14 - Carolanne Pegg - The Lady And The Well.wav

Pre-gap length 0:00:02.00

Peak level 96.6 %
Extraction speed 2.3 X
Track quality 100.0 %
Test CRC 595E578D
Copy CRC 595E578D
Copy OK

Track 15

Filename C:\Users\ian\Desktop\VA - Milk Of The Tree An Anthology Of Female Vocal Folk And Singer Songwriters (1966-73) [FLAC] {3CD}\Milk Of The Tree CD3\15 - Margo Guryan - Think Of Rain.wav

Pre-gap length 0:00:02.00

Peak level 89.9 %
Extraction speed 1.8 X
Track quality 99.9 %
Test CRC 16D87C01
Copy CRC 16D87C01
Copy OK

Track 16

Filename C:\Users\ian\Desktop\VA - Milk Of The Tree An Anthology Of Female Vocal Folk And Singer Songwriters (1966-73) [FLAC] {3CD}\Milk Of The Tree CD3\16 - Ithaca - Beneath This Sky.wav

Pre-gap length 0:00:02.00

Peak level 96.6 %
Extraction speed 2.0 X
Track quality 99.9 %
Test CRC 1C66A9E2
Copy CRC 1C66A9E2
Copy OK

Track 17

Filename C:\Users\ian\Desktop\VA - Milk Of The Tree An Anthology Of Female Vocal Folk And Singer Songwriters (1966-73) [FLAC] {3CD}\Milk Of The Tree CD3\17 - Trees - Murdoch.wav

Pre-gap length 0:00:02.00

Peak level 96.6 %
Extraction speed 2.6 X
Track quality 100.0 %
Test CRC 12FA36A5
Copy CRC 12FA36A5
Copy OK

Track 18

Filename C:\Users\ian\Desktop\VA - Milk Of The Tree An Anthology Of Female Vocal Folk And Singer Songwriters (1966-73) [FLAC] {3CD}\Milk Of The Tree CD3\18 - The Sallyangie - Banquet On The Water.wav

Pre-gap length 0:00:02.00

Peak level 96.6 %
Extraction speed 2.6 X
Track quality 100.0 %
Test CRC 33B85DE4
Copy CRC 33B85DE4
Copy OK

Track 19

Filename C:\Users\ian\Desktop\VA - Milk Of The Tree An Anthology Of Female Vocal Folk And Singer Songwriters (1966-73) [FLAC] {3CD}\Milk Of The Tree CD3\19 - Emily Muff - Pass The Night.wav

Pre-gap length 0:00:02.00

Peak level 85.8 %
Extraction speed 2.8 X
Track quality 100.0 %
Test CRC 526EA203
Copy CRC 526EA203
Copy OK

Track 20

Filename C:\Users\ian\Desktop\VA - Milk Of The Tree An Anthology Of Female Vocal Folk And Singer Songwriters (1966-73) [FLAC] {3CD}\Milk Of The Tree CD3\20 - mi Farina - Morgan The Pirate.wav

Pre-gap length 0:00:02.00

Peak level 96.6 %
Extraction speed 2.6 X
Track quality 99.9 %
Test CRC 9C56488C
Copy CRC 9C56488C
Copy OK

No errors occurred

End of status report

–– CUETools DB Plugin V2.1.6

[CTDB TOCID: TbNxlnhsjtHmZr1DsOWlV6sDM14-] found
Submit result: TbNxlnhsjtHmZr1DsOWlV6sDM14- has been confirmed
Track | CTDB Status
1 | (5/5) Accurately ripped
2 | (5/5) Accurately ripped
3 | (5/5) Accurately ripped
4 | (5/5) Accurately ripped
5 | (5/5) Accurately ripped
6 | (5/5) Accurately ripped
7 | (5/5) Accurately ripped
8 | (5/5) Accurately ripped
9 | (5/5) Accurately ripped
10 | (5/5) Accurately ripped
11 | (5/5) Accurately ripped
12 | (5/5) Accurately ripped
13 | (5/5) Accurately ripped
14 | (5/5) Accurately ripped
15 | (5/5) Accurately ripped
16 | (5/5) Accurately ripped
17 | (5/5) Accurately ripped
18 | (5/5) Accurately ripped
19 | (5/5) Accurately ripped
20 | (5/5) Accurately ripped


==== Log checksum CB3FB7EA694A10D76D7FA59EC7803E9A6C27FF2C097BD8F687BDAF922BF45CA3 ====


Various Artists - Milk Of The Tree: An Anthology Of Female Vocal Folk & Singer-Songwriters 1966-73 (2017) {3CD Set}



===