Subcategories

Various Artists - One Way Glass: Dancefloor Prog, Brit Jazz and Funky Folk 1968-1975 (2017) {3CD Set RPMBX 537}

Posted By: ruskaval
Various Artists - One Way Glass: Dancefloor Prog, Brit Jazz and Funky Folk 1968-1975 (2017) {3CD Set RPMBX 537}

Various Artists - One Way Glass: Dancefloor Prog, Brit Jazz and Funky Folk 1968-1975 (2017) {3CD Set RPMBX 537}
EAC rip (secure mode) | FLAC (tracks)+CUE+LOG -> 1.52 Gb | MP3 @320 -> 563 Mb
Full Artwork @ 300 dpi (jpg) -> 17 Mb | 5% repair rar
© 1968-75, 2017 RPM Records | RPMBX 537
Rock / Psychedelic / Funk Rock / Jazz / Prog-Rock / Jazz Funk / British Folk Rock

ONE WAY GLASS is a very different kind of RPM compilation. Instead of the usual cross-section of Sixties collectables, this unique 3-CD set takes a fresh look at British music from the late 60s through to the mid-70s, with an eye on overlooked dancefloor-friendly finds. The rhythmic backbone of One Way Glass lies in Progressive Rock outfits who - every so often - would emulate their jazz heroes and record funky sides tucked away on albums or B-sides. Many of these tracks (Jonesy, Hardin & York) have been known to collectors of Funky Breaks for years.

In addition, One Way Glass boasts some excellent funky Folk tracks which lighten the load for the listener - tracks by Alan James Eastwood, Bridget St. John, Dana Gillespie, Joan Armatrading and Melanie, for example.

More typical Funk Rock selections come from Hanson (featuring future Bob Marley & The Wailers mainstay Junior Marvin on guitar) and Curtis Knight Zeus (fronted by Jimi Hendrix's old bandmate and featuring future Motorhead guitarist Fast Eddie Clarke). Maybe it all started - in terms of Breaks and Hip Hop culture, at least - with DJ Kool Herc, who would spin key segments from old Rock records to create the Funky Break. Ever since, fans of funky music have been crate digging to find any tunes which have that infectious shuffle, regardless of their musical heritage or background.

This little set is a treasure trove of funky grooves contained in some great songs and with some mighty fine musicianship. Some familiar names such as Colosseum. Paladin, Pentangle, Climax Blues Band, Arthur Brown, Melanie, Joan Armatrading, Spencer Davis Group, Atomic Rooster and a ton you may be hearing for the first time. No track disappoints and you can imagine some of them surfacing in the soundtrack of some cool movie.

You will be surprised by how funky some Folkies can be. This is a never less than a fun and nicely challenging set and there are a great many tunes that could become favourites.
Various Artists - One Way Glass: Dancefloor Prog, Brit Jazz and Funky Folk 1968-1975 (2017) {3CD Set RPMBX 537}


I'm very sorry but it's impossible to scan the booklet!

Personnel & tracklist:

Disc: 1

1. ONE WAY GLASS - Trifle
2. ELEGY - Colosseum
3. MAN FROM AFGHANISTAN - Curtiss Maldoon
4. 3D MONA LISA - Paul Brett Sage
5. HOME IS WHERE I BELONG - Quicksand
6. SOMETHIN' YOU GOT - Second Hand
7. GET ONE TOGETHER - Paladin
8. COLD WALL OF STONE - Fat Mattress
9. LIBEL - Hard Stuff
10. SANCTUARY - Gravy Train
11. CITY OF DARKNESS - The Web
12. OUT OF NOWHERE - Patrick Campbell-Lyons
13. THE BITCH - Gasoline Band
14. I SAW AN ANGEL - Pentangle
15. RICOCHET - Jonesy
16. REVOLUTION'S DEATH MAN - Edwards Hand
17. MACUMBE - Bond & Brown
18. HENRY - CMU
19. SUNBURNT VIRGIN TROUSERS - Knocker Jungle
20. CUBANO CHANT - Climax Chicago Blues Band - Climax Chicago Blues Band
21. SHE'S MY SISTER - Open Road
22. THE LORD DOESN'T WANT YOU - Crazy World Of Arthur Brown

Various Artists - One Way Glass: Dancefloor Prog, Brit Jazz and Funky Folk 1968-1975 (2017) {3CD Set RPMBX 537}


Disc: 2
1. I'VE GOT MY MOJO WORKING - Melanie
2. EYEBALLS - Blue Mink
3. CELEBRATION - Chillum
4. CONFUSIONS ABOUT A GOLDFISH - John Kongos
5. SKIN VALLEY SERENADE - Skin Alley
6. LITTLE MESSAGE - Jody Grind
7. WEREN'T BORN A MAN - Dana Gillespie
8. DRINKING MY WINE - Hardin & York
9. SHE'S MINE, SHE'S YOURS - Juicy Lucy
10. AVEZ-VOUS KASKELAINEN? - Burnin Red Ivanhoe
11. MESSAGE TO MANKIND - Demon Fuzz
12. CLOSER TO THE TRUTH - Alan James Eastwood
13. WAKE UP MY CHILDREN - Siren
14. THE DEVIL MADE ME DO IT - Curtis Knight Zeus
15. HILARY DICKSON - Atlantic Bridge
16. SLY WILLY - Blue Beard
17. MEAN OLD MAN - Joan Armatrading
18. FUNKY - Spencer Davis Group
19. IN THE BEGINNING - The Foundations

Various Artists - One Way Glass: Dancefloor Prog, Brit Jazz and Funky Folk 1968-1975 (2017) {3CD Set RPMBX 537}


Disc: 3
1. HE'S GONNA STEP ON YOU AGAIN - John Kongos
2. BAD TIMES - BAD TIMES - Paladin
3. INSTANT WHIP - The Tremeloes
4. THE ROCK - Atomic Rooster
5. MARGARITA - Fat Mattress
6. GESOLREUT (Live) - Soft Machine
7. SOME KIND OF BEAUTIFUL - Bridget St. John
8. HOUSE ON THE HILL - Audience
9. INDIAN ROPE MAN - Noir
10. SO MANY PEOPLE - Skin Alley
11. ALIBI ANNIE - Trifle
12. I'M A THIEF - Juicy Lucy
13. TRAVELLING LIKE A GYPSY - Hanson
14. LOOKING FOR THE RED LABEL - Fair Weather
15. I'M A MAN - The Web
16. PIGS FOOT - Pesky Gee
17. ONE WAY GLASS - John Schroeder Orchestra

Various Artists - One Way Glass: Dancefloor Prog, Brit Jazz and Funky Folk 1968-1975 (2017) {3CD Set RPMBX 537}



Exact Audio Copy V1.2 from 12. August 2016

EAC extraction logfile from 2. November 2017, 18:48

Various Artists / One Way Glass CD1

Used drive : TSSTcorpCDDVDW SE-S084F Adapter: 1 ID: 1

Read mode : Secure
Utilize accurate stream : Yes
Defeat audio cache : Yes
Make use of C2 pointers : No

Read offset correction : 6
Overread into Lead-In and Lead-Out : No
Fill up missing offset samples with silence : Yes
Delete leading and trailing silent blocks : No
Null samples used in CRC calculations : Yes
Used interface : Native Win32 interface for Win NT & 2000
Gap handling : Appended to previous track

Used output format : User Defined Encoder
Selected bitrate : 1024 kBit/s
Quality : High
Add ID3 tag : No
Command line compressor : C:\Program Files (x86)\Exact Audio Copy\Flac\flac.exe
Additional command line options : -8 -V -T "ARTIST=%artist%" -T "TITLE=%title%" -T "ALBUM=%albumtitle%" -T "DATE=%year%" -T "TRACKNUMBER=%tracknr%" -T "GENRE=%genre%" -T "PERFORMER=%albuminterpret%" -T "COMPOSER=%composer%" %haslyrics%–tag-from-file=LYRICS="%lyricsfile%"%haslyrics% -T "ALBUMARTIST=%albumartist%" -T "DISCNUMBER=%cdnumber%" -T "TOTALDISCS=%totalcds%" -T "TOTALTRACKS=%numtracks%" -T "COMMENT=%comment%" %source% -o %dest%


TOC of the extracted CD

Track | Start | Length | Start sector | End sector
––––––––––––––––––––––––––––-
1 | 0:00.00 | 4:29.66 | 0 | 20240
2 | 4:29.66 | 3:11.49 | 20241 | 34614
3 | 7:41.40 | 3:33.13 | 34615 | 50602
4 | 11:14.53 | 3:18.54 | 50603 | 65506
5 | 14:33.32 | 4:57.61 | 65507 | 87842
6 | 19:31.18 | 2:56.48 | 87843 | 101090
7 | 22:27.66 | 2:37.25 | 101091 | 112890
8 | 25:05.16 | 2:38.21 | 112891 | 124761
9 | 27:43.37 | 4:01.08 | 124762 | 142844
10 | 31:44.45 | 4:00.31 | 142845 | 160875
11 | 35:45.01 | 3:09.12 | 160876 | 175062
12 | 38:54.13 | 2:07.42 | 175063 | 184629
13 | 41:01.55 | 5:06.52 | 184630 | 207631
14 | 46:08.32 | 2:53.24 | 207632 | 220630
15 | 49:01.56 | 4:05.58 | 220631 | 239063
16 | 53:07.39 | 4:03.20 | 239064 | 257308
17 | 57:10.59 | 3:38.05 | 257309 | 273663
18 | 60:48.64 | 4:43.65 | 273664 | 294953
19 | 65:32.54 | 2:06.50 | 294954 | 304453
20 | 67:39.29 | 5:34.49 | 304454 | 329552
21 | 73:14.03 | 2:45.72 | 329553 | 341999
22 | 76:00.00 | 3:04.10 | 342000 | 355809


Track 1

Filename C:\Users\ian\Desktop\VA - One Way Glass Dancefloor Prog Brit Jazz And Funky Folk 1968-75 (2017) [FLAC] {3CD}\One Way Glass CD1\01 - Trifle - One Way Glass.wav

Pre-gap length 0:00:02.00

Peak level 94.2 %
Extraction speed 1.1 X
Track quality 99.9 %
Test CRC 1B677AEE
Copy CRC 1B677AEE
Track not present in AccurateRip database
Copy OK

Track 2

Filename C:\Users\ian\Desktop\VA - One Way Glass Dancefloor Prog Brit Jazz And Funky Folk 1968-75 (2017) [FLAC] {3CD}\One Way Glass CD1\02 - Colosseum - Elegy.wav

Peak level 94.2 %
Extraction speed 1.3 X
Track quality 100.0 %
Test CRC 6A16A74B
Copy CRC 6A16A74B
Track not present in AccurateRip database
Copy OK

Track 3

Filename C:\Users\ian\Desktop\VA - One Way Glass Dancefloor Prog Brit Jazz And Funky Folk 1968-75 (2017) [FLAC] {3CD}\One Way Glass CD1\03 - Curtiss Maldoon - Man From Afghanistan.wav

Pre-gap length 0:00:01.58

Peak level 94.2 %
Extraction speed 1.4 X
Track quality 100.0 %
Test CRC C093B545
Copy CRC C093B545
Track not present in AccurateRip database
Copy OK

Track 4

Filename C:\Users\ian\Desktop\VA - One Way Glass Dancefloor Prog Brit Jazz And Funky Folk 1968-75 (2017) [FLAC] {3CD}\One Way Glass CD1\04 - Paul Brett Sage - 3D Mona Lisa.wav

Pre-gap length 0:00:01.14

Peak level 94.2 %
Extraction speed 1.5 X
Track quality 100.0 %
Test CRC 7F7C6DE2
Copy CRC 7F7C6DE2
Track not present in AccurateRip database
Copy OK

Track 5

Filename C:\Users\ian\Desktop\VA - One Way Glass Dancefloor Prog Brit Jazz And Funky Folk 1968-75 (2017) [FLAC] {3CD}\One Way Glass CD1\05 - Quicksand - Home Is Where I Belong.wav

Pre-gap length 0:00:00.45

Peak level 94.2 %
Extraction speed 1.5 X
Track quality 99.9 %
Test CRC 5238B92D
Copy CRC 5238B92D
Track not present in AccurateRip database
Copy OK

Track 6

Filename C:\Users\ian\Desktop\VA - One Way Glass Dancefloor Prog Brit Jazz And Funky Folk 1968-75 (2017) [FLAC] {3CD}\One Way Glass CD1\06 - Second Hand - Somethin' You Got.wav

Pre-gap length 0:00:01.34

Peak level 93.9 %
Extraction speed 1.4 X
Track quality 99.9 %
Test CRC 2680A222
Copy CRC 2680A222
Track not present in AccurateRip database
Copy OK

Track 7

Filename C:\Users\ian\Desktop\VA - One Way Glass Dancefloor Prog Brit Jazz And Funky Folk 1968-75 (2017) [FLAC] {3CD}\One Way Glass CD1\07 - Paladin - Get One Together.wav

Pre-gap length 0:00:01.57

Peak level 94.2 %
Extraction speed 1.4 X
Track quality 99.9 %
Test CRC F6E5C89C
Copy CRC F6E5C89C
Track not present in AccurateRip database
Copy OK

Track 8

Filename C:\Users\ian\Desktop\VA - One Way Glass Dancefloor Prog Brit Jazz And Funky Folk 1968-75 (2017) [FLAC] {3CD}\One Way Glass CD1\08 - Fat Mattress - Cold Wall Of Stone.wav

Pre-gap length 0:00:01.12

Peak level 94.2 %
Extraction speed 1.7 X
Track quality 100.0 %
Test CRC 60CFFD3B
Copy CRC 60CFFD3B
Track not present in AccurateRip database
Copy OK

Track 9

Filename C:\Users\ian\Desktop\VA - One Way Glass Dancefloor Prog Brit Jazz And Funky Folk 1968-75 (2017) [FLAC] {3CD}\One Way Glass CD1\09 - Hard Stuff - Libel.wav

Pre-gap length 0:00:01.58

Peak level 94.2 %
Extraction speed 1.9 X
Track quality 100.0 %
Test CRC A75022D7
Copy CRC A75022D7
Track not present in AccurateRip database
Copy OK

Track 10

Filename C:\Users\ian\Desktop\VA - One Way Glass Dancefloor Prog Brit Jazz And Funky Folk 1968-75 (2017) [FLAC] {3CD}\One Way Glass CD1\10 - Gravy Train - Sanctuary.wav

Pre-gap length 0:00:02.14

Peak level 94.2 %
Extraction speed 2.0 X
Track quality 100.0 %
Test CRC 44434C56
Copy CRC 44434C56
Track not present in AccurateRip database
Copy OK

Track 11

Filename C:\Users\ian\Desktop\VA - One Way Glass Dancefloor Prog Brit Jazz And Funky Folk 1968-75 (2017) [FLAC] {3CD}\One Way Glass CD1\11 - The Web - City Of Darkness.wav

Pre-gap length 0:00:01.26

Peak level 94.2 %
Extraction speed 1.9 X
Track quality 100.0 %
Test CRC 3A39C643
Copy CRC 3A39C643
Track not present in AccurateRip database
Copy OK

Track 12

Filename C:\Users\ian\Desktop\VA - One Way Glass Dancefloor Prog Brit Jazz And Funky Folk 1968-75 (2017) [FLAC] {3CD}\One Way Glass CD1\12 - Patrick Campbell-Lyons - Out Of Nowhere.wav

Pre-gap length 0:00:02.14

Peak level 94.2 %
Extraction speed 1.8 X
Track quality 100.0 %
Test CRC 0A968806
Copy CRC 0A968806
Track not present in AccurateRip database
Copy OK

Track 13

Filename C:\Users\ian\Desktop\VA - One Way Glass Dancefloor Prog Brit Jazz And Funky Folk 1968-75 (2017) [FLAC] {3CD}\One Way Glass CD1\13 - Gasoline Band - The Bitch.wav

Pre-gap length 0:00:01.58

Peak level 94.2 %
Extraction speed 2.2 X
Track quality 100.0 %
Test CRC 83922CF0
Copy CRC 83922CF0
Track not present in AccurateRip database
Copy OK

Track 14

Filename C:\Users\ian\Desktop\VA - One Way Glass Dancefloor Prog Brit Jazz And Funky Folk 1968-75 (2017) [FLAC] {3CD}\One Way Glass CD1\14 - Pentangle - I Saw An Angel.wav

Pre-gap length 0:00:01.64

Peak level 94.2 %
Extraction speed 2.0 X
Track quality 100.0 %
Test CRC 82A7CB4B
Copy CRC 82A7CB4B
Track not present in AccurateRip database
Copy OK

Track 15

Filename C:\Users\ian\Desktop\VA - One Way Glass Dancefloor Prog Brit Jazz And Funky Folk 1968-75 (2017) [FLAC] {3CD}\One Way Glass CD1\15 - Jonesy - Ricochet.wav

Pre-gap length 0:00:01.18

Peak level 94.2 %
Extraction speed 2.3 X
Track quality 100.0 %
Test CRC 16274BD6
Copy CRC 16274BD6
Track not present in AccurateRip database
Copy OK

Track 16

Filename C:\Users\ian\Desktop\VA - One Way Glass Dancefloor Prog Brit Jazz And Funky Folk 1968-75 (2017) [FLAC] {3CD}\One Way Glass CD1\16 - Edwards Hand - Revolution's Death Man.wav

Pre-gap length 0:00:01.28

Peak level 94.2 %
Extraction speed 2.3 X
Track quality 100.0 %
Test CRC 622960C6
Copy CRC 622960C6
Track not present in AccurateRip database
Copy OK

Track 17

Filename C:\Users\ian\Desktop\VA - One Way Glass Dancefloor Prog Brit Jazz And Funky Folk 1968-75 (2017) [FLAC] {3CD}\One Way Glass CD1\17 - Bond & Brown - Macumbe.wav

Pre-gap length 0:00:01.52

Peak level 100.0 %
Extraction speed 2.3 X
Track quality 100.0 %
Test CRC A796AC1A
Copy CRC A796AC1A
Track not present in AccurateRip database
Copy OK

Track 18

Filename C:\Users\ian\Desktop\VA - One Way Glass Dancefloor Prog Brit Jazz And Funky Folk 1968-75 (2017) [FLAC] {3CD}\One Way Glass CD1\18 - CMU - Henry.wav

Pre-gap length 0:00:01.64

Peak level 94.2 %
Extraction speed 2.2 X
Track quality 99.9 %
Test CRC E181381F
Copy CRC E181381F
Track not present in AccurateRip database
Copy OK

Track 19

Filename C:\Users\ian\Desktop\VA - One Way Glass Dancefloor Prog Brit Jazz And Funky Folk 1968-75 (2017) [FLAC] {3CD}\One Way Glass CD1\19 - Knocker Jungle - Sunburnt Virgin Trousers.wav

Pre-gap length 0:00:01.81

Peak level 94.2 %
Extraction speed 2.2 X
Track quality 100.0 %
Test CRC 387F012C
Copy CRC 387F012C
Track not present in AccurateRip database
Copy OK

Track 20

Filename C:\Users\ian\Desktop\VA - One Way Glass Dancefloor Prog Brit Jazz And Funky Folk 1968-75 (2017) [FLAC] {3CD}\One Way Glass CD1\20 - Climax Chicago Blues Band - Cubano Chant.wav

Pre-gap length 0:00:01.41

Peak level 94.2 %
Extraction speed 2.4 X
Track quality 99.9 %
Test CRC A7BB7F41
Copy CRC A7BB7F41
Track not present in AccurateRip database
Copy OK

Track 21

Filename C:\Users\ian\Desktop\VA - One Way Glass Dancefloor Prog Brit Jazz And Funky Folk 1968-75 (2017) [FLAC] {3CD}\One Way Glass CD1\21 - Open Road - Shes My Sister.wav

Pre-gap length 0:00:01.22

Peak level 94.2 %
Extraction speed 2.4 X
Track quality 100.0 %
Test CRC 181449AF
Copy CRC 181449AF
Track not present in AccurateRip database
Copy OK

Track 22

Filename C:\Users\ian\Desktop\VA - One Way Glass Dancefloor Prog Brit Jazz And Funky Folk 1968-75 (2017) [FLAC] {3CD}\One Way Glass CD1\22 - Crazy World Of Arthur Brown - The Lord Doesn't Want You.wav

Pre-gap length 0:00:00.76

Peak level 94.2 %
Extraction speed 2.5 X
Track quality 100.0 %
Test CRC F676AA36
Copy CRC F676AA36
Track not present in AccurateRip database
Copy OK


None of the tracks are present in the AccurateRip database

No errors occurred

End of status report

–– CUETools DB Plugin V2.1.6

[CTDB TOCID: ke6HI.Anlm950K9KsFH9QajsYe0-] database access error: The remote name could not be resolved: 'db.cuetools.net'


==== Log checksum 22DE3A2DE71A50DDC094BFF196E74D4172265B59CAF967C34C18DF20FBCC975A ====



Exact Audio Copy V1.2 from 12. August 2016

EAC extraction logfile from 3. November 2017, 13:40

Various Artists / One Way Glass CD2

Used drive : TSSTcorpCDDVDW SE-S084F Adapter: 1 ID: 1

Read mode : Secure
Utilize accurate stream : Yes
Defeat audio cache : Yes
Make use of C2 pointers : No

Read offset correction : 6
Overread into Lead-In and Lead-Out : No
Fill up missing offset samples with silence : Yes
Delete leading and trailing silent blocks : No
Null samples used in CRC calculations : Yes
Used interface : Native Win32 interface for Win NT & 2000
Gap handling : Appended to previous track

Used output format : User Defined Encoder
Selected bitrate : 1024 kBit/s
Quality : High
Add ID3 tag : No
Command line compressor : C:\Program Files (x86)\Exact Audio Copy\Flac\flac.exe
Additional command line options : -8 -V -T "ARTIST=%artist%" -T "TITLE=%title%" -T "ALBUM=%albumtitle%" -T "DATE=%year%" -T "TRACKNUMBER=%tracknr%" -T "GENRE=%genre%" -T "PERFORMER=%albuminterpret%" -T "COMPOSER=%composer%" %haslyrics%–tag-from-file=LYRICS="%lyricsfile%"%haslyrics% -T "ALBUMARTIST=%albumartist%" -T "DISCNUMBER=%cdnumber%" -T "TOTALDISCS=%totalcds%" -T "TOTALTRACKS=%numtracks%" -T "COMMENT=%comment%" %source% -o %dest%


TOC of the extracted CD

Track | Start | Length | Start sector | End sector
––––––––––––––––––––––––––––-
1 | 0:00.00 | 3:36.20 | 0 | 16219
2 | 3:36.20 | 4:57.03 | 16220 | 38497
3 | 8:33.23 | 6:05.72 | 38498 | 65944
4 | 14:39.20 | 4:15.45 | 65945 | 85114
5 | 18:54.65 | 3:43.52 | 85115 | 101891
6 | 22:38.42 | 4:41.57 | 101892 | 123023
7 | 27:20.24 | 4:06.30 | 123024 | 141503
8 | 31:26.54 | 4:44.20 | 141504 | 162823
9 | 36:10.74 | 5:42.34 | 162824 | 188507
10 | 41:53.33 | 4:43.31 | 188508 | 209763
11 | 46:36.64 | 3:52.57 | 209764 | 227220
12 | 50:29.46 | 3:16.23 | 227221 | 241943
13 | 53:45.69 | 3:35.67 | 241944 | 258135
14 | 57:21.61 | 2:38.06 | 258136 | 269991
15 | 59:59.67 | 2:33.07 | 269992 | 281473
16 | 62:32.74 | 3:26.66 | 281474 | 296989
17 | 65:59.65 | 2:34.16 | 296990 | 308555
18 | 68:34.06 | 6:49.73 | 308556 | 339303
19 | 75:24.04 | 4:05.40 | 339304 | 357718


Track 1

Filename C:\Users\ian\Desktop\VA - One Way Glass Dancefloor Prog Brit Jazz And Funky Folk 1968-75 (2017) [FLAC] {3CD}\One Way Glass CD2\01 - Melanie - Iv Got My Mojo Working.wav

Pre-gap length 0:00:02.00

Peak level 94.2 %
Extraction speed 2.8 X
Track quality 100.0 %
Test CRC 225D522C
Copy CRC 225D522C
Track not present in AccurateRip database
Copy OK

Track 2

Filename C:\Users\ian\Desktop\VA - One Way Glass Dancefloor Prog Brit Jazz And Funky Folk 1968-75 (2017) [FLAC] {3CD}\One Way Glass CD2\02 - Blue Mink - Eyeballs.wav

Pre-gap length 0:00:01.16

Peak level 94.2 %
Extraction speed 3.2 X
Track quality 100.0 %
Test CRC E12DF47E
Copy CRC E12DF47E
Track not present in AccurateRip database
Copy OK

Track 3

Filename C:\Users\ian\Desktop\VA - One Way Glass Dancefloor Prog Brit Jazz And Funky Folk 1968-75 (2017) [FLAC] {3CD}\One Way Glass CD2\03 - Chillum - Celebration.wav

Pre-gap length 0:00:01.34

Peak level 93.4 %
Extraction speed 3.5 X
Track quality 100.0 %
Test CRC 68EE5F32
Copy CRC 68EE5F32
Track not present in AccurateRip database
Copy OK

Track 4

Filename C:\Users\ian\Desktop\VA - One Way Glass Dancefloor Prog Brit Jazz And Funky Folk 1968-75 (2017) [FLAC] {3CD}\One Way Glass CD2\04 - John Kongos - Confusion About A Goldfish.wav

Pre-gap length 0:00:01.32

Peak level 85.3 %
Extraction speed 3.1 X
Track quality 99.9 %
Test CRC 07EB38FF
Copy CRC 07EB38FF
Track not present in AccurateRip database
Copy OK

Track 5

Filename C:\Users\ian\Desktop\VA - One Way Glass Dancefloor Prog Brit Jazz And Funky Folk 1968-75 (2017) [FLAC] {3CD}\One Way Glass CD2\05 - Skin Alley - Sin Valley.wav

Pre-gap length 0:00:01.10

Peak level 94.2 %
Extraction speed 3.7 X
Track quality 100.0 %
Test CRC B5B024F4
Copy CRC B5B024F4
Track not present in AccurateRip database
Copy OK

Track 6

Filename C:\Users\ian\Desktop\VA - One Way Glass Dancefloor Prog Brit Jazz And Funky Folk 1968-75 (2017) [FLAC] {3CD}\One Way Glass CD2\06 - Jody Grind - Little Message.wav

Pre-gap length 0:00:01.62

Peak level 91.9 %
Extraction speed 4.0 X
Track quality 100.0 %
Test CRC 21618530
Copy CRC 21618530
Track not present in AccurateRip database
Copy OK

Track 7

Filename C:\Users\ian\Desktop\VA - One Way Glass Dancefloor Prog Brit Jazz And Funky Folk 1968-75 (2017) [FLAC] {3CD}\One Way Glass CD2\07 - Dana Gillespie - Werent Born A Man.wav

Pre-gap length 0:00:02.14

Peak level 94.2 %
Extraction speed 4.1 X
Track quality 100.0 %
Test CRC 8745638D
Copy CRC 8745638D
Track not present in AccurateRip database
Copy OK

Track 8

Filename C:\Users\ian\Desktop\VA - One Way Glass Dancefloor Prog Brit Jazz And Funky Folk 1968-75 (2017) [FLAC] {3CD}\One Way Glass CD2\08 - Hardin & York - Drinking My Wine.wav

Pre-gap length 0:00:01.14

Peak level 94.2 %
Extraction speed 4.4 X
Track quality 100.0 %
Test CRC A70A8CF4
Copy CRC A70A8CF4
Track not present in AccurateRip database
Copy OK

Track 9

Filename C:\Users\ian\Desktop\VA - One Way Glass Dancefloor Prog Brit Jazz And Funky Folk 1968-75 (2017) [FLAC] {3CD}\One Way Glass CD2\09 - Juicy Lucy - Shes Mine.wav

Pre-gap length 0:00:01.05

Peak level 94.2 %
Extraction speed 4.7 X
Track quality 100.0 %
Test CRC 9EC1876C
Copy CRC 9EC1876C
Track not present in AccurateRip database
Copy OK

Track 10

Filename C:\Users\ian\Desktop\VA - One Way Glass Dancefloor Prog Brit Jazz And Funky Folk 1968-75 (2017) [FLAC] {3CD}\One Way Glass CD2\10 - Burnin Red Ivanhoe - Aves.wav

Pre-gap length 0:00:01.64

Peak level 99.4 %
Extraction speed 4.8 X
Track quality 100.0 %
Test CRC 59FA25C4
Copy CRC 59FA25C4
Track not present in AccurateRip database
Copy OK

Track 11

Filename C:\Users\ian\Desktop\VA - One Way Glass Dancefloor Prog Brit Jazz And Funky Folk 1968-75 (2017) [FLAC] {3CD}\One Way Glass CD2\11 - Demon Fuzz - Message To Mankind.wav

Pre-gap length 0:00:01.82

Peak level 94.2 %
Extraction speed 3.9 X
Track quality 99.9 %
Test CRC 6FE6D72B
Copy CRC 6FE6D72B
Track not present in AccurateRip database
Copy OK

Track 12

Filename C:\Users\ian\Desktop\VA - One Way Glass Dancefloor Prog Brit Jazz And Funky Folk 1968-75 (2017) [FLAC] {3CD}\One Way Glass CD2\12 - Alan James Eastwood - Close To The Truth.wav

Pre-gap length 0:00:01.28

Peak level 94.2 %
Extraction speed 4.7 X
Track quality 100.0 %
Test CRC 69E0D513
Copy CRC 69E0D513
Track not present in AccurateRip database
Copy OK

Track 13

Filename C:\Users\ian\Desktop\VA - One Way Glass Dancefloor Prog Brit Jazz And Funky Folk 1968-75 (2017) [FLAC] {3CD}\One Way Glass CD2\13 - Siren - Wake Up.wav

Pre-gap length 0:00:00.78

Peak level 94.2 %
Extraction speed 4.9 X
Track quality 100.0 %
Test CRC D51187EF
Copy CRC D51187EF
Track not present in AccurateRip database
Copy OK

Track 14

Filename C:\Users\ian\Desktop\VA - One Way Glass Dancefloor Prog Brit Jazz And Funky Folk 1968-75 (2017) [FLAC] {3CD}\One Way Glass CD2\14 - Curtis Knight Zeus - The Devil Made Me Do It.wav

Pre-gap length 0:00:00.44

Peak level 94.2 %
Extraction speed 4.8 X
Track quality 100.0 %
Test CRC F43C17AA
Copy CRC F43C17AA
Track not present in AccurateRip database
Copy OK

Track 15

Filename C:\Users\ian\Desktop\VA - One Way Glass Dancefloor Prog Brit Jazz And Funky Folk 1968-75 (2017) [FLAC] {3CD}\One Way Glass CD2\15 - Atlantic Bridge - Hillary Dickinson.wav

Pre-gap length 0:00:02.09

Peak level 94.2 %
Extraction speed 4.8 X
Track quality 100.0 %
Test CRC 0D9556DD
Copy CRC 0D9556DD
Track not present in AccurateRip database
Copy OK

Track 16

Filename C:\Users\ian\Desktop\VA - One Way Glass Dancefloor Prog Brit Jazz And Funky Folk 1968-75 (2017) [FLAC] {3CD}\One Way Glass CD2\16 - Blue Beard - Sly Willy.wav

Pre-gap length 0:00:01.60

Peak level 94.2 %
Extraction speed 5.1 X
Track quality 100.0 %
Test CRC 79DD4447
Copy CRC 79DD4447
Track not present in AccurateRip database
Copy OK

Track 17

Filename C:\Users\ian\Desktop\VA - One Way Glass Dancefloor Prog Brit Jazz And Funky Folk 1968-75 (2017) [FLAC] {3CD}\One Way Glass CD2\17 - Joan Armatrading - Mean Old Man.wav

Pre-gap length 0:00:01.41

Peak level 94.2 %
Extraction speed 4.9 X
Track quality 100.0 %
Test CRC 2F370E70
Copy CRC 2F370E70
Track not present in AccurateRip database
Copy OK

Track 18

Filename C:\Users\ian\Desktop\VA - One Way Glass Dancefloor Prog Brit Jazz And Funky Folk 1968-75 (2017) [FLAC] {3CD}\One Way Glass CD2\18 - The Spencer Davis Group - Funky.wav

Pre-gap length 0:00:01.54

Peak level 94.2 %
Extraction speed 0.8 X
Track quality 100.0 %
Test CRC 7EDE6C59
Copy CRC 7EDE6C59
Track not present in AccurateRip database
Copy OK

Track 19

Filename C:\Users\ian\Desktop\VA - One Way Glass Dancefloor Prog Brit Jazz And Funky Folk 1968-75 (2017) [FLAC] {3CD}\One Way Glass CD2\19 - The Foundations - In The Beginning.wav

Pre-gap length 0:00:01.20

Peak level 94.2 %
Extraction speed 5.6 X
Track quality 100.0 %
Test CRC E578172D
Copy CRC E578172D
Track not present in AccurateRip database
Copy OK


None of the tracks are present in the AccurateRip database

No errors occurred

End of status report

–– CUETools DB Plugin V2.1.6

[CTDB TOCID: DDLGtWJtd52u5dEGwLwysvDp4M8-] found
Submit result: DDLGtWJtd52u5dEGwLwysvDp4M8- has been confirmed
Track | CTDB Status
1 | (2/2) Accurately ripped
2 | (2/2) Accurately ripped
3 | (2/2) Accurately ripped
4 | (2/2) Accurately ripped
5 | (2/2) Accurately ripped
6 | (2/2) Accurately ripped
7 | (2/2) Accurately ripped
8 | (2/2) Accurately ripped
9 | (2/2) Accurately ripped
10 | (2/2) Accurately ripped
11 | (2/2) Accurately ripped
12 | (2/2) Accurately ripped
13 | (2/2) Accurately ripped
14 | (2/2) Accurately ripped
15 | (2/2) Accurately ripped
16 | (2/2) Accurately ripped
17 | (2/2) Accurately ripped
18 | (2/2) Accurately ripped
19 | (2/2) Accurately ripped


==== Log checksum A020F74B503A83042D19CBB839967FD11D68AEE7C8EBAAB571AAD8B200837895 ====




Exact Audio Copy V1.2 from 12. August 2016

EAC extraction logfile from 3. November 2017, 14:42

Various Artists / One Way Glass CD3

Used drive : TSSTcorpCDDVDW SE-S084F Adapter: 1 ID: 1

Read mode : Secure
Utilize accurate stream : Yes
Defeat audio cache : Yes
Make use of C2 pointers : No

Read offset correction : 6
Overread into Lead-In and Lead-Out : No
Fill up missing offset samples with silence : Yes
Delete leading and trailing silent blocks : No
Null samples used in CRC calculations : Yes
Used interface : Native Win32 interface for Win NT & 2000
Gap handling : Appended to previous track

Used output format : User Defined Encoder
Selected bitrate : 1024 kBit/s
Quality : High
Add ID3 tag : No
Command line compressor : C:\Program Files (x86)\Exact Audio Copy\Flac\flac.exe
Additional command line options : -8 -V -T "ARTIST=%artist%" -T "TITLE=%title%" -T "ALBUM=%albumtitle%" -T "DATE=%year%" -T "TRACKNUMBER=%tracknr%" -T "GENRE=%genre%" -T "PERFORMER=%albuminterpret%" -T "COMPOSER=%composer%" %haslyrics%–tag-from-file=LYRICS="%lyricsfile%"%haslyrics% -T "ALBUMARTIST=%albumartist%" -T "DISCNUMBER=%cdnumber%" -T "TOTALDISCS=%totalcds%" -T "TOTALTRACKS=%numtracks%" -T "COMMENT=%comment%" %source% -o %dest%


TOC of the extracted CD

Track | Start | Length | Start sector | End sector
––––––––––––––––––––––––––––-
1 | 0:00.00 | 4:24.74 | 0 | 19873
2 | 4:24.74 | 6:50.66 | 19874 | 50689
3 | 11:15.65 | 4:37.53 | 50690 | 71517
4 | 15:53.43 | 4:31.31 | 71518 | 91873
5 | 20:24.74 | 4:14.54 | 91874 | 110977
6 | 24:39.53 | 6:18.39 | 110978 | 139366
7 | 30:58.17 | 3:11.50 | 139367 | 153741
8 | 34:09.67 | 4:05.27 | 153742 | 172143
9 | 38:15.19 | 3:35.14 | 172144 | 188282
10 | 41:50.33 | 5:59.54 | 188283 | 215261
11 | 47:50.12 | 4:58.19 | 215262 | 237630
12 | 52:48.31 | 3:47.37 | 237631 | 254692
13 | 56:35.68 | 6:11.15 | 254693 | 282532
14 | 62:47.08 | 4:11.12 | 282533 | 301369
15 | 66:58.20 | 3:30.13 | 301370 | 317132
16 | 70:28.33 | 4:38.28 | 317133 | 338010
17 | 75:06.61 | 4:05.18 | 338011 | 356403


Track 1

Filename C:\Users\ian\Desktop\VA - One Way Glass Dancefloor Prog Brit Jazz And Funky Folk 1968-75 (2017) [FLAC] {3CD}\One Way Glass CD3\01 - John Kongos - Hes Gonna Step On You Again.wav

Pre-gap length 0:00:02.00

Peak level 94.2 %
Extraction speed 2.9 X
Track quality 100.0 %
Test CRC 2DD2511A
Copy CRC 2DD2511A
Track not present in AccurateRip database
Copy OK

Track 2

Filename C:\Users\ian\Desktop\VA - One Way Glass Dancefloor Prog Brit Jazz And Funky Folk 1968-75 (2017) [FLAC] {3CD}\One Way Glass CD3\02 - Paladin - Bad Times.wav

Pre-gap length 0:00:01.13

Peak level 94.2 %
Extraction speed 3.5 X
Track quality 100.0 %
Test CRC 36993EBD
Copy CRC 36993EBD
Track not present in AccurateRip database
Copy OK

Track 3

Filename C:\Users\ian\Desktop\VA - One Way Glass Dancefloor Prog Brit Jazz And Funky Folk 1968-75 (2017) [FLAC] {3CD}\One Way Glass CD3\03 - The Tremeloes - Instant Whip.wav

Pre-gap length 0:00:01.16

Peak level 84.9 %
Extraction speed 3.6 X
Track quality 100.0 %
Test CRC 1C2D061B
Copy CRC 1C2D061B
Track not present in AccurateRip database
Copy OK

Track 4

Filename C:\Users\ian\Desktop\VA - One Way Glass Dancefloor Prog Brit Jazz And Funky Folk 1968-75 (2017) [FLAC] {3CD}\One Way Glass CD3\04 - Atomic Rooster - The Rock.wav

Pre-gap length 0:00:01.38

Peak level 94.2 %
Extraction speed 3.9 X
Track quality 100.0 %
Test CRC 96748F5A
Copy CRC 96748F5A
Track not present in AccurateRip database
Copy OK

Track 5

Filename C:\Users\ian\Desktop\VA - One Way Glass Dancefloor Prog Brit Jazz And Funky Folk 1968-75 (2017) [FLAC] {3CD}\One Way Glass CD3\05 - Fat Mattress - Margarita.wav

Pre-gap length 0:00:01.74

Peak level 94.2 %
Extraction speed 4.0 X
Track quality 100.0 %
Test CRC 618B5646
Copy CRC 618B5646
Track not present in AccurateRip database
Copy OK

Track 6

Filename C:\Users\ian\Desktop\VA - One Way Glass Dancefloor Prog Brit Jazz And Funky Folk 1968-75 (2017) [FLAC] {3CD}\One Way Glass CD3\06 - Soft Machine - Gesolreut [Live].wav

Pre-gap length 0:00:01.62

Peak level 94.2 %
Extraction speed 4.5 X
Track quality 100.0 %
Test CRC 039FC801
Copy CRC 039FC801
Track not present in AccurateRip database
Copy OK

Track 7

Filename C:\Users\ian\Desktop\VA - One Way Glass Dancefloor Prog Brit Jazz And Funky Folk 1968-75 (2017) [FLAC] {3CD}\One Way Glass CD3\07 - Bridget St John - Some Kind Of Beautiful.wav

Pre-gap length 0:00:02.24

Peak level 94.2 %
Extraction speed 4.3 X
Track quality 100.0 %
Test CRC 4C745FA0
Copy CRC 4C745FA0
Track not present in AccurateRip database
Copy OK

Track 8

Filename C:\Users\ian\Desktop\VA - One Way Glass Dancefloor Prog Brit Jazz And Funky Folk 1968-75 (2017) [FLAC] {3CD}\One Way Glass CD3\08 - Audience - House On The Hill.wav

Peak level 94.2 %
Extraction speed 3.7 X
Track quality 99.9 %
Test CRC 9E763089
Copy CRC 9E763089
Track not present in AccurateRip database
Copy OK

Track 9

Filename C:\Users\ian\Desktop\VA - One Way Glass Dancefloor Prog Brit Jazz And Funky Folk 1968-75 (2017) [FLAC] {3CD}\One Way Glass CD3\09 - Noir - Indian Rope Man.wav

Pre-gap length 0:00:02.01

Peak level 78.2 %
Extraction speed 4.5 X
Track quality 100.0 %
Test CRC 1741B7D1
Copy CRC 1741B7D1
Track not present in AccurateRip database
Copy OK

Track 10

Filename C:\Users\ian\Desktop\VA - One Way Glass Dancefloor Prog Brit Jazz And Funky Folk 1968-75 (2017) [FLAC] {3CD}\One Way Glass CD3\10 - Skin Alley - So Many People.wav

Pre-gap length 0:00:01.49

Peak level 94.2 %
Extraction speed 4.9 X
Track quality 100.0 %
Test CRC E1A711D3
Copy CRC E1A711D3
Track not present in AccurateRip database
Copy OK

Track 11

Filename C:\Users\ian\Desktop\VA - One Way Glass Dancefloor Prog Brit Jazz And Funky Folk 1968-75 (2017) [FLAC] {3CD}\One Way Glass CD3\11 - Trifle - Alibi Annie.wav

Pre-gap length 0:00:01.89

Peak level 94.2 %
Extraction speed 5.0 X
Track quality 100.0 %
Test CRC C40BAEC5
Copy CRC C40BAEC5
Track not present in AccurateRip database
Copy OK

Track 12

Filename C:\Users\ian\Desktop\VA - One Way Glass Dancefloor Prog Brit Jazz And Funky Folk 1968-75 (2017) [FLAC] {3CD}\One Way Glass CD3\12 - Juicy Lucy - Im A Thief.wav

Pre-gap length 0:00:01.65

Peak level 94.2 %
Extraction speed 4.9 X
Track quality 100.0 %
Test CRC 953A057D
Copy CRC 953A057D
Track not present in AccurateRip database
Copy OK

Track 13

Filename C:\Users\ian\Desktop\VA - One Way Glass Dancefloor Prog Brit Jazz And Funky Folk 1968-75 (2017) [FLAC] {3CD}\One Way Glass CD3\13 - Hanson - Travelling Like A Gypsy.wav

Peak level 94.2 %
Extraction speed 4.7 X
Track quality 99.9 %
Test CRC 9C7204CE
Copy CRC 9C7204CE
Track not present in AccurateRip database
Copy OK

Track 14

Filename C:\Users\ian\Desktop\VA - One Way Glass Dancefloor Prog Brit Jazz And Funky Folk 1968-75 (2017) [FLAC] {3CD}\One Way Glass CD3\14 - Fair Weather - Looking For The Red Label.wav

Pre-gap length 0:00:00.12

Peak level 94.2 %
Extraction speed 5.3 X
Track quality 100.0 %
Test CRC 7D868CCB
Copy CRC 7D868CCB
Track not present in AccurateRip database
Copy OK

Track 15

Filename C:\Users\ian\Desktop\VA - One Way Glass Dancefloor Prog Brit Jazz And Funky Folk 1968-75 (2017) [FLAC] {3CD}\One Way Glass CD3\15 - The Web - Im A Man.wav

Pre-gap length 0:00:01.58

Peak level 94.2 %
Extraction speed 4.3 X
Track quality 99.9 %
Test CRC 2F47A50B
Copy CRC 2F47A50B
Track not present in AccurateRip database
Copy OK

Track 16

Filename C:\Users\ian\Desktop\VA - One Way Glass Dancefloor Prog Brit Jazz And Funky Folk 1968-75 (2017) [FLAC] {3CD}\One Way Glass CD3\16 - Pesky Gee - Pigs Foot.wav

Pre-gap length 0:00:01.36

Peak level 94.2 %
Extraction speed 5.6 X
Track quality 100.0 %
Test CRC D6DCF380
Copy CRC D6DCF380
Track not present in AccurateRip database
Copy OK

Track 17

Filename C:\Users\ian\Desktop\VA - One Way Glass Dancefloor Prog Brit Jazz And Funky Folk 1968-75 (2017) [FLAC] {3CD}\One Way Glass CD3\17 - John Schroeder Orchestra - One Way Glass.wav

Pre-gap length 0:00:00.93

Peak level 94.2 %
Extraction speed 5.6 X
Track quality 100.0 %
Test CRC BAAA07FA
Copy CRC BAAA07FA
Track not present in AccurateRip database
Copy OK


None of the tracks are present in the AccurateRip database

No errors occurred

End of status report

–– CUETools DB Plugin V2.1.6

[CTDB TOCID: Wn8u_5e1EswbXb1rMEAzadXjVKw-] found
Submit result: Wn8u_5e1EswbXb1rMEAzadXjVKw- has been confirmed
Track | CTDB Status
1 | (2/2) Accurately ripped
2 | (2/2) Accurately ripped
3 | (2/2) Accurately ripped
4 | (2/2) Accurately ripped
5 | (2/2) Accurately ripped
6 | (2/2) Accurately ripped
7 | (2/2) Accurately ripped
8 | (2/2) Accurately ripped
9 | (2/2) Accurately ripped
10 | (2/2) Accurately ripped
11 | (2/2) Accurately ripped
12 | (2/2) Accurately ripped
13 | (2/2) Accurately ripped
14 | (2/2) Accurately ripped
15 | (2/2) Accurately ripped
16 | (2/2) Accurately ripped
17 | (2/2) Accurately ripped


==== Log checksum 2A5E274E67B36C47BA7A5D12F8ABF41A8699AF02D3207A8173F3CED725B6FA17 ====


Various Artists - One Way Glass: Dancefloor Prog, Brit Jazz and Funky Folk 1968-1975 (2017) {3CD Set RPMBX 537}



===