Tags
Language
Tags

VA - Rainer Trueby Presents Soulgliding (2020)

Posted By: delpotro
VA - Rainer Trueby Presents Soulgliding (2020)

VA - Rainer Trueby Presents Soulgliding (2020)
EAC Rip | FLAC (tracks+log+.cue) - 421 Mb | MP3 CBR 320 kbps - 154 Mb | Covers included | 01:00:11
Soul, Funk, Disco, Jazz | Label: BBE Music

Former member of A Forest Mighty Black and founder of Trüby Trio, Rainer Trueby presents his new compilation, Soulgliding, released on BBE Music. Starting life as a group on Facebook, ‘Soulgliding’ is a phrase coined by Rainer Trueby to describe the more languid, smoother side of 2-Step, Boogie, Modern Soul and even Jazz. This silky collection spans several decades and sums up what Soulgliding is all about: evocative airy music that feels like a dream-flight across a friendly sky.

Or, as Patrick Forge puts it in his wonderful sleeve notes…

“Soulgliding….. It’s all in that word, a stroke of genius, no explanation needed, I knew what it was about before I even read the rules. Anyway there was only one rule that really mattered, the speed limit, nothing beyond 110bpm. What I didn’t know when Rainer first convened the eponymous Facebook group was just how addictive it would be. Several months of sharing, liking, commenting, loving and frantic dives into Discogs later, and Soulgliding has become a thing. A genre? Well, almost. This selection lovingly compiled by Rainer himself goes a long way to solidify the notion and stake a claim on the territory.

This set of gliders has all the elements; from the slow (enough!) boogie of Crystal Winds, to the jazzy excursions courtesy of Ambiance and Les Hooper, and a clutch of tunes that are closer to the original 2-Step blueprint from Demo Cates, Bridge, Cloud One and Donna McGhee. Then there are the eighties drum machine grooves of Patrice Rushen and Fifth Of Heaven and the ethereal beatless magic of Peter Brown’s “Without Love”. A selection that manages to amalgamate plenty of obscurities without losing the essence, a selection which shimmers, soothes, inspires……glides.”
Tracklist:
1. Peter Brown – Without Love (02:36)
2. Les Hooper – Lady of the Night (05:49)
3. Ambiance – Camouflage (05:16)
4. Mellaa – Makin' Love in the Fast Lane (03:45)
5. Ray James – Nature Boy (04:07)
6. Bridge – Next to Me (04:05)
7. Fifth Of Heaven – Just a Little More (05:33)
8. Patrice Rushen – To Each His Own (04:15)
9. Cast – Sweetness (05:09)
10. Demo Cates – Memories of Moments (03:52)
11. Crystal Winds – Lovers Holiday (04:32)
12. Donna McGhee – It Ain't No Big Thing (06:39)
13. Cloud One – Dust to Dust (04:24)

Exact Audio Copy V1.3 from 2. September 2016

EAC extraction logfile from 9. March 2020, 13:12

Various Artists / Rainer Trueby Presents Soulgliding

Used drive : PLEXTOR PX-891SAF Adapter: 1 ID: 0

Read mode : Secure
Utilize accurate stream : Yes
Defeat audio cache : Yes
Make use of C2 pointers : No

Read offset correction : 6
Overread into Lead-In and Lead-Out : No
Fill up missing offset samples with silence : Yes
Delete leading and trailing silent blocks : No
Null samples used in CRC calculations : Yes
Used interface : Native Win32 interface for Win NT & 2000
Gap handling : Appended to previous track

Used output format : User Defined Encoder
Selected bitrate : 1024 kBit/s
Quality : High
Add ID3 tag : No
Command line compressor : C:\Program Files (x86)\Exact Audio Copy\Flac\flac.exe
Additional command line options : -8 -V -T "ARTIST=%artist%" -T "TITLE=%title%" -T "ALBUM=%albumtitle%" -T "DATE=%year%" -T "TRACKNUMBER=%tracknr%" -T "GENRE=%genre%" -T "PERFORMER=%albuminterpret%" -T "COMPOSER=%composer%" %haslyrics%–tag-from-file=LYRICS="%lyricsfile%"%haslyrics% -T "ALBUMARTIST=%albumartist%" -T "DISCNUMBER=%cdnumber%" -T "TOTALDISCS=%totalcds%" -T "TOTALTRACKS=%numtracks%" -T "COMMENT=%comment%" %source% -o %dest%


TOC of the extracted CD

Track | Start | Length | Start sector | End sector
––––––––––––––––––––––––––––-
1 | 0:00.00 | 2:37.20 | 0 | 11794
2 | 2:37.20 | 5:49.49 | 11795 | 38018
3 | 8:26.69 | 5:17.16 | 38019 | 61809
4 | 13:44.10 | 3:46.17 | 61810 | 78776
5 | 17:30.27 | 4:08.39 | 78777 | 97415
6 | 21:38.66 | 4:06.32 | 97416 | 115897
7 | 25:45.23 | 5:33.72 | 115898 | 140944
8 | 31:19.20 | 4:15.34 | 140945 | 160103
9 | 35:34.54 | 5:10.20 | 160104 | 183373
10 | 40:44.74 | 3:52.28 | 183374 | 200801
11 | 44:37.27 | 4:32.45 | 200802 | 221246
12 | 49:09.72 | 6:37.00 | 221247 | 251021
13 | 55:46.72 | 4:24.70 | 251022 | 270891


Track 1

Filename D:\#cdr\#wav+flac\VA - Rainer Trueby Presents Soulgliding\01. Peter Brown - Without Love.wav

Pre-gap length 0:00:02.00

Peak level 96.1 %
Extraction speed 4.7 X
Track quality 100.0 %
Test CRC 9D04DC39
Copy CRC 9D04DC39
Track not present in AccurateRip database
Copy OK

Track 2

Filename D:\#cdr\#wav+flac\VA - Rainer Trueby Presents Soulgliding\02. Les Hooper - Lady Of The Night.wav

Pre-gap length 0:00:00.78

Peak level 97.7 %
Extraction speed 5.8 X
Track quality 100.0 %
Test CRC DCD13926
Copy CRC DCD13926
Track not present in AccurateRip database
Copy OK

Track 3

Filename D:\#cdr\#wav+flac\VA - Rainer Trueby Presents Soulgliding\03. Ambiance - Camouflage.wav

Pre-gap length 0:00:00.06

Peak level 94.0 %
Extraction speed 6.5 X
Track quality 100.0 %
Test CRC 0E4A4C31
Copy CRC 0E4A4C31
Track not present in AccurateRip database
Copy OK

Track 4

Filename D:\#cdr\#wav+flac\VA - Rainer Trueby Presents Soulgliding\04. Mellaa - Makin' Love In The Fast Lane.wav

Pre-gap length 0:00:00.24

Peak level 96.0 %
Extraction speed 6.7 X
Track quality 100.0 %
Test CRC D5DE7720
Copy CRC D5DE7720
Track not present in AccurateRip database
Copy OK

Track 5

Filename D:\#cdr\#wav+flac\VA - Rainer Trueby Presents Soulgliding\05. Ray & James - Nature Boy.wav

Pre-gap length 0:00:00.14

Peak level 99.8 %
Extraction speed 7.1 X
Track quality 100.0 %
Test CRC CCB1CCA1
Copy CRC CCB1CCA1
Track not present in AccurateRip database
Copy OK

Track 6

Filename D:\#cdr\#wav+flac\VA - Rainer Trueby Presents Soulgliding\06. Bridge - Next To Me.wav

Pre-gap length 0:00:00.60

Peak level 94.1 %
Extraction speed 7.5 X
Track quality 100.0 %
Test CRC 73004ED6
Copy CRC 73004ED6
Track not present in AccurateRip database
Copy OK

Track 7

Filename D:\#cdr\#wav+flac\VA - Rainer Trueby Presents Soulgliding\07. Fifth Of Heaven - Just A Little More.wav

Pre-gap length 0:00:00.38

Peak level 94.1 %
Extraction speed 7.1 X
Track quality 99.9 %
Test CRC 5F957C3E
Copy CRC 5F957C3E
Track not present in AccurateRip database
Copy OK

Track 8

Filename D:\#cdr\#wav+flac\VA - Rainer Trueby Presents Soulgliding\08. Patrice Rushen - To Each His Own.wav

Pre-gap length 0:00:00.50

Peak level 91.4 %
Extraction speed 8.4 X
Track quality 100.0 %
Test CRC 58DEE905
Copy CRC 58DEE905
Track not present in AccurateRip database
Copy OK

Track 9

Filename D:\#cdr\#wav+flac\VA - Rainer Trueby Presents Soulgliding\09. Cast - Sweetness.wav

Pre-gap length 0:00:00.18

Peak level 97.7 %
Extraction speed 8.9 X
Track quality 100.0 %
Test CRC AEBDA0B2
Copy CRC AEBDA0B2
Track not present in AccurateRip database
Copy OK

Track 10

Filename D:\#cdr\#wav+flac\VA - Rainer Trueby Presents Soulgliding\10. Demo Cates - Memories Of Moments.wav

Pre-gap length 0:00:00.12

Peak level 95.5 %
Extraction speed 7.3 X
Track quality 99.9 %
Test CRC 17E274FD
Copy CRC 17E274FD
Track not present in AccurateRip database
Copy OK

Track 11

Filename D:\#cdr\#wav+flac\VA - Rainer Trueby Presents Soulgliding\11. Crystal Winds - Lovers Holiday.wav

Pre-gap length 0:00:00.26

Peak level 96.1 %
Extraction speed 8.0 X
Track quality 99.9 %
Test CRC B5C4BA9E
Copy CRC B5C4BA9E
Track not present in AccurateRip database
Copy OK

Track 12

Filename D:\#cdr\#wav+flac\VA - Rainer Trueby Presents Soulgliding\12. Donna McGhee - It Ain't No Big Thing.wav

Pre-gap length 0:00:00.53

Peak level 98.3 %
Extraction speed 10.2 X
Track quality 100.0 %
Test CRC 1484B444
Copy CRC 1484B444
Track not present in AccurateRip database
Copy OK

Track 13

Filename D:\#cdr\#wav+flac\VA - Rainer Trueby Presents Soulgliding\13. Cloud One - Dust To Dust.wav

Pre-gap length 0:00:00.54

Peak level 97.7 %
Extraction speed 8.5 X
Track quality 99.9 %
Test CRC E0FA88A5
Copy CRC E0FA88A5
Track not present in AccurateRip database
Copy OK


None of the tracks are present in the AccurateRip database

No errors occurred

End of status report

–– CUETools DB Plugin V2.1.6

[CTDB TOCID: _6BtGzW81b6ZTl4sfh1jAWtMavk-] found
Submit result: _6BtGzW81b6ZTl4sfh1jAWtMavk- has been confirmed
Track | CTDB Status
1 | (1/1) Accurately ripped
2 | (1/1) Accurately ripped
3 | (1/1) Accurately ripped
4 | (1/1) Accurately ripped
5 | (1/1) Accurately ripped
6 | (1/1) Accurately ripped
7 | (1/1) Accurately ripped
8 | (1/1) Accurately ripped
9 | (1/1) Accurately ripped
10 | (1/1) Accurately ripped
11 | (1/1) Accurately ripped
12 | (1/1) Accurately ripped
13 | (1/1) Accurately ripped


==== Log checksum AB0782AC011603721F95B33F0BDD76895FB39F0E4BF8AE5B6EBE1976D158E6F3 ====

––––––––––––––––––––––––––––––

Exact Audio Copy V1.3 from 2. September 2016

EAC extraction logfile from 9. March 2020, 13:12

Various Artists / Rainer Trueby Presents Soulgliding

Used drive : PLEXTOR PX-891SAF Adapter: 1 ID: 0

Read mode : Secure
Utilize accurate stream : Yes
Defeat audio cache : Yes
Make use of C2 pointers : No

Read offset correction : 6
Overread into Lead-In and Lead-Out : No
Fill up missing offset samples with silence : Yes
Delete leading and trailing silent blocks : No
Null samples used in CRC calculations : Yes
Used interface : Native Win32 interface for Win NT & 2000
Gap handling : Appended to previous track

Used output format : User Defined Encoder
Selected bitrate : 1024 kBit/s
Quality : High
Add ID3 tag : No
Command line compressor : C:\Program Files (x86)\Exact Audio Copy\Flac\flac.exe
Additional command line options : -8 -V -T "ARTIST=%artist%" -T "TITLE=%title%" -T "ALBUM=%albumtitle%" -T "DATE=%year%" -T "TRACKNUMBER=%tracknr%" -T "GENRE=%genre%" -T "PERFORMER=%albuminterpret%" -T "COMPOSER=%composer%" %haslyrics%–tag-from-file=LYRICS="%lyricsfile%"%haslyrics% -T "ALBUMARTIST=%albumartist%" -T "DISCNUMBER=%cdnumber%" -T "TOTALDISCS=%totalcds%" -T "TOTALTRACKS=%numtracks%" -T "COMMENT=%comment%" %source% -o %dest%


TOC of the extracted CD

Track | Start | Length | Start sector | End sector
––––––––––––––––––––––––––––-
1 | 0:00.00 | 2:37.20 | 0 | 11794
2 | 2:37.20 | 5:49.49 | 11795 | 38018
3 | 8:26.69 | 5:17.16 | 38019 | 61809
4 | 13:44.10 | 3:46.17 | 61810 | 78776
5 | 17:30.27 | 4:08.39 | 78777 | 97415
6 | 21:38.66 | 4:06.32 | 97416 | 115897
7 | 25:45.23 | 5:33.72 | 115898 | 140944
8 | 31:19.20 | 4:15.34 | 140945 | 160103
9 | 35:34.54 | 5:10.20 | 160104 | 183373
10 | 40:44.74 | 3:52.28 | 183374 | 200801
11 | 44:37.27 | 4:32.45 | 200802 | 221246
12 | 49:09.72 | 6:37.00 | 221247 | 251021
13 | 55:46.72 | 4:24.70 | 251022 | 270891


Track 1

Filename D:\#cdr\#wav+flac\VA - Rainer Trueby Presents Soulgliding\01. Peter Brown - Without Love.wav

Pre-gap length 0:00:02.00

Peak level 96.1 %
Extraction speed 4.7 X
Track quality 100.0 %
Test CRC 9D04DC39
Copy CRC 9D04DC39
Track not present in AccurateRip database
Copy OK

Track 2

Filename D:\#cdr\#wav+flac\VA - Rainer Trueby Presents Soulgliding\02. Les Hooper - Lady Of The Night.wav

Pre-gap length 0:00:00.78

Peak level 97.7 %
Extraction speed 5.8 X
Track quality 100.0 %
Test CRC DCD13926
Copy CRC DCD13926
Track not present in AccurateRip database
Copy OK

Track 3

Filename D:\#cdr\#wav+flac\VA - Rainer Trueby Presents Soulgliding\03. Ambiance - Camouflage.wav

Pre-gap length 0:00:00.06

Peak level 94.0 %
Extraction speed 6.5 X
Track quality 100.0 %
Test CRC 0E4A4C31
Copy CRC 0E4A4C31
Track not present in AccurateRip database
Copy OK

Track 4

Filename D:\#cdr\#wav+flac\VA - Rainer Trueby Presents Soulgliding\04. Mellaa - Makin' Love In The Fast Lane.wav

Pre-gap length 0:00:00.24

Peak level 96.0 %
Extraction speed 6.7 X
Track quality 100.0 %
Test CRC D5DE7720
Copy CRC D5DE7720
Track not present in AccurateRip database
Copy OK

Track 5

Filename D:\#cdr\#wav+flac\VA - Rainer Trueby Presents Soulgliding\05. Ray & James - Nature Boy.wav

Pre-gap length 0:00:00.14

Peak level 99.8 %
Extraction speed 7.1 X
Track quality 100.0 %
Test CRC CCB1CCA1
Copy CRC CCB1CCA1
Track not present in AccurateRip database
Copy OK

Track 6

Filename D:\#cdr\#wav+flac\VA - Rainer Trueby Presents Soulgliding\06. Bridge - Next To Me.wav

Pre-gap length 0:00:00.60

Peak level 94.1 %
Extraction speed 7.5 X
Track quality 100.0 %
Test CRC 73004ED6
Copy CRC 73004ED6
Track not present in AccurateRip database
Copy OK

Track 7

Filename D:\#cdr\#wav+flac\VA - Rainer Trueby Presents Soulgliding\07. Fifth Of Heaven - Just A Little More.wav

Pre-gap length 0:00:00.38

Peak level 94.1 %
Extraction speed 7.1 X
Track quality 99.9 %
Test CRC 5F957C3E
Copy CRC 5F957C3E
Track not present in AccurateRip database
Copy OK

Track 8

Filename D:\#cdr\#wav+flac\VA - Rainer Trueby Presents Soulgliding\08. Patrice Rushen - To Each His Own.wav

Pre-gap length 0:00:00.50

Peak level 91.4 %
Extraction speed 8.4 X
Track quality 100.0 %
Test CRC 58DEE905
Copy CRC 58DEE905
Track not present in AccurateRip database
Copy OK

Track 9

Filename D:\#cdr\#wav+flac\VA - Rainer Trueby Presents Soulgliding\09. Cast - Sweetness.wav

Pre-gap length 0:00:00.18

Peak level 97.7 %
Extraction speed 8.9 X
Track quality 100.0 %
Test CRC AEBDA0B2
Copy CRC AEBDA0B2
Track not present in AccurateRip database
Copy OK

Track 10

Filename D:\#cdr\#wav+flac\VA - Rainer Trueby Presents Soulgliding\10. Demo Cates - Memories Of Moments.wav

Pre-gap length 0:00:00.12

Peak level 95.5 %
Extraction speed 7.3 X
Track quality 99.9 %
Test CRC 17E274FD
Copy CRC 17E274FD
Track not present in AccurateRip database
Copy OK

Track 11

Filename D:\#cdr\#wav+flac\VA - Rainer Trueby Presents Soulgliding\11. Crystal Winds - Lovers Holiday.wav

Pre-gap length 0:00:00.26

Peak level 96.1 %
Extraction speed 8.0 X
Track quality 99.9 %
Test CRC B5C4BA9E
Copy CRC B5C4BA9E
Track not present in AccurateRip database
Copy OK

Track 12

Filename D:\#cdr\#wav+flac\VA - Rainer Trueby Presents Soulgliding\12. Donna McGhee - It Ain't No Big Thing.wav

Pre-gap length 0:00:00.53

Peak level 98.3 %
Extraction speed 10.2 X
Track quality 100.0 %
Test CRC 1484B444
Copy CRC 1484B444
Track not present in AccurateRip database
Copy OK

Track 13

Filename D:\#cdr\#wav+flac\VA - Rainer Trueby Presents Soulgliding\13. Cloud One - Dust To Dust.wav

Pre-gap length 0:00:00.54

Peak level 97.7 %
Extraction speed 8.5 X
Track quality 99.9 %
Test CRC E0FA88A5
Copy CRC E0FA88A5
Track not present in AccurateRip database
Copy OK


None of the tracks are present in the AccurateRip database

No errors occurred

End of status report

–– CUETools DB Plugin V2.1.6

[CTDB TOCID: _6BtGzW81b6ZTl4sfh1jAWtMavk-] found
Submit result: _6BtGzW81b6ZTl4sfh1jAWtMavk- has been confirmed
Track | CTDB Status
1 | (1/1) Accurately ripped
2 | (1/1) Accurately ripped
3 | (1/1) Accurately ripped
4 | (1/1) Accurately ripped
5 | (1/1) Accurately ripped
6 | (1/1) Accurately ripped
7 | (1/1) Accurately ripped
8 | (1/1) Accurately ripped
9 | (1/1) Accurately ripped
10 | (1/1) Accurately ripped
11 | (1/1) Accurately ripped
12 | (1/1) Accurately ripped
13 | (1/1) Accurately ripped


==== Log checksum AB0782AC011603721F95B33F0BDD76895FB39F0E4BF8AE5B6EBE1976D158E6F3 ====

Thanks to the Original ripper !