Tags
Language
Tags

VA - The Blues Bible (2020)

Posted By: delpotro
VA - The Blues Bible (2020)

VA - The Blues Bible (2020)
EAC Rip | FLAC (tracks+log+.cue) - 843 Mb | MP3 CBR 320 kbps - 408 Mb | 02:55:32
Blues, Blues Rock | Label: Not Now Music

The fact that a comprehensive collection like this one can exist well into the twenty-first century gives testament to both the staying power of the blues and to the wide influence it has had on other areas of popular music. Whilst few of these have ever been major worldwide hits in the conventional sense, so many of them have provided the roots to rock music that is enjoyed by millions today. This is, we hope, a collection that makes you seek out more, and our Not Now catalogue can offer you very many fine albums to take you further.
Tracklist:
CD 1
01. John Lee Hooker - Boom boom
02. Howlin' Wolf - Smokestack Lightnin'
03. Muddy Waters - I'm Your Hoochie Coochie Man [Casino]
04. Albert King - I Get Evil
05. Elmore James - Dust My Broom
06. Bo Diddley - I'm Bad
07. B.B. King - Troubles Troubles Troubles
08. Guitar Slim - The Things That I Used To Do
09. Little Walter - Juke
10. Lightnin' Hopkins - Shotgun Blues
11. Slim Harpo - I'm A King Bee
12. Big Bill Broonzy - Baby Please Don't Go
13. Bobby Bland - Further Up The Road
14. Son House - Death Letter Blues
15. T-Bone Walker - Stormy Monday
16. Johnny Guitar Watson - Gangster Of Love
17. Sam Meyers - Sad Sad Lonesome Day
18. Sonny Boy Williamson - Keep It To Yourself
19. Lead Belly - Black Betty
20. Robert Johnson - Cross Road Blues

CD 2
01. B.B. King - 3 O'clock Blues
02. Little Walter - My Babe
03. John Lee Hooker - Dimples
04. Jimmy Reed - Big Boss Man
05. Otis Rush - I Can't Quit You Baby
06. Muddy Waters - Mannish Boy
07. Bobby Bland - Stormy Monday Blues
08. Billy Boy Arnold - You've Got Me Wrong
09. Buddy Guy - Stone Crazy
10. Slim Harpo - I Got Love If You Want It
11. Earl Grant - Confessin' The Blues
12. Robert Johnson - Hell Hound On My Trail
13. Johnny Guitar Watson - One Room Country Shack
14. Lowell Fulson - Reconsider Baby
15. Lead Belly - Midnight Special
16. Muddy Waters - Forty Days And Forty Nights
17. Tampa Red - Don't You Lie To Me
18. Larry Davis - Texas Flood
19. Elmore James - Catfish Blues
20. Howlin' Wolf - Evil

CD 3
01. John Lee Hooker - Boom Boom
02. Howlin' Wolf - Smokestack Lightnin'
03. Muddy Waters - I'm Your Hoochie Coochie Man [Casino]
04. Albert King - I Get Evil
05. Elmore James - Dust My Broom
06. Bo Diddley - I'm Bad
07. B.B. King - Troubles Troubles Troubles
08. Guitar Slim - The Things That I Used To Do
09. Little Walter - Juke
10. Lightnin' Hopkins - Shotgun Blues
11. Slim Harpo - I'm A King Bee
12. Big Bill Broonzy - Baby Please Don't Go
13. Bobby Bland - Further Up The Road
14. Son House - Death Letter Blues
15. T-Bone Walker - Stormy Monday
16. Johnny Guitar Watson - Gangster Of Love
17. Sam Meyers - Sad Sad Lonesome Day
18. Sonny Boy Williamson - Keep It To Yourself
19. Lead Belly - Black Betty
20. Robert Johnson - Cross Road Blues

Exact Audio Copy V1.3 from 2. September 2016

EAC extraction logfile from 6. January 2021, 8:59

Various Artists / The Blues Bible

Used drive : HL-DT-STBD-RE BH16NS55 Adapter: 1 ID: 0

Read mode : Secure
Utilize accurate stream : Yes
Defeat audio cache : Yes
Make use of C2 pointers : No

Read offset correction : 6
Overread into Lead-In and Lead-Out : No
Fill up missing offset samples with silence : Yes
Delete leading and trailing silent blocks : No
Null samples used in CRC calculations : Yes
Used interface : Native Win32 interface for Win NT & 2000
Gap handling : Appended to previous track

Used output format : User Defined Encoder
Selected bitrate : 1024 kBit/s
Quality : High
Add ID3 tag : No
Command line compressor : C:\Program Files (x86)\Exact Audio Copy\Flac\flac.exe
Additional command line options : -8 -V -T "ARTIST=%artist%" -T "TITLE=%title%" -T "ALBUM=%albumtitle%" -T "DATE=%year%" -T "TRACKNUMBER=%tracknr%" -T "GENRE=%genre%" -T "PERFORMER=%albuminterpret%" -T "COMPOSER=%composer%" %haslyrics%–tag-from-file=LYRICS="%lyricsfile%"%haslyrics% -T "ALBUMARTIST=%albumartist%" -T "DISCNUMBER=%cdnumber%" -T "TOTALDISCS=%totalcds%" -T "TOTALTRACKS=%numtracks%" -T "COMMENT=%comment%" %source% -o %dest%


TOC of the extracted CD

Track | Start | Length | Start sector | End sector
––––––––––––––––––––––––––––-
1 | 0:00.00 | 2:33.11 | 0 | 11485
2 | 2:33.11 | 3:06.06 | 11486 | 25441
3 | 5:39.17 | 2:50.06 | 25442 | 38197
4 | 8:29.23 | 2:29.00 | 38198 | 49372
5 | 10:58.23 | 2:51.41 | 49373 | 62238
6 | 13:49.64 | 3:00.47 | 62239 | 75785
7 | 16:50.36 | 2:57.57 | 75786 | 89117
8 | 19:48.18 | 2:59.56 | 89118 | 102598
9 | 22:47.74 | 2:44.14 | 102599 | 114912
10 | 25:32.13 | 2:40.29 | 114913 | 126941
11 | 28:12.42 | 2:56.12 | 126942 | 140153
12 | 31:08.54 | 3:13.34 | 140154 | 154662
13 | 34:22.13 | 2:59.19 | 154663 | 168106
14 | 37:21.32 | 4:20.74 | 168107 | 187680
15 | 41:42.31 | 3:06.63 | 187681 | 201693
16 | 44:49.19 | 2:53.48 | 201694 | 214716
17 | 47:42.67 | 2:51.54 | 214717 | 227595
18 | 50:34.46 | 2:51.14 | 227596 | 240434
19 | 53:25.60 | 1:54.32 | 240435 | 249016
20 | 55:20.17 | 2:30.28 | 249017 | 260294


Track 1

Filename F:\#EAC wav+flac\#New\VA - The Blues Bible\cd 1\01. John Lee Hooker - Boom Boom.wav

Pre-gap length 0:00:02.00

Peak level 98.3 %
Extraction speed 4.2 X
Track quality 100.0 %
Test CRC 83DBE064
Copy CRC 83DBE064
Track not present in AccurateRip database
Copy OK

Track 2

Filename F:\#EAC wav+flac\#New\VA - The Blues Bible\cd 1\02. Howlin' Wolf - Smokestack Lightnin'.wav

Pre-gap length 0:00:01.77

Peak level 98.3 %
Extraction speed 4.7 X
Track quality 100.0 %
Test CRC 07C28F29
Copy CRC 07C28F29
Track not present in AccurateRip database
Copy OK

Track 3

Filename F:\#EAC wav+flac\#New\VA - The Blues Bible\cd 1\03. Muddy Waters - I'm Your Hoochie Coochie Man [Casino].wav

Pre-gap length 0:00:01.77

Peak level 98.4 %
Extraction speed 4.9 X
Track quality 100.0 %
Test CRC 77296406
Copy CRC 77296406
Track not present in AccurateRip database
Copy OK

Track 4

Filename F:\#EAC wav+flac\#New\VA - The Blues Bible\cd 1\04. Albert King - I Get Evil.wav

Pre-gap length 0:00:01.77

Peak level 98.4 %
Extraction speed 5.1 X
Track quality 100.0 %
Test CRC BC8C3954
Copy CRC BC8C3954
Track not present in AccurateRip database
Copy OK

Track 5

Filename F:\#EAC wav+flac\#New\VA - The Blues Bible\cd 1\05. Elmore James - Dust My Broom.wav

Pre-gap length 0:00:01.77

Peak level 98.3 %
Extraction speed 5.5 X
Track quality 100.0 %
Test CRC CBEB54F9
Copy CRC CBEB54F9
Track not present in AccurateRip database
Copy OK

Track 6

Filename F:\#EAC wav+flac\#New\VA - The Blues Bible\cd 1\06. Bo Diddley - I'm Bad.wav

Pre-gap length 0:00:01.77

Peak level 98.3 %
Extraction speed 5.7 X
Track quality 100.0 %
Test CRC F1DF6E74
Copy CRC F1DF6E74
Track not present in AccurateRip database
Copy OK

Track 7

Filename F:\#EAC wav+flac\#New\VA - The Blues Bible\cd 1\07. B.B. King - Troubles Troubles Troubles.wav

Pre-gap length 0:00:01.77

Peak level 98.3 %
Extraction speed 6.0 X
Track quality 100.0 %
Test CRC 98D5ECA5
Copy CRC 98D5ECA5
Track not present in AccurateRip database
Copy OK

Track 8

Filename F:\#EAC wav+flac\#New\VA - The Blues Bible\cd 1\08. Guitar Slim - The Things That I Used To Do.wav

Pre-gap length 0:00:01.77

Peak level 98.3 %
Extraction speed 6.3 X
Track quality 100.0 %
Test CRC B640DFB8
Copy CRC B640DFB8
Track not present in AccurateRip database
Copy OK

Track 9

Filename F:\#EAC wav+flac\#New\VA - The Blues Bible\cd 1\09. Little Walter - Juke.wav

Pre-gap length 0:00:01.77

Peak level 98.3 %
Extraction speed 6.4 X
Track quality 100.0 %
Test CRC 582AA3BA
Copy CRC 582AA3BA
Track not present in AccurateRip database
Copy OK

Track 10

Filename F:\#EAC wav+flac\#New\VA - The Blues Bible\cd 1\10. Lightnin' Hopkins - Shotgun Blues.wav

Pre-gap length 0:00:01.77

Peak level 98.3 %
Extraction speed 6.5 X
Track quality 100.0 %
Test CRC 403129CA
Copy CRC 403129CA
Track not present in AccurateRip database
Copy OK

Track 11

Filename F:\#EAC wav+flac\#New\VA - The Blues Bible\cd 1\11. Slim Harpo - I'm A King Bee.wav

Pre-gap length 0:00:01.77

Peak level 98.4 %
Extraction speed 6.9 X
Track quality 100.0 %
Test CRC 93FEE63D
Copy CRC 93FEE63D
Track not present in AccurateRip database
Copy OK

Track 12

Filename F:\#EAC wav+flac\#New\VA - The Blues Bible\cd 1\12. Big Bill Broonzy - Baby Please Don't Go.wav

Pre-gap length 0:00:01.77

Peak level 98.3 %
Extraction speed 7.2 X
Track quality 100.0 %
Test CRC 7A4A1B0A
Copy CRC 7A4A1B0A
Track not present in AccurateRip database
Copy OK

Track 13

Filename F:\#EAC wav+flac\#New\VA - The Blues Bible\cd 1\13. Bobby Bland - Further Up The Road.wav

Pre-gap length 0:00:01.77

Peak level 98.3 %
Extraction speed 5.8 X
Track quality 99.9 %
Test CRC BBE869B0
Copy CRC BBE869B0
Track not present in AccurateRip database
Copy OK

Track 14

Filename F:\#EAC wav+flac\#New\VA - The Blues Bible\cd 1\14. Son House - Death Letter Blues.wav

Pre-gap length 0:00:01.77

Peak level 98.3 %
Extraction speed 7.9 X
Track quality 100.0 %
Test CRC 8E3F08C3
Copy CRC 8E3F08C3
Track not present in AccurateRip database
Copy OK

Track 15

Filename F:\#EAC wav+flac\#New\VA - The Blues Bible\cd 1\15. T-Bone Walker - Stormy Monday.wav

Pre-gap length 0:00:01.77

Peak level 98.4 %
Extraction speed 7.8 X
Track quality 100.0 %
Test CRC A602C56F
Copy CRC A602C56F
Track not present in AccurateRip database
Copy OK

Track 16

Filename F:\#EAC wav+flac\#New\VA - The Blues Bible\cd 1\16. Johnny Guitar Watson - Gangster Of Love.wav

Pre-gap length 0:00:01.77

Peak level 98.7 %
Extraction speed 6.2 X
Track quality 99.9 %
Test CRC 3021FECB
Copy CRC 3021FECB
Track not present in AccurateRip database
Copy OK

Track 17

Filename F:\#EAC wav+flac\#New\VA - The Blues Bible\cd 1\17. Sam Meyers - Sad Sad Lonesome Day.wav

Pre-gap length 0:00:01.77

Peak level 98.6 %
Extraction speed 8.1 X
Track quality 100.0 %
Test CRC 0F9D7713
Copy CRC 0F9D7713
Track not present in AccurateRip database
Copy OK

Track 18

Filename F:\#EAC wav+flac\#New\VA - The Blues Bible\cd 1\18. Sonny Boy Williamson - Keep It To Yourself.wav

Pre-gap length 0:00:01.77

Peak level 98.3 %
Extraction speed 8.2 X
Track quality 100.0 %
Test CRC 721C4B36
Copy CRC 721C4B36
Track not present in AccurateRip database
Copy OK

Track 19

Filename F:\#EAC wav+flac\#New\VA - The Blues Bible\cd 1\19. Lead Belly - Black Betty.wav

Pre-gap length 0:00:01.77

Peak level 98.3 %
Extraction speed 7.7 X
Track quality 100.0 %
Test CRC 6EC6E91E
Copy CRC 6EC6E91E
Track not present in AccurateRip database
Copy OK

Track 20

Filename F:\#EAC wav+flac\#New\VA - The Blues Bible\cd 1\20. Robert Johnson - Cross Road Blues.wav

Pre-gap length 0:00:01.77

Peak level 98.3 %
Extraction speed 6.2 X
Track quality 99.9 %
Test CRC 6D09B042
Copy CRC 6D09B042
Track not present in AccurateRip database
Copy OK


None of the tracks are present in the AccurateRip database

No errors occurred

End of status report

–– CUETools DB Plugin V2.1.6

[CTDB TOCID: kejQ2Co7wYtqHMuFE5p2nvx88jc-] disk not present in database
Submit result: kejQ2Co7wYtqHMuFE5p2nvx88jc- has been uploaded


==== Log checksum F286AA0C8D2AEAE116148B72518FEE46FF59DB8B823AE28E1B17725F8FF03F31 ====

––––––––––––––––––––––––––––––

Exact Audio Copy V1.3 from 2. September 2016

EAC extraction logfile from 6. January 2021, 8:59

Various Artists / The Blues Bible

Used drive : HL-DT-STBD-RE BH16NS55 Adapter: 1 ID: 0

Read mode : Secure
Utilize accurate stream : Yes
Defeat audio cache : Yes
Make use of C2 pointers : No

Read offset correction : 6
Overread into Lead-In and Lead-Out : No
Fill up missing offset samples with silence : Yes
Delete leading and trailing silent blocks : No
Null samples used in CRC calculations : Yes
Used interface : Native Win32 interface for Win NT & 2000
Gap handling : Appended to previous track

Used output format : User Defined Encoder
Selected bitrate : 1024 kBit/s
Quality : High
Add ID3 tag : No
Command line compressor : C:\Program Files (x86)\Exact Audio Copy\Flac\flac.exe
Additional command line options : -8 -V -T "ARTIST=%artist%" -T "TITLE=%title%" -T "ALBUM=%albumtitle%" -T "DATE=%year%" -T "TRACKNUMBER=%tracknr%" -T "GENRE=%genre%" -T "PERFORMER=%albuminterpret%" -T "COMPOSER=%composer%" %haslyrics%–tag-from-file=LYRICS="%lyricsfile%"%haslyrics% -T "ALBUMARTIST=%albumartist%" -T "DISCNUMBER=%cdnumber%" -T "TOTALDISCS=%totalcds%" -T "TOTALTRACKS=%numtracks%" -T "COMMENT=%comment%" %source% -o %dest%


TOC of the extracted CD

Track | Start | Length | Start sector | End sector
––––––––––––––––––––––––––––-
1 | 0:00.00 | 2:33.11 | 0 | 11485
2 | 2:33.11 | 3:06.06 | 11486 | 25441
3 | 5:39.17 | 2:50.06 | 25442 | 38197
4 | 8:29.23 | 2:29.00 | 38198 | 49372
5 | 10:58.23 | 2:51.41 | 49373 | 62238
6 | 13:49.64 | 3:00.47 | 62239 | 75785
7 | 16:50.36 | 2:57.57 | 75786 | 89117
8 | 19:48.18 | 2:59.56 | 89118 | 102598
9 | 22:47.74 | 2:44.14 | 102599 | 114912
10 | 25:32.13 | 2:40.29 | 114913 | 126941
11 | 28:12.42 | 2:56.12 | 126942 | 140153
12 | 31:08.54 | 3:13.34 | 140154 | 154662
13 | 34:22.13 | 2:59.19 | 154663 | 168106
14 | 37:21.32 | 4:20.74 | 168107 | 187680
15 | 41:42.31 | 3:06.63 | 187681 | 201693
16 | 44:49.19 | 2:53.48 | 201694 | 214716
17 | 47:42.67 | 2:51.54 | 214717 | 227595
18 | 50:34.46 | 2:51.14 | 227596 | 240434
19 | 53:25.60 | 1:54.32 | 240435 | 249016
20 | 55:20.17 | 2:30.28 | 249017 | 260294


Track 1

Filename F:\#EAC wav+flac\#New\VA - The Blues Bible\cd 1\01. John Lee Hooker - Boom Boom.wav

Pre-gap length 0:00:02.00

Peak level 98.3 %
Extraction speed 4.2 X
Track quality 100.0 %
Test CRC 83DBE064
Copy CRC 83DBE064
Track not present in AccurateRip database
Copy OK

Track 2

Filename F:\#EAC wav+flac\#New\VA - The Blues Bible\cd 1\02. Howlin' Wolf - Smokestack Lightnin'.wav

Pre-gap length 0:00:01.77

Peak level 98.3 %
Extraction speed 4.7 X
Track quality 100.0 %
Test CRC 07C28F29
Copy CRC 07C28F29
Track not present in AccurateRip database
Copy OK

Track 3

Filename F:\#EAC wav+flac\#New\VA - The Blues Bible\cd 1\03. Muddy Waters - I'm Your Hoochie Coochie Man [Casino].wav

Pre-gap length 0:00:01.77

Peak level 98.4 %
Extraction speed 4.9 X
Track quality 100.0 %
Test CRC 77296406
Copy CRC 77296406
Track not present in AccurateRip database
Copy OK

Track 4

Filename F:\#EAC wav+flac\#New\VA - The Blues Bible\cd 1\04. Albert King - I Get Evil.wav

Pre-gap length 0:00:01.77

Peak level 98.4 %
Extraction speed 5.1 X
Track quality 100.0 %
Test CRC BC8C3954
Copy CRC BC8C3954
Track not present in AccurateRip database
Copy OK

Track 5

Filename F:\#EAC wav+flac\#New\VA - The Blues Bible\cd 1\05. Elmore James - Dust My Broom.wav

Pre-gap length 0:00:01.77

Peak level 98.3 %
Extraction speed 5.5 X
Track quality 100.0 %
Test CRC CBEB54F9
Copy CRC CBEB54F9
Track not present in AccurateRip database
Copy OK

Track 6

Filename F:\#EAC wav+flac\#New\VA - The Blues Bible\cd 1\06. Bo Diddley - I'm Bad.wav

Pre-gap length 0:00:01.77

Peak level 98.3 %
Extraction speed 5.7 X
Track quality 100.0 %
Test CRC F1DF6E74
Copy CRC F1DF6E74
Track not present in AccurateRip database
Copy OK

Track 7

Filename F:\#EAC wav+flac\#New\VA - The Blues Bible\cd 1\07. B.B. King - Troubles Troubles Troubles.wav

Pre-gap length 0:00:01.77

Peak level 98.3 %
Extraction speed 6.0 X
Track quality 100.0 %
Test CRC 98D5ECA5
Copy CRC 98D5ECA5
Track not present in AccurateRip database
Copy OK

Track 8

Filename F:\#EAC wav+flac\#New\VA - The Blues Bible\cd 1\08. Guitar Slim - The Things That I Used To Do.wav

Pre-gap length 0:00:01.77

Peak level 98.3 %
Extraction speed 6.3 X
Track quality 100.0 %
Test CRC B640DFB8
Copy CRC B640DFB8
Track not present in AccurateRip database
Copy OK

Track 9

Filename F:\#EAC wav+flac\#New\VA - The Blues Bible\cd 1\09. Little Walter - Juke.wav

Pre-gap length 0:00:01.77

Peak level 98.3 %
Extraction speed 6.4 X
Track quality 100.0 %
Test CRC 582AA3BA
Copy CRC 582AA3BA
Track not present in AccurateRip database
Copy OK

Track 10

Filename F:\#EAC wav+flac\#New\VA - The Blues Bible\cd 1\10. Lightnin' Hopkins - Shotgun Blues.wav

Pre-gap length 0:00:01.77

Peak level 98.3 %
Extraction speed 6.5 X
Track quality 100.0 %
Test CRC 403129CA
Copy CRC 403129CA
Track not present in AccurateRip database
Copy OK

Track 11

Filename F:\#EAC wav+flac\#New\VA - The Blues Bible\cd 1\11. Slim Harpo - I'm A King Bee.wav

Pre-gap length 0:00:01.77

Peak level 98.4 %
Extraction speed 6.9 X
Track quality 100.0 %
Test CRC 93FEE63D
Copy CRC 93FEE63D
Track not present in AccurateRip database
Copy OK

Track 12

Filename F:\#EAC wav+flac\#New\VA - The Blues Bible\cd 1\12. Big Bill Broonzy - Baby Please Don't Go.wav

Pre-gap length 0:00:01.77

Peak level 98.3 %
Extraction speed 7.2 X
Track quality 100.0 %
Test CRC 7A4A1B0A
Copy CRC 7A4A1B0A
Track not present in AccurateRip database
Copy OK

Track 13

Filename F:\#EAC wav+flac\#New\VA - The Blues Bible\cd 1\13. Bobby Bland - Further Up The Road.wav

Pre-gap length 0:00:01.77

Peak level 98.3 %
Extraction speed 5.8 X
Track quality 99.9 %
Test CRC BBE869B0
Copy CRC BBE869B0
Track not present in AccurateRip database
Copy OK

Track 14

Filename F:\#EAC wav+flac\#New\VA - The Blues Bible\cd 1\14. Son House - Death Letter Blues.wav

Pre-gap length 0:00:01.77

Peak level 98.3 %
Extraction speed 7.9 X
Track quality 100.0 %
Test CRC 8E3F08C3
Copy CRC 8E3F08C3
Track not present in AccurateRip database
Copy OK

Track 15

Filename F:\#EAC wav+flac\#New\VA - The Blues Bible\cd 1\15. T-Bone Walker - Stormy Monday.wav

Pre-gap length 0:00:01.77

Peak level 98.4 %
Extraction speed 7.8 X
Track quality 100.0 %
Test CRC A602C56F
Copy CRC A602C56F
Track not present in AccurateRip database
Copy OK

Track 16

Filename F:\#EAC wav+flac\#New\VA - The Blues Bible\cd 1\16. Johnny Guitar Watson - Gangster Of Love.wav

Pre-gap length 0:00:01.77

Peak level 98.7 %
Extraction speed 6.2 X
Track quality 99.9 %
Test CRC 3021FECB
Copy CRC 3021FECB
Track not present in AccurateRip database
Copy OK

Track 17

Filename F:\#EAC wav+flac\#New\VA - The Blues Bible\cd 1\17. Sam Meyers - Sad Sad Lonesome Day.wav

Pre-gap length 0:00:01.77

Peak level 98.6 %
Extraction speed 8.1 X
Track quality 100.0 %
Test CRC 0F9D7713
Copy CRC 0F9D7713
Track not present in AccurateRip database
Copy OK

Track 18

Filename F:\#EAC wav+flac\#New\VA - The Blues Bible\cd 1\18. Sonny Boy Williamson - Keep It To Yourself.wav

Pre-gap length 0:00:01.77

Peak level 98.3 %
Extraction speed 8.2 X
Track quality 100.0 %
Test CRC 721C4B36
Copy CRC 721C4B36
Track not present in AccurateRip database
Copy OK

Track 19

Filename F:\#EAC wav+flac\#New\VA - The Blues Bible\cd 1\19. Lead Belly - Black Betty.wav

Pre-gap length 0:00:01.77

Peak level 98.3 %
Extraction speed 7.7 X
Track quality 100.0 %
Test CRC 6EC6E91E
Copy CRC 6EC6E91E
Track not present in AccurateRip database
Copy OK

Track 20

Filename F:\#EAC wav+flac\#New\VA - The Blues Bible\cd 1\20. Robert Johnson - Cross Road Blues.wav

Pre-gap length 0:00:01.77

Peak level 98.3 %
Extraction speed 6.2 X
Track quality 99.9 %
Test CRC 6D09B042
Copy CRC 6D09B042
Track not present in AccurateRip database
Copy OK


None of the tracks are present in the AccurateRip database

No errors occurred

End of status report

–– CUETools DB Plugin V2.1.6

[CTDB TOCID: kejQ2Co7wYtqHMuFE5p2nvx88jc-] disk not present in database
Submit result: kejQ2Co7wYtqHMuFE5p2nvx88jc- has been uploaded


==== Log checksum F286AA0C8D2AEAE116148B72518FEE46FF59DB8B823AE28E1B17725F8FF03F31 ====
Exact Audio Copy V1.3 from 2. September 2016

EAC extraction logfile from 6. January 2021, 9:26

Various Artists / The Blues Bible

Used drive : HL-DT-STBD-RE BH16NS55 Adapter: 1 ID: 0

Read mode : Secure
Utilize accurate stream : Yes
Defeat audio cache : Yes
Make use of C2 pointers : No

Read offset correction : 6
Overread into Lead-In and Lead-Out : No
Fill up missing offset samples with silence : Yes
Delete leading and trailing silent blocks : No
Null samples used in CRC calculations : Yes
Used interface : Native Win32 interface for Win NT & 2000
Gap handling : Appended to previous track

Used output format : User Defined Encoder
Selected bitrate : 1024 kBit/s
Quality : High
Add ID3 tag : No
Command line compressor : C:\Program Files (x86)\Exact Audio Copy\Flac\flac.exe
Additional command line options : -8 -V -T "ARTIST=%artist%" -T "TITLE=%title%" -T "ALBUM=%albumtitle%" -T "DATE=%year%" -T "TRACKNUMBER=%tracknr%" -T "GENRE=%genre%" -T "PERFORMER=%albuminterpret%" -T "COMPOSER=%composer%" %haslyrics%–tag-from-file=LYRICS="%lyricsfile%"%haslyrics% -T "ALBUMARTIST=%albumartist%" -T "DISCNUMBER=%cdnumber%" -T "TOTALDISCS=%totalcds%" -T "TOTALTRACKS=%numtracks%" -T "COMMENT=%comment%" %source% -o %dest%


TOC of the extracted CD

Track | Start | Length | Start sector | End sector
––––––––––––––––––––––––––––-
1 | 0:00.00 | 3:43.61 | 0 | 16785
2 | 3:43.61 | 2:33.40 | 16786 | 28300
3 | 6:17.26 | 2:09.59 | 28301 | 38034
4 | 8:27.10 | 2:47.32 | 38035 | 50591
5 | 11:14.42 | 3:07.44 | 50592 | 64660
6 | 14:22.11 | 2:56.07 | 64661 | 77867
7 | 17:18.18 | 4:06.30 | 77868 | 96347
8 | 21:24.48 | 2:43.28 | 96348 | 108600
9 | 24:08.01 | 2:55.73 | 108601 | 121798
10 | 27:03.74 | 2:42.19 | 121799 | 133967
11 | 29:46.18 | 3:31.41 | 133968 | 149833
12 | 33:17.59 | 2:35.14 | 149834 | 161472
13 | 35:52.73 | 2:38.65 | 161473 | 173387
14 | 38:31.63 | 3:11.19 | 173388 | 187731
15 | 41:43.07 | 3:06.28 | 187732 | 201709
16 | 44:49.35 | 2:53.10 | 201710 | 214694
17 | 47:42.45 | 3:08.53 | 214695 | 228847
18 | 50:51.23 | 2:42.14 | 228848 | 241011
19 | 53:33.37 | 2:53.68 | 241012 | 254054
20 | 56:27.30 | 2:53.61 | 254055 | 267090


Track 1

Filename F:\#EAC wav+flac\#New\VA - The Blues Bible\cd 2\01. B.B. King - 3 O'clock Blues.wav

Pre-gap length 0:00:02.00

Peak level 98.3 %
Extraction speed 4.6 X
Track quality 100.0 %
Test CRC 548A7F56
Copy CRC 548A7F56
Track not present in AccurateRip database
Copy OK

Track 2

Filename F:\#EAC wav+flac\#New\VA - The Blues Bible\cd 2\02. Little Walter - My Babe.wav

Pre-gap length 0:00:01.77

Peak level 98.4 %
Extraction speed 4.6 X
Track quality 100.0 %
Test CRC D8794CCD
Copy CRC D8794CCD
Track not present in AccurateRip database
Copy OK

Track 3

Filename F:\#EAC wav+flac\#New\VA - The Blues Bible\cd 2\03. John Lee Hooker - Dimples.wav

Pre-gap length 0:00:01.77

Peak level 98.4 %
Extraction speed 3.5 X
Track quality 99.9 %
Test CRC DB855461
Copy CRC DB855461
Track not present in AccurateRip database
Copy OK

Track 4

Filename F:\#EAC wav+flac\#New\VA - The Blues Bible\cd 2\04. Jimmy Reed - Big Boss Man.wav

Pre-gap length 0:00:01.77

Peak level 98.6 %
Extraction speed 5.2 X
Track quality 100.0 %
Test CRC 59020719
Copy CRC 59020719
Track not present in AccurateRip database
Copy OK

Track 5

Filename F:\#EAC wav+flac\#New\VA - The Blues Bible\cd 2\05. Otis Rush - I Can't Quit You Baby.wav

Pre-gap length 0:00:01.77

Peak level 98.3 %
Extraction speed 4.5 X
Track quality 99.9 %
Test CRC B6F5AAD6
Copy CRC B6F5AAD6
Track not present in AccurateRip database
Copy OK

Track 6

Filename F:\#EAC wav+flac\#New\VA - The Blues Bible\cd 2\06. Muddy Waters - Mannish Boy.wav

Pre-gap length 0:00:01.77

Peak level 98.3 %
Extraction speed 5.8 X
Track quality 100.0 %
Test CRC 8E7CEA23
Copy CRC 8E7CEA23
Track not present in AccurateRip database
Copy OK

Track 7

Filename F:\#EAC wav+flac\#New\VA - The Blues Bible\cd 2\07. Bobby Bland - Stormy Monday Blues.wav

Pre-gap length 0:00:01.77

Peak level 98.4 %
Extraction speed 6.4 X
Track quality 100.0 %
Test CRC 8650FF30
Copy CRC 8650FF30
Track not present in AccurateRip database
Copy OK

Track 8

Filename F:\#EAC wav+flac\#New\VA - The Blues Bible\cd 2\08. Billy Boy Arnold - You've Got Me Wrong.wav

Pre-gap length 0:00:01.77

Peak level 98.3 %
Extraction speed 6.2 X
Track quality 100.0 %
Test CRC FE59CF9F
Copy CRC FE59CF9F
Track not present in AccurateRip database
Copy OK

Track 9

Filename F:\#EAC wav+flac\#New\VA - The Blues Bible\cd 2\09. Buddy Guy - Stone Crazy.wav

Pre-gap length 0:00:01.77

Peak level 98.3 %
Extraction speed 5.2 X
Track quality 99.9 %
Test CRC 29B6149C
Copy CRC 29B6149C
Track not present in AccurateRip database
Copy OK

Track 10

Filename F:\#EAC wav+flac\#New\VA - The Blues Bible\cd 2\10. Slim Harpo - I Got Love If You Want It.wav

Pre-gap length 0:00:01.77

Peak level 98.3 %
Extraction speed 6.7 X
Track quality 100.0 %
Test CRC BE00373E
Copy CRC BE00373E
Track not present in AccurateRip database
Copy OK

Track 11

Filename F:\#EAC wav+flac\#New\VA - The Blues Bible\cd 2\11. Earl Grant - Confessin' The Blues.wav

Pre-gap length 0:00:01.77

Peak level 98.6 %
Extraction speed 7.3 X
Track quality 100.0 %
Test CRC 2E86C7ED
Copy CRC 2E86C7ED
Track not present in AccurateRip database
Copy OK

Track 12

Filename F:\#EAC wav+flac\#New\VA - The Blues Bible\cd 2\12. Robert Johnson - Hell Hound On My Trail.wav

Pre-gap length 0:00:01.77

Peak level 98.3 %
Extraction speed 7.0 X
Track quality 100.0 %
Test CRC 37BA1466
Copy CRC 37BA1466
Track not present in AccurateRip database
Copy OK

Track 13

Filename F:\#EAC wav+flac\#New\VA - The Blues Bible\cd 2\13. Johnny Guitar Watson - One Room Country Shack.wav

Pre-gap length 0:00:01.77

Peak level 98.7 %
Extraction speed 7.3 X
Track quality 100.0 %
Test CRC E7E0FC4D
Copy CRC E7E0FC4D
Track not present in AccurateRip database
Copy OK

Track 14

Filename F:\#EAC wav+flac\#New\VA - The Blues Bible\cd 2\14. Lowell Fulson - Reconsider Baby.wav

Pre-gap length 0:00:01.77

Peak level 98.8 %
Extraction speed 6.1 X
Track quality 99.9 %
Test CRC 7823D866
Copy CRC 7823D866
Track not present in AccurateRip database
Copy OK

Track 15

Filename F:\#EAC wav+flac\#New\VA - The Blues Bible\cd 2\15. Lead Belly - Midnight Special.wav

Pre-gap length 0:00:01.77

Peak level 98.3 %
Extraction speed 7.8 X
Track quality 100.0 %
Test CRC 31B9C890
Copy CRC 31B9C890
Track not present in AccurateRip database
Copy OK

Track 16

Filename F:\#EAC wav+flac\#New\VA - The Blues Bible\cd 2\16. Muddy Waters - Forty Days And Forty Nights.wav

Pre-gap length 0:00:01.77

Peak level 98.3 %
Extraction speed 8.0 X
Track quality 100.0 %
Test CRC 1DE54A23
Copy CRC 1DE54A23
Track not present in AccurateRip database
Copy OK

Track 17

Filename F:\#EAC wav+flac\#New\VA - The Blues Bible\cd 2\17. Tampa Red - Don't You Lie To Me.wav

Pre-gap length 0:00:01.77

Peak level 98.3 %
Extraction speed 8.2 X
Track quality 100.0 %
Test CRC 91CB7437
Copy CRC 91CB7437
Track not present in AccurateRip database
Copy OK

Track 18

Filename F:\#EAC wav+flac\#New\VA - The Blues Bible\cd 2\18. Larry Davis - Texas Flood.wav

Pre-gap length 0:00:01.77

Peak level 98.4 %
Extraction speed 8.1 X
Track quality 100.0 %
Test CRC A5E744D2
Copy CRC A5E744D2
Track not present in AccurateRip database
Copy OK

Track 19

Filename F:\#EAC wav+flac\#New\VA - The Blues Bible\cd 2\19. Elmore James - Catfish Blues.wav

Pre-gap length 0:00:01.77

Peak level 98.4 %
Extraction speed 8.3 X
Track quality 100.0 %
Test CRC F5A0B3C8
Copy CRC F5A0B3C8
Track not present in AccurateRip database
Copy OK

Track 20

Filename F:\#EAC wav+flac\#New\VA - The Blues Bible\cd 2\20. Howlin' Wolf - Evil.wav

Pre-gap length 0:00:01.77

Peak level 98.3 %
Extraction speed 8.0 X
Track quality 100.0 %
Test CRC 57539755
Copy CRC 57539755
Track not present in AccurateRip database
Copy OK


None of the tracks are present in the AccurateRip database

No errors occurred

End of status report

–– CUETools DB Plugin V2.1.6

[CTDB TOCID: HD9K6UZoZotQC9VOounSh8NaZtA-] disk not present in database
Submit result: HD9K6UZoZotQC9VOounSh8NaZtA- has been uploaded


==== Log checksum B22120B88249C005953103D755A8F8119417CA016E232675A20EFD75C850B75C ====

––––––––––––––––––––––––––––––

Exact Audio Copy V1.3 from 2. September 2016

EAC extraction logfile from 6. January 2021, 9:26

Various Artists / The Blues Bible

Used drive : HL-DT-STBD-RE BH16NS55 Adapter: 1 ID: 0

Read mode : Secure
Utilize accurate stream : Yes
Defeat audio cache : Yes
Make use of C2 pointers : No

Read offset correction : 6
Overread into Lead-In and Lead-Out : No
Fill up missing offset samples with silence : Yes
Delete leading and trailing silent blocks : No
Null samples used in CRC calculations : Yes
Used interface : Native Win32 interface for Win NT & 2000
Gap handling : Appended to previous track

Used output format : User Defined Encoder
Selected bitrate : 1024 kBit/s
Quality : High
Add ID3 tag : No
Command line compressor : C:\Program Files (x86)\Exact Audio Copy\Flac\flac.exe
Additional command line options : -8 -V -T "ARTIST=%artist%" -T "TITLE=%title%" -T "ALBUM=%albumtitle%" -T "DATE=%year%" -T "TRACKNUMBER=%tracknr%" -T "GENRE=%genre%" -T "PERFORMER=%albuminterpret%" -T "COMPOSER=%composer%" %haslyrics%–tag-from-file=LYRICS="%lyricsfile%"%haslyrics% -T "ALBUMARTIST=%albumartist%" -T "DISCNUMBER=%cdnumber%" -T "TOTALDISCS=%totalcds%" -T "TOTALTRACKS=%numtracks%" -T "COMMENT=%comment%" %source% -o %dest%


TOC of the extracted CD

Track | Start | Length | Start sector | End sector
––––––––––––––––––––––––––––-
1 | 0:00.00 | 3:43.61 | 0 | 16785
2 | 3:43.61 | 2:33.40 | 16786 | 28300
3 | 6:17.26 | 2:09.59 | 28301 | 38034
4 | 8:27.10 | 2:47.32 | 38035 | 50591
5 | 11:14.42 | 3:07.44 | 50592 | 64660
6 | 14:22.11 | 2:56.07 | 64661 | 77867
7 | 17:18.18 | 4:06.30 | 77868 | 96347
8 | 21:24.48 | 2:43.28 | 96348 | 108600
9 | 24:08.01 | 2:55.73 | 108601 | 121798
10 | 27:03.74 | 2:42.19 | 121799 | 133967
11 | 29:46.18 | 3:31.41 | 133968 | 149833
12 | 33:17.59 | 2:35.14 | 149834 | 161472
13 | 35:52.73 | 2:38.65 | 161473 | 173387
14 | 38:31.63 | 3:11.19 | 173388 | 187731
15 | 41:43.07 | 3:06.28 | 187732 | 201709
16 | 44:49.35 | 2:53.10 | 201710 | 214694
17 | 47:42.45 | 3:08.53 | 214695 | 228847
18 | 50:51.23 | 2:42.14 | 228848 | 241011
19 | 53:33.37 | 2:53.68 | 241012 | 254054
20 | 56:27.30 | 2:53.61 | 254055 | 267090


Track 1

Filename F:\#EAC wav+flac\#New\VA - The Blues Bible\cd 2\01. B.B. King - 3 O'clock Blues.wav

Pre-gap length 0:00:02.00

Peak level 98.3 %
Extraction speed 4.6 X
Track quality 100.0 %
Test CRC 548A7F56
Copy CRC 548A7F56
Track not present in AccurateRip database
Copy OK

Track 2

Filename F:\#EAC wav+flac\#New\VA - The Blues Bible\cd 2\02. Little Walter - My Babe.wav

Pre-gap length 0:00:01.77

Peak level 98.4 %
Extraction speed 4.6 X
Track quality 100.0 %
Test CRC D8794CCD
Copy CRC D8794CCD
Track not present in AccurateRip database
Copy OK

Track 3

Filename F:\#EAC wav+flac\#New\VA - The Blues Bible\cd 2\03. John Lee Hooker - Dimples.wav

Pre-gap length 0:00:01.77

Peak level 98.4 %
Extraction speed 3.5 X
Track quality 99.9 %
Test CRC DB855461
Copy CRC DB855461
Track not present in AccurateRip database
Copy OK

Track 4

Filename F:\#EAC wav+flac\#New\VA - The Blues Bible\cd 2\04. Jimmy Reed - Big Boss Man.wav

Pre-gap length 0:00:01.77

Peak level 98.6 %
Extraction speed 5.2 X
Track quality 100.0 %
Test CRC 59020719
Copy CRC 59020719
Track not present in AccurateRip database
Copy OK

Track 5

Filename F:\#EAC wav+flac\#New\VA - The Blues Bible\cd 2\05. Otis Rush - I Can't Quit You Baby.wav

Pre-gap length 0:00:01.77

Peak level 98.3 %
Extraction speed 4.5 X
Track quality 99.9 %
Test CRC B6F5AAD6
Copy CRC B6F5AAD6
Track not present in AccurateRip database
Copy OK

Track 6

Filename F:\#EAC wav+flac\#New\VA - The Blues Bible\cd 2\06. Muddy Waters - Mannish Boy.wav

Pre-gap length 0:00:01.77

Peak level 98.3 %
Extraction speed 5.8 X
Track quality 100.0 %
Test CRC 8E7CEA23
Copy CRC 8E7CEA23
Track not present in AccurateRip database
Copy OK

Track 7

Filename F:\#EAC wav+flac\#New\VA - The Blues Bible\cd 2\07. Bobby Bland - Stormy Monday Blues.wav

Pre-gap length 0:00:01.77

Peak level 98.4 %
Extraction speed 6.4 X
Track quality 100.0 %
Test CRC 8650FF30
Copy CRC 8650FF30
Track not present in AccurateRip database
Copy OK

Track 8

Filename F:\#EAC wav+flac\#New\VA - The Blues Bible\cd 2\08. Billy Boy Arnold - You've Got Me Wrong.wav

Pre-gap length 0:00:01.77

Peak level 98.3 %
Extraction speed 6.2 X
Track quality 100.0 %
Test CRC FE59CF9F
Copy CRC FE59CF9F
Track not present in AccurateRip database
Copy OK

Track 9

Filename F:\#EAC wav+flac\#New\VA - The Blues Bible\cd 2\09. Buddy Guy - Stone Crazy.wav

Pre-gap length 0:00:01.77

Peak level 98.3 %
Extraction speed 5.2 X
Track quality 99.9 %
Test CRC 29B6149C
Copy CRC 29B6149C
Track not present in AccurateRip database
Copy OK

Track 10

Filename F:\#EAC wav+flac\#New\VA - The Blues Bible\cd 2\10. Slim Harpo - I Got Love If You Want It.wav

Pre-gap length 0:00:01.77

Peak level 98.3 %
Extraction speed 6.7 X
Track quality 100.0 %
Test CRC BE00373E
Copy CRC BE00373E
Track not present in AccurateRip database
Copy OK

Track 11

Filename F:\#EAC wav+flac\#New\VA - The Blues Bible\cd 2\11. Earl Grant - Confessin' The Blues.wav

Pre-gap length 0:00:01.77

Peak level 98.6 %
Extraction speed 7.3 X
Track quality 100.0 %
Test CRC 2E86C7ED
Copy CRC 2E86C7ED
Track not present in AccurateRip database
Copy OK

Track 12

Filename F:\#EAC wav+flac\#New\VA - The Blues Bible\cd 2\12. Robert Johnson - Hell Hound On My Trail.wav

Pre-gap length 0:00:01.77

Peak level 98.3 %
Extraction speed 7.0 X
Track quality 100.0 %
Test CRC 37BA1466
Copy CRC 37BA1466
Track not present in AccurateRip database
Copy OK

Track 13

Filename F:\#EAC wav+flac\#New\VA - The Blues Bible\cd 2\13. Johnny Guitar Watson - One Room Country Shack.wav

Pre-gap length 0:00:01.77

Peak level 98.7 %
Extraction speed 7.3 X
Track quality 100.0 %
Test CRC E7E0FC4D
Copy CRC E7E0FC4D
Track not present in AccurateRip database
Copy OK

Track 14

Filename F:\#EAC wav+flac\#New\VA - The Blues Bible\cd 2\14. Lowell Fulson - Reconsider Baby.wav

Pre-gap length 0:00:01.77

Peak level 98.8 %
Extraction speed 6.1 X
Track quality 99.9 %
Test CRC 7823D866
Copy CRC 7823D866
Track not present in AccurateRip database
Copy OK

Track 15

Filename F:\#EAC wav+flac\#New\VA - The Blues Bible\cd 2\15. Lead Belly - Midnight Special.wav

Pre-gap length 0:00:01.77

Peak level 98.3 %
Extraction speed 7.8 X
Track quality 100.0 %
Test CRC 31B9C890
Copy CRC 31B9C890
Track not present in AccurateRip database
Copy OK

Track 16

Filename F:\#EAC wav+flac\#New\VA - The Blues Bible\cd 2\16. Muddy Waters - Forty Days And Forty Nights.wav

Pre-gap length 0:00:01.77

Peak level 98.3 %
Extraction speed 8.0 X
Track quality 100.0 %
Test CRC 1DE54A23
Copy CRC 1DE54A23
Track not present in AccurateRip database
Copy OK

Track 17

Filename F:\#EAC wav+flac\#New\VA - The Blues Bible\cd 2\17. Tampa Red - Don't You Lie To Me.wav

Pre-gap length 0:00:01.77

Peak level 98.3 %
Extraction speed 8.2 X
Track quality 100.0 %
Test CRC 91CB7437
Copy CRC 91CB7437
Track not present in AccurateRip database
Copy OK

Track 18

Filename F:\#EAC wav+flac\#New\VA - The Blues Bible\cd 2\18. Larry Davis - Texas Flood.wav

Pre-gap length 0:00:01.77

Peak level 98.4 %
Extraction speed 8.1 X
Track quality 100.0 %
Test CRC A5E744D2
Copy CRC A5E744D2
Track not present in AccurateRip database
Copy OK

Track 19

Filename F:\#EAC wav+flac\#New\VA - The Blues Bible\cd 2\19. Elmore James - Catfish Blues.wav

Pre-gap length 0:00:01.77

Peak level 98.4 %
Extraction speed 8.3 X
Track quality 100.0 %
Test CRC F5A0B3C8
Copy CRC F5A0B3C8
Track not present in AccurateRip database
Copy OK

Track 20

Filename F:\#EAC wav+flac\#New\VA - The Blues Bible\cd 2\20. Howlin' Wolf - Evil.wav

Pre-gap length 0:00:01.77

Peak level 98.3 %
Extraction speed 8.0 X
Track quality 100.0 %
Test CRC 57539755
Copy CRC 57539755
Track not present in AccurateRip database
Copy OK


None of the tracks are present in the AccurateRip database

No errors occurred

End of status report

–– CUETools DB Plugin V2.1.6

[CTDB TOCID: HD9K6UZoZotQC9VOounSh8NaZtA-] disk not present in database
Submit result: HD9K6UZoZotQC9VOounSh8NaZtA- has been uploaded


==== Log checksum B22120B88249C005953103D755A8F8119417CA016E232675A20EFD75C850B75C ====
Exact Audio Copy V1.3 from 2. September 2016

EAC extraction logfile from 6. January 2021, 9:52

Various Artists / The Blues Bible

Used drive : HL-DT-STBD-RE BH16NS55 Adapter: 1 ID: 0

Read mode : Secure
Utilize accurate stream : Yes
Defeat audio cache : Yes
Make use of C2 pointers : No

Read offset correction : 6
Overread into Lead-In and Lead-Out : No
Fill up missing offset samples with silence : Yes
Delete leading and trailing silent blocks : No
Null samples used in CRC calculations : Yes
Used interface : Native Win32 interface for Win NT & 2000
Gap handling : Appended to previous track

Used output format : User Defined Encoder
Selected bitrate : 1024 kBit/s
Quality : High
Add ID3 tag : No
Command line compressor : C:\Program Files (x86)\Exact Audio Copy\Flac\flac.exe
Additional command line options : -8 -V -T "ARTIST=%artist%" -T "TITLE=%title%" -T "ALBUM=%albumtitle%" -T "DATE=%year%" -T "TRACKNUMBER=%tracknr%" -T "GENRE=%genre%" -T "PERFORMER=%albuminterpret%" -T "COMPOSER=%composer%" %haslyrics%–tag-from-file=LYRICS="%lyricsfile%"%haslyrics% -T "ALBUMARTIST=%albumartist%" -T "DISCNUMBER=%cdnumber%" -T "TOTALDISCS=%totalcds%" -T "TOTALTRACKS=%numtracks%" -T "COMMENT=%comment%" %source% -o %dest%


TOC of the extracted CD

Track | Start | Length | Start sector | End sector
––––––––––––––––––––––––––––-
1 | 0:00.00 | 2:42.02 | 0 | 12151
2 | 2:42.02 | 2:38.30 | 12152 | 24031
3 | 5:20.32 | 4:06.33 | 24032 | 42514
4 | 9:26.65 | 2:44.39 | 42515 | 54853
5 | 12:11.29 | 4:03.04 | 54854 | 73082
6 | 16:14.33 | 3:29.00 | 73083 | 88757
7 | 19:43.33 | 2:10.34 | 88758 | 98541
8 | 21:53.67 | 2:31.45 | 98542 | 109911
9 | 24:25.37 | 2:46.00 | 109912 | 122361
10 | 27:11.37 | 2:30.15 | 122362 | 133626
11 | 29:41.52 | 2:29.19 | 133627 | 144820
12 | 32:10.71 | 3:16.27 | 144821 | 159547
13 | 35:27.23 | 2:40.13 | 159548 | 171560
14 | 38:07.36 | 1:47.59 | 171561 | 179644
15 | 39:55.20 | 2:49.39 | 179645 | 192358
16 | 42:44.59 | 3:08.48 | 192359 | 206506
17 | 45:53.32 | 2:25.05 | 206507 | 217386
18 | 48:18.37 | 2:58.57 | 217387 | 230793
19 | 51:17.19 | 5:00.21 | 230794 | 253314
20 | 56:17.40 | 2:03.46 | 253315 | 262585


Track 1

Filename F:\#EAC wav+flac\#New\VA - The Blues Bible\cd 3\01. John Lee Hooker - Boom Boom.wav

Pre-gap length 0:00:02.00

Peak level 98.3 %
Extraction speed 3.3 X
Track quality 99.9 %
Test CRC FE696518
Copy CRC FE696518
Track not present in AccurateRip database
Copy OK

Track 2

Filename F:\#EAC wav+flac\#New\VA - The Blues Bible\cd 3\02. Howlin' Wolf - Smokestack Lightnin'.wav

Pre-gap length 0:00:01.77

Peak level 98.3 %
Extraction speed 4.5 X
Track quality 100.0 %
Test CRC 854D3B1F
Copy CRC 854D3B1F
Track not present in AccurateRip database
Copy OK

Track 3

Filename F:\#EAC wav+flac\#New\VA - The Blues Bible\cd 3\03. Muddy Waters - I'm Your Hoochie Coochie Man [Casino].wav

Pre-gap length 0:00:01.77

Peak level 98.7 %
Extraction speed 5.2 X
Track quality 100.0 %
Test CRC 3086D4D7
Copy CRC 3086D4D7
Track not present in AccurateRip database
Copy OK

Track 4

Filename F:\#EAC wav+flac\#New\VA - The Blues Bible\cd 3\04. Albert King - I Get Evil.wav

Pre-gap length 0:00:01.77

Peak level 98.3 %
Extraction speed 5.3 X
Track quality 100.0 %
Test CRC 6737D32F
Copy CRC 6737D32F
Track not present in AccurateRip database
Copy OK

Track 5

Filename F:\#EAC wav+flac\#New\VA - The Blues Bible\cd 3\05. Elmore James - Dust My Broom.wav

Pre-gap length 0:00:01.77

Peak level 98.3 %
Extraction speed 5.9 X
Track quality 100.0 %
Test CRC 72AF391E
Copy CRC 72AF391E
Track not present in AccurateRip database
Copy OK

Track 6

Filename F:\#EAC wav+flac\#New\VA - The Blues Bible\cd 3\06. Bo Diddley - I'm Bad.wav

Pre-gap length 0:00:01.77

Peak level 98.4 %
Extraction speed 6.1 X
Track quality 100.0 %
Test CRC 31F74A0E
Copy CRC 31F74A0E
Track not present in AccurateRip database
Copy OK

Track 7

Filename F:\#EAC wav+flac\#New\VA - The Blues Bible\cd 3\07. B.B. King - Troubles Troubles Troubles.wav

Pre-gap length 0:00:01.77

Peak level 98.5 %
Extraction speed 4.3 X
Track quality 99.9 %
Test CRC 11A3311C
Copy CRC 11A3311C
Track not present in AccurateRip database
Copy OK

Track 8

Filename F:\#EAC wav+flac\#New\VA - The Blues Bible\cd 3\08. Guitar Slim - The Things That I Used To Do.wav

Pre-gap length 0:00:01.77

Peak level 98.2 %
Extraction speed 6.2 X
Track quality 100.0 %
Test CRC 279D8E00
Copy CRC 279D8E00
Track not present in AccurateRip database
Copy OK

Track 9

Filename F:\#EAC wav+flac\#New\VA - The Blues Bible\cd 3\09. Little Walter - Juke.wav

Pre-gap length 0:00:01.77

Peak level 98.3 %
Extraction speed 5.1 X
Track quality 99.9 %
Test CRC 368AFDBA
Copy CRC 368AFDBA
Track not present in AccurateRip database
Copy OK

Track 10

Filename F:\#EAC wav+flac\#New\VA - The Blues Bible\cd 3\10. Lightnin' Hopkins - Shotgun Blues.wav

Pre-gap length 0:00:01.77

Peak level 98.3 %
Extraction speed 6.6 X
Track quality 100.0 %
Test CRC BCF0E07A
Copy CRC BCF0E07A
Track not present in AccurateRip database
Copy OK

Track 11

Filename F:\#EAC wav+flac\#New\VA - The Blues Bible\cd 3\11. Slim Harpo - I'm A King Bee.wav

Pre-gap length 0:00:01.77

Peak level 98.3 %
Extraction speed 6.7 X
Track quality 100.0 %
Test CRC 658C9EC6
Copy CRC 658C9EC6
Track not present in AccurateRip database
Copy OK

Track 12

Filename F:\#EAC wav+flac\#New\VA - The Blues Bible\cd 3\12. Big Bill Broonzy - Baby Please Don't Go.wav

Pre-gap length 0:00:01.77

Peak level 98.2 %
Extraction speed 7.2 X
Track quality 100.0 %
Test CRC 913DEC92
Copy CRC 913DEC92
Track not present in AccurateRip database
Copy OK

Track 13

Filename F:\#EAC wav+flac\#New\VA - The Blues Bible\cd 3\13. Bobby Bland - Further Up The Road.wav

Pre-gap length 0:00:01.77

Peak level 98.0 %
Extraction speed 7.2 X
Track quality 100.0 %
Test CRC 662F2059
Copy CRC 662F2059
Track not present in AccurateRip database
Copy OK

Track 14

Filename F:\#EAC wav+flac\#New\VA - The Blues Bible\cd 3\14. Son House - Death Letter Blues.wav

Pre-gap length 0:00:01.77

Peak level 98.3 %
Extraction speed 6.7 X
Track quality 100.0 %
Test CRC A62E994C
Copy CRC A62E994C
Track not present in AccurateRip database
Copy OK

Track 15

Filename F:\#EAC wav+flac\#New\VA - The Blues Bible\cd 3\15. T-Bone Walker - Stormy Monday.wav

Pre-gap length 0:00:01.77

Peak level 98.6 %
Extraction speed 7.5 X
Track quality 100.0 %
Test CRC 2F2D88B7
Copy CRC 2F2D88B7
Track not present in AccurateRip database
Copy OK

Track 16

Filename F:\#EAC wav+flac\#New\VA - The Blues Bible\cd 3\16. Johnny Guitar Watson - Gangster Of Love.wav

Pre-gap length 0:00:01.77

Peak level 98.3 %
Extraction speed 7.9 X
Track quality 100.0 %
Test CRC 1864271F
Copy CRC 1864271F
Track not present in AccurateRip database
Copy OK

Track 17

Filename F:\#EAC wav+flac\#New\VA - The Blues Bible\cd 3\17. Sam Meyers - Sad Sad Lonesome Day.wav

Pre-gap length 0:00:01.77

Peak level 98.4 %
Extraction speed 5.8 X
Track quality 99.9 %
Test CRC D6220E28
Copy CRC D6220E28
Track not present in AccurateRip database
Copy OK

Track 18

Filename F:\#EAC wav+flac\#New\VA - The Blues Bible\cd 3\18. Sonny Boy Williamson - Keep It To Yourself.wav

Pre-gap length 0:00:01.77

Peak level 98.3 %
Extraction speed 8.2 X
Track quality 100.0 %
Test CRC 55553446
Copy CRC 55553446
Track not present in AccurateRip database
Copy OK

Track 19

Filename F:\#EAC wav+flac\#New\VA - The Blues Bible\cd 3\19. Lead Belly - Black Betty.wav

Pre-gap length 0:00:01.77

Peak level 98.4 %
Extraction speed 8.9 X
Track quality 100.0 %
Test CRC A2059959
Copy CRC A2059959
Track not present in AccurateRip database
Copy OK

Track 20

Filename F:\#EAC wav+flac\#New\VA - The Blues Bible\cd 3\20. Robert Johnson - Cross Road Blues.wav

Pre-gap length 0:00:01.77

Peak level 98.5 %
Extraction speed 7.8 X
Track quality 100.0 %
Test CRC 63AF6001
Copy CRC 63AF6001
Track not present in AccurateRip database
Copy OK


None of the tracks are present in the AccurateRip database

No errors occurred

End of status report

–– CUETools DB Plugin V2.1.6

[CTDB TOCID: J1IiEHcyMXtTZyLNsVCoTycvIeA-] disk not present in database
Submit result: J1IiEHcyMXtTZyLNsVCoTycvIeA- has been uploaded


==== Log checksum 393F3F0CA0CC2F16EE88E551325F74336BE53674D04DEA2DC4ADEA824FDA8EB0 ====

Thanks to the Original ripper !