Tags
Language
Tags

Various Artists - The Heavy Heavy Monster Sound, The Story of Trojan Records (2010) {2CD Universal SPECXX2041}

Posted By: ruskaval
Various Artists - The Heavy Heavy Monster Sound, The Story of Trojan Records (2010) {2CD Universal SPECXX2041}

Various Artists - The Heavy Heavy Monster Sound, The Story of Trojan Records (2010) {2CD Universal SPECXX2041}
EAC rip (secure mode) | FLAC (tracks)+CUE+LOG -> 624 Mb | MP3 @320 -> 278 Mb
Full Artwork @ 300 dpi (png) -> 66 Mb | 5% repair rar
© 2010 Trojan Records / Sanctuary Records / Universal Music | SPECXX2041
Reggae / Dub / Reggae-Pop / Rocksteady / Roots Reggae

A British reissue label that specializes in ska, rocksteady, and reggae releases by Jamaican producers like Leslie Kong and Duke Reid, Trojan Records has a deep Jamaican catalog from the late '60s and early '70s, and it’s a time capsule the imprint dips into for various compilations on a regular basis.

This two-disc, 40-track collection combines 20 of the label’s biggest U.K. successes (on disc one) with 20 seldom-heard rarities (on disc two). It’s fun stuff, from classics like Jimmy Cliff's “Wonderful World Beautiful People,” the Maytals' “Monkey Man,” and Desmond Dekker's “You Can Get It If You Really Want” to obscure gems like Ansel Collins' “High Voltage (AKA Monkey),” a wonderful piece of demented soul-jazz-reggae, and the Justin Robertson dub-funk mix of the Pioneers' “I Need Your Sweet Inspiration."
Various Artists - The Heavy Heavy Monster Sound, The Story of Trojan Records (2010) {2CD Universal SPECXX2041}


TRACK LISTING:

Disc 1 of 2:


01. Tony Tribe / Red Red Wine - 02:57
02. The Pioneers / Longshot Kick De Bucket - 02:50
03. Harry J. All Stars / Liquidator - 03:08
04. Jimmy Cliff / Wonderful World Beautiful People - 03:13
05. The Upsetters / Return Of Django - 02:32
06. The Melodians / Sweet Sensation - 03:54
07. The Maytals / Monkey Man - 03:46
08. Bob And Marcia / Young, Gifted And Black - 03:09
09. Desmond Dekker / You Can Get It If You Really Want - 02:39
10. Horace Faith / Black Pearl - 02:39
11. Dave and Ansel Collins / Double Barrel - 02:47
12. Bruce Ruffin / Rain - 02:25
13. Bob and Marcia / Pied Piper - 02:49
14. Greyhound / Black And White - 02:58
15. Dave and Ansel Collins / Monkey Spanner - 02:31
16. The Pioneers / Let Your Yeah Be Yeah - 03:10
17. Dandy Livingstone / Suzanne Beware Of The Devil - 02:38
18. Judge Dread / Big Seven - 03:23
19. John Holt / Help Me Make It Through The Night - 03:07
20. Ken Boothe / Everything I Own - 03:47

Various Artists - The Heavy Heavy Monster Sound, The Story of Trojan Records (2010) {2CD Universal SPECXX2041}


Disc 2 of 2:

01. Ranny Williams and George Regent / Let Them Talk - 02:39
02. Wallace Wilson and Anonymously Yours / '69 - 02:11
03. Sam Sham / Drumbago Dead - 01:48
04. The Wanderers / Jaga Jaga War - 02:10
05. Ansel Collins and the Beverley's All Stars / High Voltage [aka Monkey] - 02:59
06. Carl Dawkins / Get Together - 02:19
07. The Chosen Few / Going Back Home - 03:05
08. Winston Wright and the Dragonaires / Bond In Bliss - 02:29
09. The Aces / Down We Go - 02:06
10. Keith Cole / Music Alone Version Three - 02:35
11. Martin Riley / Lord Pity Us All - 03:10
12. The Marvels / All The King's Horses (And All The King's Men) - 02:34
13. Danny D and the Shadows / Lord A Massie Massie - 02:18
14. The Upsetters / Kiss Me Neck - 03:00
15. Joe White and the Harry J. All Stars / Skank Indigo - 04:07
16. Thunderball / My Twenty Eight - 03:35
17. John Holt / Let It Go On (For Ever) - 02:50
18. Ranking Trevor / Mr. Reagan, President Of The United States - 03:35
19. George Dekker / Shub In - 03:43
20. The Pioneers / I Need Your Sweet Inspiration [Justin Robertson mix] - 04:47

Various Artists - The Heavy Heavy Monster Sound, The Story of Trojan Records (2010) {2CD Universal SPECXX2041}


Exact Audio Copy V1.0 beta 4 from 7. December 2014

EAC extraction logfile from 2. June 2015, 16:41

Various Artists / The Heavy Heavy Monster Sound, The Story of Trojan Records [CD 1 of 2]

Used drive : HL-DT-STDVDRAM GT51N Adapter: 1 ID: 0

Read mode : Secure
Utilize accurate stream : Yes
Defeat audio cache : Yes
Make use of C2 pointers : No

Read offset correction : 103
Overread into Lead-In and Lead-Out : No
Fill up missing offset samples with silence : Yes
Delete leading and trailing silent blocks : No
Null samples used in CRC calculations : Yes
Used interface : Native Win32 interface for Win NT & 2000
Gap handling : Appended to previous track

Used output format : User Defined Encoder
Selected bitrate : 896 kBit/s
Quality : High
Add ID3 tag : No
Command line compressor : C:\Exact Audio Copy\Flac\flac.EXE
Additional command line options : -8 -V -T "ARTIST=%artist%" -T "TITLE=%title%" -T "ALBUM=%albumtitle%" -T "DATE=%year%" -T "TRACKNUMBER=%tracknr%" -T "TOTALTRACKS=%numtracks%" -T "GENRE=%genre%" -T "ALBUMARTIST=%albumartist%" -T "ALBUM ARTIST=%albumartist%" -T "COMMENT=EAC Secure Mode, Test & Copy, AccurateRip, FLAC -8" %source%


TOC of the extracted CD

Track | Start | Length | Start sector | End sector
––––––––––––––––––––––––––––-
1 | 0:00.00 | 2:56.65 | 0 | 13264
2 | 2:56.65 | 2:49.42 | 13265 | 25981
3 | 5:46.32 | 3:07.43 | 25982 | 40049
4 | 8:54.00 | 3:13.33 | 40050 | 54557
5 | 12:07.33 | 2:32.27 | 54558 | 65984
6 | 14:39.60 | 3:53.59 | 65985 | 83518
7 | 18:33.44 | 3:46.03 | 83519 | 100471
8 | 22:19.47 | 3:08.59 | 100472 | 114630
9 | 25:28.31 | 2:38.73 | 114631 | 126553
10 | 28:07.29 | 2:38.59 | 126554 | 138462
11 | 30:46.13 | 2:46.48 | 138463 | 150960
12 | 33:32.61 | 2:25.09 | 150961 | 161844
13 | 35:57.70 | 2:48.58 | 161845 | 174502
14 | 38:46.53 | 2:57.47 | 174503 | 187824
15 | 41:44.25 | 2:31.13 | 187825 | 199162
16 | 44:15.38 | 3:10.08 | 199163 | 213420
17 | 47:25.46 | 2:37.59 | 213421 | 225254
18 | 50:03.30 | 3:23.34 | 225255 | 240513
19 | 53:26.64 | 3:06.69 | 240514 | 254532
20 | 56:33.58 | 3:46.38 | 254533 | 271520


Track 1

Filename C:\Temp\01 - Tony Tribe - Red Red Wine.wav

Pre-gap length 0:00:02.00

Peak level 74.5 %
Extraction speed 1.1 X
Track quality 100.0 %
Test CRC E84C8F02
Copy CRC E84C8F02
Accurately ripped (confidence 11) [0D9F2142] (AR v2)
Copy OK

Track 2

Filename C:\Temp\02 - The Pioneers - Longshot Kick De Bucket.wav

Pre-gap length 0:00:02.03

Peak level 74.5 %
Extraction speed 1.2 X
Track quality 100.0 %
Test CRC 7F057EBF
Copy CRC 7F057EBF
Accurately ripped (confidence 11) [E3948B40] (AR v2)
Copy OK

Track 3

Filename C:\Temp\03 - Harry J. All Stars - Liquidator.wav

Pre-gap length 0:00:02.19

Peak level 74.5 %
Extraction speed 1.2 X
Track quality 99.9 %
Test CRC A02CF65B
Copy CRC A02CF65B
Accurately ripped (confidence 11) [F6CFAFCF] (AR v2)
Copy OK

Track 4

Filename C:\Temp\04 - Jimmy Cliff - Wonderful World Beautiful People.wav

Pre-gap length 0:00:02.06

Peak level 62.3 %
Extraction speed 1.4 X
Track quality 100.0 %
Test CRC 7854A5A7
Copy CRC 7854A5A7
Accurately ripped (confidence 11) [AF6CF901] (AR v2)
Copy OK

Track 5

Filename C:\Temp\05 - The Upsetters - Return Of Django.wav

Pre-gap length 0:00:02.01

Peak level 74.4 %
Extraction speed 1.2 X
Track quality 99.9 %
Test CRC 55BDCF63
Copy CRC 55BDCF63
Accurately ripped (confidence 11) [D7D8EFE4] (AR v2)
Copy OK

Track 6

Filename C:\Temp\06 - The Melodians - Sweet Sensation.wav

Pre-gap length 0:00:02.11

Peak level 74.5 %
Extraction speed 1.7 X
Track quality 100.0 %
Test CRC 36D37EB0
Copy CRC 36D37EB0
Accurately ripped (confidence 10) [8DFBC375] (AR v2)
Copy OK

Track 7

Filename C:\Temp\07 - The Maytals - Monkey Man.wav

Pre-gap length 0:00:02.06

Peak level 73.9 %
Extraction speed 1.8 X
Track quality 100.0 %
Test CRC A5B6A065
Copy CRC A5B6A065
Accurately ripped (confidence 11) [D465C096] (AR v2)
Copy OK

Track 8

Filename C:\Temp\08 - Bob And Marcia - Young, Gifted And Black.wav

Pre-gap length 0:00:02.01

Peak level 72.7 %
Extraction speed 1.8 X
Track quality 100.0 %
Test CRC 60B80347
Copy CRC 60B80347
Accurately ripped (confidence 11) [DE87923D] (AR v2)
Copy OK

Track 9

Filename C:\Temp\09 - Desmond Dekker - You Can Get It If You Really Want.wav

Pre-gap length 0:00:02.28

Peak level 74.5 %
Extraction speed 1.8 X
Track quality 100.0 %
Test CRC FD39B12E
Copy CRC FD39B12E
Accurately ripped (confidence 11) [5BB3B93A] (AR v2)
Copy OK

Track 10

Filename C:\Temp\10 - Horace Faith - Black Pearl.wav

Pre-gap length 0:00:02.09

Peak level 74.5 %
Extraction speed 1.9 X
Track quality 100.0 %
Test CRC A5E065E9
Copy CRC A5E065E9
Accurately ripped (confidence 11) [ABE95425] (AR v2)
Copy OK

Track 11

Filename C:\Temp\11 - Dave and Ansel Collins - Double Barrel.wav

Pre-gap length 0:00:02.05

Peak level 74.5 %
Extraction speed 1.6 X
Track quality 99.9 %
Test CRC CA92FEF1
Copy CRC CA92FEF1
Accurately ripped (confidence 11) [BF62612D] (AR v2)
Copy OK

Track 12

Filename C:\Temp\12 - Bruce Ruffin - Rain.wav

Pre-gap length 0:00:02.17

Peak level 72.4 %
Extraction speed 1.9 X
Track quality 100.0 %
Test CRC 5B141FF8
Copy CRC 5B141FF8
Accurately ripped (confidence 11) [B8A8F5E8] (AR v2)
Copy OK

Track 13

Filename C:\Temp\13 - Bob and Marcia - Pied Piper.wav

Pre-gap length 0:00:03.20

Peak level 71.2 %
Extraction speed 2.1 X
Track quality 100.0 %
Test CRC 2E2B5A9B
Copy CRC 2E2B5A9B
Accurately ripped (confidence 11) [17926B05] (AR v2)
Copy OK

Track 14

Filename C:\Temp\14 - Greyhound - Black And White.wav

Pre-gap length 0:00:02.08

Peak level 67.1 %
Extraction speed 1.8 X
Track quality 99.9 %
Test CRC FF248E8E
Copy CRC FF248E8E
Accurately ripped (confidence 11) [52BBB302] (AR v2)
Copy OK

Track 15

Filename C:\Temp\15 - Dave and Ansel Collins - Monkey Spanner.wav

Pre-gap length 0:00:02.08

Peak level 69.9 %
Extraction speed 2.1 X
Track quality 100.0 %
Test CRC 9F0AF1BF
Copy CRC 9F0AF1BF
Accurately ripped (confidence 11) [0C4F0AC5] (AR v2)
Copy OK

Track 16

Filename C:\Temp\16 - The Pioneers - Let Your Yeah Be Yeah.wav

Pre-gap length 0:00:02.21

Peak level 69.9 %
Extraction speed 2.2 X
Track quality 100.0 %
Test CRC 193F0460
Copy CRC 193F0460
Accurately ripped (confidence 11) [FBE07CAF] (AR v2)
Copy OK

Track 17

Filename C:\Temp\17 - Dandy Livingstone - Suzanne Beware Of The Devil.wav

Pre-gap length 0:00:02.22

Peak level 74.5 %
Extraction speed 2.2 X
Track quality 100.0 %
Test CRC 6DA0FCE0
Copy CRC 6DA0FCE0
Accurately ripped (confidence 11) [4458283C] (AR v2)
Copy OK

Track 18

Filename C:\Temp\18 - Judge Dread - Big Seven.wav

Pre-gap length 0:00:02.08

Peak level 71.7 %
Extraction speed 2.4 X
Track quality 100.0 %
Test CRC A7AD2DE6
Copy CRC A7AD2DE6
Accurately ripped (confidence 11) [9E86509F] (AR v2)
Copy OK

Track 19

Filename C:\Temp\19 - John Holt - Help Me Make It Through The Night.wav

Pre-gap length 0:00:02.10

Peak level 74.1 %
Extraction speed 2.0 X
Track quality 99.9 %
Test CRC 6EAA4104
Copy CRC 6EAA4104
Accurately ripped (confidence 10) [AC21EC5D] (AR v2)
Copy OK

Track 20

Filename C:\Temp\20 - Ken Boothe - Everything I Own.wav

Pre-gap length 0:00:02.18

Peak level 74.5 %
Extraction speed 2.5 X
Track quality 100.0 %
Test CRC D24EEE31
Copy CRC D24EEE31
Accurately ripped (confidence 11) [405E6F25] (AR v2)
Copy OK


All tracks accurately ripped

No errors occurred

End of status report

==== Log checksum 51FE93B1DC7B272D0B4B24350E336594A5B8A496E2E1CBD3041211FE826D6C87 ====
Exact Audio Copy V1.0 beta 4 from 7. December 2014

EAC extraction logfile from 2. June 2015, 18:12

Various Artists / The Heavy Heavy Monster Sound, The Story of Trojan Records [CD 2 of 2]

Used drive : HL-DT-STDVDRAM GT51N Adapter: 1 ID: 0

Read mode : Secure
Utilize accurate stream : Yes
Defeat audio cache : Yes
Make use of C2 pointers : No

Read offset correction : 103
Overread into Lead-In and Lead-Out : No
Fill up missing offset samples with silence : Yes
Delete leading and trailing silent blocks : No
Null samples used in CRC calculations : Yes
Used interface : Native Win32 interface for Win NT & 2000
Gap handling : Appended to previous track

Used output format : User Defined Encoder
Selected bitrate : 896 kBit/s
Quality : High
Add ID3 tag : No
Command line compressor : C:\Exact Audio Copy\Flac\flac.EXE
Additional command line options : -8 -V -T "ARTIST=%artist%" -T "TITLE=%title%" -T "ALBUM=%albumtitle%" -T "DATE=%year%" -T "TRACKNUMBER=%tracknr%" -T "TOTALTRACKS=%numtracks%" -T "GENRE=%genre%" -T "ALBUMARTIST=%albumartist%" -T "ALBUM ARTIST=%albumartist%" -T "COMMENT=EAC Secure Mode, Test & Copy, AccurateRip, FLAC -8" %source%


TOC of the extracted CD

Track | Start | Length | Start sector | End sector
––––––––––––––––––––––––––––-
1 | 0:00.00 | 2:38.49 | 0 | 11898
2 | 2:38.49 | 2:10.52 | 11899 | 21700
3 | 4:49.26 | 1:48.31 | 21701 | 29831
4 | 6:37.57 | 2:10.18 | 29832 | 39599
5 | 8:48.00 | 2:58.45 | 39600 | 52994
6 | 11:46.45 | 2:18.57 | 52995 | 63401
7 | 14:05.27 | 3:04.54 | 63402 | 77255
8 | 17:10.06 | 2:28.42 | 77256 | 88397
9 | 19:38.48 | 2:06.35 | 88398 | 97882
10 | 21:45.08 | 2:34.42 | 97883 | 109474
11 | 24:19.50 | 3:09.44 | 109475 | 123693
12 | 27:29.19 | 2:34.17 | 123694 | 135260
13 | 30:03.36 | 2:18.02 | 135261 | 145612
14 | 32:21.38 | 2:59.74 | 145613 | 159111
15 | 35:21.37 | 4:07.24 | 159112 | 177660
16 | 39:28.61 | 3:34.63 | 177661 | 193773
17 | 43:03.49 | 2:50.29 | 193774 | 206552
18 | 45:54.03 | 3:35.08 | 206553 | 222685
19 | 49:29.11 | 3:42.65 | 222686 | 239400
20 | 53:12.01 | 4:47.21 | 239401 | 260946


Track 1

Filename C:\Temp\01 - Ranny Williams and George Regent - Let Them Talk.wav

Pre-gap length 0:00:02.00

Peak level 99.2 %
Extraction speed 1.1 X
Track quality 100.0 %
Test CRC 094AB9C1
Copy CRC 094AB9C1
Track not present in AccurateRip database
Copy OK

Track 2

Filename C:\Temp\02 - Wallace Wilson and Anonymously Yours - '69.wav

Pre-gap length 0:00:01.43

Peak level 99.6 %
Extraction speed 1.1 X
Track quality 100.0 %
Test CRC 947684A7
Copy CRC 947684A7
Track not present in AccurateRip database
Copy OK

Track 3

Filename C:\Temp\03 - Sam Sham - Drumbago Dead.wav

Pre-gap length 0:00:01.43

Peak level 99.3 %
Extraction speed 1.1 X
Track quality 100.0 %
Test CRC 60C60B49
Copy CRC 60C60B49
Track not present in AccurateRip database
Copy OK

Track 4

Filename C:\Temp\04 - The Wanderers - Jaga Jaga War.wav

Pre-gap length 0:00:01.43

Peak level 100.0 %
Extraction speed 1.3 X
Track quality 100.0 %
Test CRC 3D6CE250
Copy CRC 3D6CE250
Track not present in AccurateRip database
Copy OK

Track 5

Filename C:\Temp\05 - Ansel Collins and the Beverley's All Stars - High Voltage [aka Monkey].wav

Pre-gap length 0:00:01.40

Peak level 99.7 %
Extraction speed 1.2 X
Track quality 99.9 %
Test CRC 40227F29
Copy CRC 40227F29
Track not present in AccurateRip database
Copy OK

Track 6

Filename C:\Temp\06 - Carl Dawkins - Get Together.wav

Pre-gap length 0:00:01.42

Peak level 99.2 %
Extraction speed 1.2 X
Track quality 99.9 %
Test CRC B2492EB8
Copy CRC B2492EB8
Track not present in AccurateRip database
Copy OK

Track 7

Filename C:\Temp\07 - The Chosen Few - Going Back Home.wav

Pre-gap length 0:00:01.42

Peak level 99.9 %
Extraction speed 1.6 X
Track quality 100.0 %
Test CRC D3B03AB3
Copy CRC D3B03AB3
Track not present in AccurateRip database
Copy OK

Track 8

Filename C:\Temp\08 - Winston Wright and the Dragonaires - Bond In Bliss.wav

Pre-gap length 0:00:01.43

Peak level 99.4 %
Extraction speed 1.6 X
Track quality 100.0 %
Test CRC E9623E53
Copy CRC E9623E53
Track not present in AccurateRip database
Copy OK

Track 9

Filename C:\Temp\09 - The Aces - Down We Go.wav

Pre-gap length 0:00:01.42

Peak level 98.9 %
Extraction speed 1.3 X
Track quality 99.9 %
Test CRC E06C578D
Copy CRC E06C578D
Track not present in AccurateRip database
Copy OK

Track 10

Filename C:\Temp\10 - Keith Cole - Music Alone Version Three.wav

Pre-gap length 0:00:01.43

Peak level 99.5 %
Extraction speed 1.7 X
Track quality 100.0 %
Test CRC 7B24D68C
Copy CRC 7B24D68C
Track not present in AccurateRip database
Copy OK

Track 11

Filename C:\Temp\11 - Martin Riley - Lord Pity Us All.wav

Pre-gap length 0:00:01.43

Peak level 99.7 %
Extraction speed 1.6 X
Track quality 99.9 %
Test CRC C39C950B
Copy CRC C39C950B
Track not present in AccurateRip database
Copy OK

Track 12

Filename C:\Temp\12 - The Marvels - All The King's Horses (And All The King's Men).wav

Pre-gap length 0:00:01.43

Peak level 99.3 %
Extraction speed 1.8 X
Track quality 100.0 %
Test CRC CA610182
Copy CRC CA610182
Track not present in AccurateRip database
Copy OK

Track 13

Filename C:\Temp\13 - Danny D and the Shadows - Lord A Massie Massie.wav

Pre-gap length 0:00:01.43

Peak level 99.1 %
Extraction speed 1.8 X
Track quality 100.0 %
Test CRC 058DD9BA
Copy CRC 058DD9BA
Track not present in AccurateRip database
Copy OK

Track 14

Filename C:\Temp\14 - The Upsetters - Kiss Me Neck.wav

Pre-gap length 0:00:01.42

Peak level 99.1 %
Extraction speed 2.0 X
Track quality 100.0 %
Test CRC D8ED559E
Copy CRC D8ED559E
Track not present in AccurateRip database
Copy OK

Track 15

Filename C:\Temp\15 - Joe White and the Harry J. All Stars - Skank Indigo.wav

Pre-gap length 0:00:01.42

Peak level 99.6 %
Extraction speed 1.9 X
Track quality 99.9 %
Test CRC 2A8584D2
Copy CRC 2A8584D2
Track not present in AccurateRip database
Copy OK

Track 16

Filename C:\Temp\16 - Thunderball - My Twenty Eight.wav

Pre-gap length 0:00:01.43

Peak level 98.8 %
Extraction speed 2.2 X
Track quality 100.0 %
Test CRC AF283E4A
Copy CRC AF283E4A
Track not present in AccurateRip database
Copy OK

Track 17

Filename C:\Temp\17 - John Holt - Let It Go On (For Ever).wav

Pre-gap length 0:00:01.40

Peak level 97.7 %
Extraction speed 2.2 X
Track quality 100.0 %
Test CRC AF30D025
Copy CRC AF30D025
Track not present in AccurateRip database
Copy OK

Track 18

Filename C:\Temp\18 - Ranking Trevor - Mr. Reagan, President Of The United States.wav

Pre-gap length 0:00:01.43

Peak level 99.2 %
Extraction speed 2.0 X
Track quality 99.9 %
Test CRC F46BBDE9
Copy CRC F46BBDE9
Track not present in AccurateRip database
Copy OK

Track 19

Filename C:\Temp\19 - George Dekker - Shub In.wav

Pre-gap length 0:00:01.41

Peak level 99.3 %
Extraction speed 2.4 X
Track quality 100.0 %
Test CRC 769A6B44
Copy CRC 769A6B44
Track not present in AccurateRip database
Copy OK

Track 20

Filename C:\Temp\20 - The Pioneers - I Need Your Sweet Inspiration [Justin Robertson mix].wav

Pre-gap length 0:00:01.43

Peak level 98.7 %
Extraction speed 2.6 X
Track quality 100.0 %
Test CRC 75AF1F76
Copy CRC 75AF1F76
Track not present in AccurateRip database
Copy OK


None of the tracks are present in the AccurateRip database

No errors occurred

End of status report

==== Log checksum 1D7DDBD775713FF106EFC0D1A2849693AF783CF81C77E2887447B199E080A539 ====


Various Artists - The Heavy Heavy Monster Sound, The Story of Trojan Records (2010) {2CD Universal SPECXX2041}


see more reggae…


===