Tags
Language
Tags

VA - Top 40 Country Christmas (2017)

Posted By:
VA - Top 40 Country Christmas (2017)

VA - Top 40 Country Christmas (2017)
EAC Rip | FLAC (tracks+log+.cue) - 889 Mb | MP3 CBR 320 kbps - 335 Mb | 02:25:56
Country, Xmas | Label: Sony Music

Sony Music presents Top 40 Country Christmas - 48 holiday tracks from such artists as Elvis Presley, Connie Smith, Roy Orbison, Johnny Cash, Dolly Parton and many others.
Tracklist:
01. Elvis Presley - Blue Christmas
02. Dolly Parton & Kenny Rogers - Winter Wonderland / Sleigh Ride
03. Roy Orbison - Pretty Paper
04. Johnny Cash - O Come All Ye Faithful
05. Tammy Wynette - White Christmas
06. Willie Nelson - Away In A Manger
07. John Denver - Christmas For Cowboys
08. Roger Whittaker - Country Christmas
09. Tanya Tucker - Silent Night, Holy Night
10. Charlie Rich - God Rest Ye Merry Gentlmen
11. Jim Reeves - Jingle Bells
12. Lynn Anderson - Rockin' Around The Christmas Tree
13. Alabama - Tennessee Christmas
14. Alan Jackson - I Only Want You For Christmas
15. B.J. Thomas - The First Noel
16. Darleens - It's Gonna Be A Cold Cold Christmas
17. Bobby Vinton - Christmas Eve In My Home Town
18. Brooks & Dunn - The Christmas Song
19. George Jones - O Little Town Of Bethlehem
20. Connie Smith - Joy To The World
21. Merle Haggard - Rudolph, The Red-Nosed Reindeer
22. Ricky Van Shelton - Please Come Home For Christmas
23. The Charlie Daniels Band - My Christmas Love Song To You
24. Shelby Lynne - O Holy Night
25. Chet Atkins - Let It Snow, Let It Snow, Let It Snow

CD 2
01. Johnny Cash - Hark! The Herald Angels Sing
02. Lynn Anderson - Soon It Will Be Christmas Day
03. Merle Haggard - Santa Claus Is Coming To Town
04. Ricky Van Shelton - I'll Be Home For Christmas
05. Dolly Parton - We Three Kings
06. Alan Jackson - Honky Tonk Christmas
07. George Jones & Tammy Wynette - The Greatest Christmas Gift
08. Ray Price - Little Drummer Boy
09. Charley Pride - Christmas In My Home Town
10. Rosanne Cash - It Came Upon A Midnight Clear
11. Brooks & Dunn - It Won't Be Christmas Without You
12. Martina McBride - Do You Hear What I Hear
13. Shawn Colvin - I Don't Need Anything This Christmas
14. Marty Robbins - Christmas Time Is Here Again
15. Ricky Skaggs - New Star Shining
16. Mary Chapin Carpenter - Bells Are Ringing
17. Lonestar - Have Yourself A Merry Little Christmas
18. Kenny Chesney - Silver Bells
19. Hank Snow - Frosty The Snowman
20. Doug Stone - When December Comes Around
21. Ronnie Milsap - It's Christmas
22. Patty Loveless - Santa Train
23. Brad Paisley - Santa Looked A Lot Like Daddy

Exact Audio Copy V1.3 from 2. September 2016

EAC extraction logfile from 20. February 2020, 18:47

Various Artists / Top 40 Country Christmas - The Ultimate Top 40 Collection

Used drive : PLEXTOR PX-891SAF Adapter: 1 ID: 0

Read mode : Secure
Utilize accurate stream : Yes
Defeat audio cache : Yes
Make use of C2 pointers : No

Read offset correction : 6
Overread into Lead-In and Lead-Out : No
Fill up missing offset samples with silence : Yes
Delete leading and trailing silent blocks : No
Null samples used in CRC calculations : Yes
Used interface : Native Win32 interface for Win NT & 2000
Gap handling : Appended to previous track

Used output format : User Defined Encoder
Selected bitrate : 1024 kBit/s
Quality : High
Add ID3 tag : No
Command line compressor : C:\Program Files (x86)\Exact Audio Copy\Flac\flac.exe
Additional command line options : -8 -V -T "ARTIST=%artist%" -T "TITLE=%title%" -T "ALBUM=%albumtitle%" -T "DATE=%year%" -T "TRACKNUMBER=%tracknr%" -T "GENRE=%genre%" -T "PERFORMER=%albuminterpret%" -T "COMPOSER=%composer%" %haslyrics%–tag-from-file=LYRICS="%lyricsfile%"%haslyrics% -T "ALBUMARTIST=%albumartist%" -T "DISCNUMBER=%cdnumber%" -T "TOTALDISCS=%totalcds%" -T "TOTALTRACKS=%numtracks%" -T "COMMENT=%comment%" %source% -o %dest%


TOC of the extracted CD

Track | Start | Length | Start sector | End sector
––––––––––––––––––––––––––––-
1 | 0:00.00 | 2:09.72 | 0 | 9746
2 | 2:09.72 | 3:44.05 | 9747 | 26551
3 | 5:54.02 | 2:48.19 | 26552 | 39170
4 | 8:42.21 | 2:58.13 | 39171 | 52533
5 | 11:40.34 | 2:40.44 | 52534 | 64577
6 | 14:21.03 | 2:24.65 | 64578 | 75442
7 | 16:45.68 | 2:28.39 | 75443 | 86581
8 | 19:14.32 | 2:49.10 | 86582 | 99266
9 | 22:03.42 | 3:05.25 | 99267 | 113166
10 | 25:08.67 | 2:27.25 | 113167 | 124216
11 | 27:36.17 | 1:49.44 | 124217 | 132435
12 | 29:25.61 | 2:03.40 | 132436 | 141700
13 | 31:29.26 | 3:41.65 | 141701 | 158340
14 | 35:11.16 | 3:22.04 | 158341 | 173494
15 | 38:33.20 | 3:35.08 | 173495 | 189627
16 | 42:08.28 | 4:37.36 | 189628 | 210438
17 | 46:45.64 | 2:43.56 | 210439 | 222719
18 | 49:29.45 | 2:56.03 | 222720 | 235922
19 | 52:25.48 | 2:51.54 | 235923 | 248801
20 | 55:17.27 | 2:05.37 | 248802 | 258213
21 | 57:22.64 | 2:49.18 | 258214 | 270906
22 | 60:12.07 | 2:33.58 | 270907 | 282439
23 | 62:45.65 | 4:02.48 | 282440 | 300637
24 | 66:48.38 | 4:08.64 | 300638 | 319301
25 | 70:57.27 | 2:37.08 | 319302 | 331084


Track 1

Filename D:\#cdr\#wav+flac\VA - Top 40 Country Christmas - The Ultimate Top 40 Collection\cd 1\01. Elvis Presley - Blue Christmas.wav

Pre-gap length 0:00:02.00

Peak level 96.6 %
Extraction speed 4.7 X
Track quality 100.0 %
Test CRC CB4A8D91
Copy CRC CB4A8D91
Track not present in AccurateRip database
Copy OK

Track 2

Filename D:\#cdr\#wav+flac\VA - Top 40 Country Christmas - The Ultimate Top 40 Collection\cd 1\02. Dolly Parton & Kenny Rogers - Winter Wonderland , Sleigh Ride.wav

Pre-gap length 0:00:02.00

Peak level 96.6 %
Extraction speed 4.5 X
Track quality 99.9 %
Test CRC 026BCA63
Copy CRC 026BCA63
Track not present in AccurateRip database
Copy OK

Track 3

Filename D:\#cdr\#wav+flac\VA - Top 40 Country Christmas - The Ultimate Top 40 Collection\cd 1\03. Roy Orbison - Pretty Paper.wav

Pre-gap length 0:00:01.98

Peak level 95.8 %
Extraction speed 5.6 X
Track quality 100.0 %
Test CRC 64981D45
Copy CRC 64981D45
Track not present in AccurateRip database
Copy OK

Track 4

Filename D:\#cdr\#wav+flac\VA - Top 40 Country Christmas - The Ultimate Top 40 Collection\cd 1\04. Johnny Cash - O Come All Ye Faithful.wav

Pre-gap length 0:00:02.00

Peak level 96.6 %
Extraction speed 5.9 X
Track quality 100.0 %
Test CRC EE961F99
Copy CRC EE961F99
Track not present in AccurateRip database
Copy OK

Track 5

Filename D:\#cdr\#wav+flac\VA - Top 40 Country Christmas - The Ultimate Top 40 Collection\cd 1\05. Tammy Wynette - White Christmas.wav

Pre-gap length 0:00:02.00

Peak level 93.0 %
Extraction speed 6.1 X
Track quality 100.0 %
Test CRC 72DAD4CC
Copy CRC 72DAD4CC
Track not present in AccurateRip database
Copy OK

Track 6

Filename D:\#cdr\#wav+flac\VA - Top 40 Country Christmas - The Ultimate Top 40 Collection\cd 1\06. Willie Nelson - Away In A Manger.wav

Pre-gap length 0:00:02.00

Peak level 90.2 %
Extraction speed 6.2 X
Track quality 100.0 %
Test CRC E8DC9265
Copy CRC E8DC9265
Track not present in AccurateRip database
Copy OK

Track 7

Filename D:\#cdr\#wav+flac\VA - Top 40 Country Christmas - The Ultimate Top 40 Collection\cd 1\07. John Denver - Christmas For Cowboys.wav

Pre-gap length 0:00:01.98

Peak level 96.6 %
Extraction speed 6.5 X
Track quality 100.0 %
Test CRC 2054112F
Copy CRC 2054112F
Track not present in AccurateRip database
Copy OK

Track 8

Filename D:\#cdr\#wav+flac\VA - Top 40 Country Christmas - The Ultimate Top 40 Collection\cd 1\08. Roger Whittaker - Country Christmas.wav

Pre-gap length 0:00:02.00

Peak level 82.7 %
Extraction speed 6.8 X
Track quality 100.0 %
Test CRC D036B224
Copy CRC D036B224
Track not present in AccurateRip database
Copy OK

Track 9

Filename D:\#cdr\#wav+flac\VA - Top 40 Country Christmas - The Ultimate Top 40 Collection\cd 1\09. Tanya Tucker - Silent Night, Holy Night.wav

Pre-gap length 0:00:02.00

Peak level 96.6 %
Extraction speed 7.3 X
Track quality 100.0 %
Test CRC 941EB8D3
Copy CRC 941EB8D3
Track not present in AccurateRip database
Copy OK

Track 10

Filename D:\#cdr\#wav+flac\VA - Top 40 Country Christmas - The Ultimate Top 40 Collection\cd 1\10. Charlie Rich - God Rest Ye Merry Gentlmen.wav

Pre-gap length 0:00:02.00

Peak level 96.6 %
Extraction speed 7.2 X
Track quality 100.0 %
Test CRC 6885D0AA
Copy CRC 6885D0AA
Track not present in AccurateRip database
Copy OK

Track 11

Filename D:\#cdr\#wav+flac\VA - Top 40 Country Christmas - The Ultimate Top 40 Collection\cd 1\11. Jim Reeves - Jingle Bells.wav

Pre-gap length 0:00:02.00

Peak level 96.6 %
Extraction speed 6.7 X
Track quality 100.0 %
Test CRC 9526CB25
Copy CRC 9526CB25
Track not present in AccurateRip database
Copy OK

Track 12

Filename D:\#cdr\#wav+flac\VA - Top 40 Country Christmas - The Ultimate Top 40 Collection\cd 1\12. Lynn Anderson - Rockin' Around The Christmas Tree.wav

Pre-gap length 0:00:02.00

Peak level 96.6 %
Extraction speed 7.1 X
Track quality 100.0 %
Test CRC 96FB54BD
Copy CRC 96FB54BD
Track not present in AccurateRip database
Copy OK

Track 13

Filename D:\#cdr\#wav+flac\VA - Top 40 Country Christmas - The Ultimate Top 40 Collection\cd 1\13. Alabama - Tennessee Christmas.wav

Pre-gap length 0:00:02.00

Peak level 96.6 %
Extraction speed 8.1 X
Track quality 100.0 %
Test CRC 6B35DA9F
Copy CRC 6B35DA9F
Track not present in AccurateRip database
Copy OK

Track 14

Filename D:\#cdr\#wav+flac\VA - Top 40 Country Christmas - The Ultimate Top 40 Collection\cd 1\14. Alan Jackson - I Only Want You For Christmas.wav

Pre-gap length 0:00:02.00

Peak level 96.6 %
Extraction speed 8.2 X
Track quality 100.0 %
Test CRC CD1EC3A5
Copy CRC CD1EC3A5
Track not present in AccurateRip database
Copy OK

Track 15

Filename D:\#cdr\#wav+flac\VA - Top 40 Country Christmas - The Ultimate Top 40 Collection\cd 1\15. B.J. Thomas - The First Noel.wav

Pre-gap length 0:00:02.00

Peak level 96.6 %
Extraction speed 7.0 X
Track quality 99.9 %
Test CRC 57791869
Copy CRC 57791869
Track not present in AccurateRip database
Copy OK

Track 16

Filename D:\#cdr\#wav+flac\VA - Top 40 Country Christmas - The Ultimate Top 40 Collection\cd 1\16. Darleens - It's Gonna Be A Cold Cold Christmas.wav

Pre-gap length 0:00:02.00

Peak level 96.6 %
Extraction speed 9.1 X
Track quality 100.0 %
Test CRC 6B04FEF3
Copy CRC 6B04FEF3
Track not present in AccurateRip database
Copy OK

Track 17

Filename D:\#cdr\#wav+flac\VA - Top 40 Country Christmas - The Ultimate Top 40 Collection\cd 1\17. Bobby Vinton - Christmas Eve In My Home Town.wav

Pre-gap length 0:00:02.00

Peak level 96.6 %
Extraction speed 8.7 X
Track quality 100.0 %
Test CRC 919987BB
Copy CRC 919987BB
Track not present in AccurateRip database
Copy OK

Track 18

Filename D:\#cdr\#wav+flac\VA - Top 40 Country Christmas - The Ultimate Top 40 Collection\cd 1\18. Brooks & Dunn - The Christmas Song.wav

Pre-gap length 0:00:02.00

Peak level 96.6 %
Extraction speed 9.0 X
Track quality 100.0 %
Test CRC 64417DC4
Copy CRC 64417DC4
Track not present in AccurateRip database
Copy OK

Track 19

Filename D:\#cdr\#wav+flac\VA - Top 40 Country Christmas - The Ultimate Top 40 Collection\cd 1\19. George Jones - O Little Town Of Bethlehem.wav

Pre-gap length 0:00:02.00

Peak level 96.6 %
Extraction speed 9.2 X
Track quality 100.0 %
Test CRC 55FEED1D
Copy CRC 55FEED1D
Track not present in AccurateRip database
Copy OK

Track 20

Filename D:\#cdr\#wav+flac\VA - Top 40 Country Christmas - The Ultimate Top 40 Collection\cd 1\20. Connie Smith - Joy To The World.wav

Pre-gap length 0:00:02.00

Peak level 96.6 %
Extraction speed 6.6 X
Track quality 99.9 %
Test CRC 5E4F5BEC
Copy CRC 5E4F5BEC
Track not present in AccurateRip database
Copy OK

Track 21

Filename D:\#cdr\#wav+flac\VA - Top 40 Country Christmas - The Ultimate Top 40 Collection\cd 1\21. Merle Haggard - Rudolph, The Red-Nosed Reindeer.wav

Pre-gap length 0:00:01.98

Peak level 96.6 %
Extraction speed 9.4 X
Track quality 100.0 %
Test CRC 7E4D3C37
Copy CRC 7E4D3C37
Track not present in AccurateRip database
Copy OK

Track 22

Filename D:\#cdr\#wav+flac\VA - Top 40 Country Christmas - The Ultimate Top 40 Collection\cd 1\22. Ricky Van Shelton - Please Come Home For Christmas.wav

Pre-gap length 0:00:02.00

Peak level 96.6 %
Extraction speed 9.4 X
Track quality 100.0 %
Test CRC A778BF65
Copy CRC A778BF65
Track not present in AccurateRip database
Copy OK

Track 23

Filename D:\#cdr\#wav+flac\VA - Top 40 Country Christmas - The Ultimate Top 40 Collection\cd 1\23. The Charlie Daniels Band - My Christmas Love Song To You.wav

Pre-gap length 0:00:02.00

Peak level 96.6 %
Extraction speed 10.3 X
Track quality 100.0 %
Test CRC 9A97E8B2
Copy CRC 9A97E8B2
Track not present in AccurateRip database
Copy OK

Track 24

Filename D:\#cdr\#wav+flac\VA - Top 40 Country Christmas - The Ultimate Top 40 Collection\cd 1\24. Shelby Lynne - O Holy Night.wav

Pre-gap length 0:00:02.00

Peak level 96.6 %
Extraction speed 10.5 X
Track quality 100.0 %
Test CRC 96B48484
Copy CRC 96B48484
Track not present in AccurateRip database
Copy OK

Track 25

Filename D:\#cdr\#wav+flac\VA - Top 40 Country Christmas - The Ultimate Top 40 Collection\cd 1\25. Chet Atkins - Let It Snow, Let It Snow, Let It Snow.wav

Pre-gap length 0:00:02.00

Peak level 96.6 %
Extraction speed 9.9 X
Track quality 100.0 %
Test CRC B4DC823E
Copy CRC B4DC823E
Track not present in AccurateRip database
Copy OK


None of the tracks are present in the AccurateRip database

No errors occurred

End of status report

–– CUETools DB Plugin V2.1.6

[CTDB TOCID: MZT8Qjv.zHHsOcmZWe9.AWibXXo-] disk not present in database
Submit result: MZT8Qjv.zHHsOcmZWe9.AWibXXo- has been uploaded


==== Log checksum EFFC5179D76FE470D8288DEDF2C1FE4B74492D258BB5FCFDC0CD616395015214 ====

––––––––––––––––––––––––––––––

Exact Audio Copy V1.3 from 2. September 2016

EAC extraction logfile from 20. February 2020, 18:47

Various Artists / Top 40 Country Christmas - The Ultimate Top 40 Collection

Used drive : PLEXTOR PX-891SAF Adapter: 1 ID: 0

Read mode : Secure
Utilize accurate stream : Yes
Defeat audio cache : Yes
Make use of C2 pointers : No

Read offset correction : 6
Overread into Lead-In and Lead-Out : No
Fill up missing offset samples with silence : Yes
Delete leading and trailing silent blocks : No
Null samples used in CRC calculations : Yes
Used interface : Native Win32 interface for Win NT & 2000
Gap handling : Appended to previous track

Used output format : User Defined Encoder
Selected bitrate : 1024 kBit/s
Quality : High
Add ID3 tag : No
Command line compressor : C:\Program Files (x86)\Exact Audio Copy\Flac\flac.exe
Additional command line options : -8 -V -T "ARTIST=%artist%" -T "TITLE=%title%" -T "ALBUM=%albumtitle%" -T "DATE=%year%" -T "TRACKNUMBER=%tracknr%" -T "GENRE=%genre%" -T "PERFORMER=%albuminterpret%" -T "COMPOSER=%composer%" %haslyrics%–tag-from-file=LYRICS="%lyricsfile%"%haslyrics% -T "ALBUMARTIST=%albumartist%" -T "DISCNUMBER=%cdnumber%" -T "TOTALDISCS=%totalcds%" -T "TOTALTRACKS=%numtracks%" -T "COMMENT=%comment%" %source% -o %dest%


TOC of the extracted CD

Track | Start | Length | Start sector | End sector
––––––––––––––––––––––––––––-
1 | 0:00.00 | 2:09.72 | 0 | 9746
2 | 2:09.72 | 3:44.05 | 9747 | 26551
3 | 5:54.02 | 2:48.19 | 26552 | 39170
4 | 8:42.21 | 2:58.13 | 39171 | 52533
5 | 11:40.34 | 2:40.44 | 52534 | 64577
6 | 14:21.03 | 2:24.65 | 64578 | 75442
7 | 16:45.68 | 2:28.39 | 75443 | 86581
8 | 19:14.32 | 2:49.10 | 86582 | 99266
9 | 22:03.42 | 3:05.25 | 99267 | 113166
10 | 25:08.67 | 2:27.25 | 113167 | 124216
11 | 27:36.17 | 1:49.44 | 124217 | 132435
12 | 29:25.61 | 2:03.40 | 132436 | 141700
13 | 31:29.26 | 3:41.65 | 141701 | 158340
14 | 35:11.16 | 3:22.04 | 158341 | 173494
15 | 38:33.20 | 3:35.08 | 173495 | 189627
16 | 42:08.28 | 4:37.36 | 189628 | 210438
17 | 46:45.64 | 2:43.56 | 210439 | 222719
18 | 49:29.45 | 2:56.03 | 222720 | 235922
19 | 52:25.48 | 2:51.54 | 235923 | 248801
20 | 55:17.27 | 2:05.37 | 248802 | 258213
21 | 57:22.64 | 2:49.18 | 258214 | 270906
22 | 60:12.07 | 2:33.58 | 270907 | 282439
23 | 62:45.65 | 4:02.48 | 282440 | 300637
24 | 66:48.38 | 4:08.64 | 300638 | 319301
25 | 70:57.27 | 2:37.08 | 319302 | 331084


Track 1

Filename D:\#cdr\#wav+flac\VA - Top 40 Country Christmas - The Ultimate Top 40 Collection\cd 1\01. Elvis Presley - Blue Christmas.wav

Pre-gap length 0:00:02.00

Peak level 96.6 %
Extraction speed 4.7 X
Track quality 100.0 %
Test CRC CB4A8D91
Copy CRC CB4A8D91
Track not present in AccurateRip database
Copy OK

Track 2

Filename D:\#cdr\#wav+flac\VA - Top 40 Country Christmas - The Ultimate Top 40 Collection\cd 1\02. Dolly Parton & Kenny Rogers - Winter Wonderland , Sleigh Ride.wav

Pre-gap length 0:00:02.00

Peak level 96.6 %
Extraction speed 4.5 X
Track quality 99.9 %
Test CRC 026BCA63
Copy CRC 026BCA63
Track not present in AccurateRip database
Copy OK

Track 3

Filename D:\#cdr\#wav+flac\VA - Top 40 Country Christmas - The Ultimate Top 40 Collection\cd 1\03. Roy Orbison - Pretty Paper.wav

Pre-gap length 0:00:01.98

Peak level 95.8 %
Extraction speed 5.6 X
Track quality 100.0 %
Test CRC 64981D45
Copy CRC 64981D45
Track not present in AccurateRip database
Copy OK

Track 4

Filename D:\#cdr\#wav+flac\VA - Top 40 Country Christmas - The Ultimate Top 40 Collection\cd 1\04. Johnny Cash - O Come All Ye Faithful.wav

Pre-gap length 0:00:02.00

Peak level 96.6 %
Extraction speed 5.9 X
Track quality 100.0 %
Test CRC EE961F99
Copy CRC EE961F99
Track not present in AccurateRip database
Copy OK

Track 5

Filename D:\#cdr\#wav+flac\VA - Top 40 Country Christmas - The Ultimate Top 40 Collection\cd 1\05. Tammy Wynette - White Christmas.wav

Pre-gap length 0:00:02.00

Peak level 93.0 %
Extraction speed 6.1 X
Track quality 100.0 %
Test CRC 72DAD4CC
Copy CRC 72DAD4CC
Track not present in AccurateRip database
Copy OK

Track 6

Filename D:\#cdr\#wav+flac\VA - Top 40 Country Christmas - The Ultimate Top 40 Collection\cd 1\06. Willie Nelson - Away In A Manger.wav

Pre-gap length 0:00:02.00

Peak level 90.2 %
Extraction speed 6.2 X
Track quality 100.0 %
Test CRC E8DC9265
Copy CRC E8DC9265
Track not present in AccurateRip database
Copy OK

Track 7

Filename D:\#cdr\#wav+flac\VA - Top 40 Country Christmas - The Ultimate Top 40 Collection\cd 1\07. John Denver - Christmas For Cowboys.wav

Pre-gap length 0:00:01.98

Peak level 96.6 %
Extraction speed 6.5 X
Track quality 100.0 %
Test CRC 2054112F
Copy CRC 2054112F
Track not present in AccurateRip database
Copy OK

Track 8

Filename D:\#cdr\#wav+flac\VA - Top 40 Country Christmas - The Ultimate Top 40 Collection\cd 1\08. Roger Whittaker - Country Christmas.wav

Pre-gap length 0:00:02.00

Peak level 82.7 %
Extraction speed 6.8 X
Track quality 100.0 %
Test CRC D036B224
Copy CRC D036B224
Track not present in AccurateRip database
Copy OK

Track 9

Filename D:\#cdr\#wav+flac\VA - Top 40 Country Christmas - The Ultimate Top 40 Collection\cd 1\09. Tanya Tucker - Silent Night, Holy Night.wav

Pre-gap length 0:00:02.00

Peak level 96.6 %
Extraction speed 7.3 X
Track quality 100.0 %
Test CRC 941EB8D3
Copy CRC 941EB8D3
Track not present in AccurateRip database
Copy OK

Track 10

Filename D:\#cdr\#wav+flac\VA - Top 40 Country Christmas - The Ultimate Top 40 Collection\cd 1\10. Charlie Rich - God Rest Ye Merry Gentlmen.wav

Pre-gap length 0:00:02.00

Peak level 96.6 %
Extraction speed 7.2 X
Track quality 100.0 %
Test CRC 6885D0AA
Copy CRC 6885D0AA
Track not present in AccurateRip database
Copy OK

Track 11

Filename D:\#cdr\#wav+flac\VA - Top 40 Country Christmas - The Ultimate Top 40 Collection\cd 1\11. Jim Reeves - Jingle Bells.wav

Pre-gap length 0:00:02.00

Peak level 96.6 %
Extraction speed 6.7 X
Track quality 100.0 %
Test CRC 9526CB25
Copy CRC 9526CB25
Track not present in AccurateRip database
Copy OK

Track 12

Filename D:\#cdr\#wav+flac\VA - Top 40 Country Christmas - The Ultimate Top 40 Collection\cd 1\12. Lynn Anderson - Rockin' Around The Christmas Tree.wav

Pre-gap length 0:00:02.00

Peak level 96.6 %
Extraction speed 7.1 X
Track quality 100.0 %
Test CRC 96FB54BD
Copy CRC 96FB54BD
Track not present in AccurateRip database
Copy OK

Track 13

Filename D:\#cdr\#wav+flac\VA - Top 40 Country Christmas - The Ultimate Top 40 Collection\cd 1\13. Alabama - Tennessee Christmas.wav

Pre-gap length 0:00:02.00

Peak level 96.6 %
Extraction speed 8.1 X
Track quality 100.0 %
Test CRC 6B35DA9F
Copy CRC 6B35DA9F
Track not present in AccurateRip database
Copy OK

Track 14

Filename D:\#cdr\#wav+flac\VA - Top 40 Country Christmas - The Ultimate Top 40 Collection\cd 1\14. Alan Jackson - I Only Want You For Christmas.wav

Pre-gap length 0:00:02.00

Peak level 96.6 %
Extraction speed 8.2 X
Track quality 100.0 %
Test CRC CD1EC3A5
Copy CRC CD1EC3A5
Track not present in AccurateRip database
Copy OK

Track 15

Filename D:\#cdr\#wav+flac\VA - Top 40 Country Christmas - The Ultimate Top 40 Collection\cd 1\15. B.J. Thomas - The First Noel.wav

Pre-gap length 0:00:02.00

Peak level 96.6 %
Extraction speed 7.0 X
Track quality 99.9 %
Test CRC 57791869
Copy CRC 57791869
Track not present in AccurateRip database
Copy OK

Track 16

Filename D:\#cdr\#wav+flac\VA - Top 40 Country Christmas - The Ultimate Top 40 Collection\cd 1\16. Darleens - It's Gonna Be A Cold Cold Christmas.wav

Pre-gap length 0:00:02.00

Peak level 96.6 %
Extraction speed 9.1 X
Track quality 100.0 %
Test CRC 6B04FEF3
Copy CRC 6B04FEF3
Track not present in AccurateRip database
Copy OK

Track 17

Filename D:\#cdr\#wav+flac\VA - Top 40 Country Christmas - The Ultimate Top 40 Collection\cd 1\17. Bobby Vinton - Christmas Eve In My Home Town.wav

Pre-gap length 0:00:02.00

Peak level 96.6 %
Extraction speed 8.7 X
Track quality 100.0 %
Test CRC 919987BB
Copy CRC 919987BB
Track not present in AccurateRip database
Copy OK

Track 18

Filename D:\#cdr\#wav+flac\VA - Top 40 Country Christmas - The Ultimate Top 40 Collection\cd 1\18. Brooks & Dunn - The Christmas Song.wav

Pre-gap length 0:00:02.00

Peak level 96.6 %
Extraction speed 9.0 X
Track quality 100.0 %
Test CRC 64417DC4
Copy CRC 64417DC4
Track not present in AccurateRip database
Copy OK

Track 19

Filename D:\#cdr\#wav+flac\VA - Top 40 Country Christmas - The Ultimate Top 40 Collection\cd 1\19. George Jones - O Little Town Of Bethlehem.wav

Pre-gap length 0:00:02.00

Peak level 96.6 %
Extraction speed 9.2 X
Track quality 100.0 %
Test CRC 55FEED1D
Copy CRC 55FEED1D
Track not present in AccurateRip database
Copy OK

Track 20

Filename D:\#cdr\#wav+flac\VA - Top 40 Country Christmas - The Ultimate Top 40 Collection\cd 1\20. Connie Smith - Joy To The World.wav

Pre-gap length 0:00:02.00

Peak level 96.6 %
Extraction speed 6.6 X
Track quality 99.9 %
Test CRC 5E4F5BEC
Copy CRC 5E4F5BEC
Track not present in AccurateRip database
Copy OK

Track 21

Filename D:\#cdr\#wav+flac\VA - Top 40 Country Christmas - The Ultimate Top 40 Collection\cd 1\21. Merle Haggard - Rudolph, The Red-Nosed Reindeer.wav

Pre-gap length 0:00:01.98

Peak level 96.6 %
Extraction speed 9.4 X
Track quality 100.0 %
Test CRC 7E4D3C37
Copy CRC 7E4D3C37
Track not present in AccurateRip database
Copy OK

Track 22

Filename D:\#cdr\#wav+flac\VA - Top 40 Country Christmas - The Ultimate Top 40 Collection\cd 1\22. Ricky Van Shelton - Please Come Home For Christmas.wav

Pre-gap length 0:00:02.00

Peak level 96.6 %
Extraction speed 9.4 X
Track quality 100.0 %
Test CRC A778BF65
Copy CRC A778BF65
Track not present in AccurateRip database
Copy OK

Track 23

Filename D:\#cdr\#wav+flac\VA - Top 40 Country Christmas - The Ultimate Top 40 Collection\cd 1\23. The Charlie Daniels Band - My Christmas Love Song To You.wav

Pre-gap length 0:00:02.00

Peak level 96.6 %
Extraction speed 10.3 X
Track quality 100.0 %
Test CRC 9A97E8B2
Copy CRC 9A97E8B2
Track not present in AccurateRip database
Copy OK

Track 24

Filename D:\#cdr\#wav+flac\VA - Top 40 Country Christmas - The Ultimate Top 40 Collection\cd 1\24. Shelby Lynne - O Holy Night.wav

Pre-gap length 0:00:02.00

Peak level 96.6 %
Extraction speed 10.5 X
Track quality 100.0 %
Test CRC 96B48484
Copy CRC 96B48484
Track not present in AccurateRip database
Copy OK

Track 25

Filename D:\#cdr\#wav+flac\VA - Top 40 Country Christmas - The Ultimate Top 40 Collection\cd 1\25. Chet Atkins - Let It Snow, Let It Snow, Let It Snow.wav

Pre-gap length 0:00:02.00

Peak level 96.6 %
Extraction speed 9.9 X
Track quality 100.0 %
Test CRC B4DC823E
Copy CRC B4DC823E
Track not present in AccurateRip database
Copy OK


None of the tracks are present in the AccurateRip database

No errors occurred

End of status report

–– CUETools DB Plugin V2.1.6

[CTDB TOCID: MZT8Qjv.zHHsOcmZWe9.AWibXXo-] disk not present in database
Submit result: MZT8Qjv.zHHsOcmZWe9.AWibXXo- has been uploaded


==== Log checksum EFFC5179D76FE470D8288DEDF2C1FE4B74492D258BB5FCFDC0CD616395015214 ====
Exact Audio Copy V1.3 from 2. September 2016

EAC extraction logfile from 20. February 2020, 19:14

Various Artists / Top 40 Country Christmas - The Ultimate Top 40 Collection

Used drive : PLEXTOR PX-891SAF Adapter: 1 ID: 0

Read mode : Secure
Utilize accurate stream : Yes
Defeat audio cache : Yes
Make use of C2 pointers : No

Read offset correction : 6
Overread into Lead-In and Lead-Out : No
Fill up missing offset samples with silence : Yes
Delete leading and trailing silent blocks : No
Null samples used in CRC calculations : Yes
Used interface : Native Win32 interface for Win NT & 2000
Gap handling : Appended to previous track

Used output format : User Defined Encoder
Selected bitrate : 1024 kBit/s
Quality : High
Add ID3 tag : No
Command line compressor : C:\Program Files (x86)\Exact Audio Copy\Flac\flac.exe
Additional command line options : -8 -V -T "ARTIST=%artist%" -T "TITLE=%title%" -T "ALBUM=%albumtitle%" -T "DATE=%year%" -T "TRACKNUMBER=%tracknr%" -T "GENRE=%genre%" -T "PERFORMER=%albuminterpret%" -T "COMPOSER=%composer%" %haslyrics%–tag-from-file=LYRICS="%lyricsfile%"%haslyrics% -T "ALBUMARTIST=%albumartist%" -T "DISCNUMBER=%cdnumber%" -T "TOTALDISCS=%totalcds%" -T "TOTALTRACKS=%numtracks%" -T "COMMENT=%comment%" %source% -o %dest%


TOC of the extracted CD

Track | Start | Length | Start sector | End sector
––––––––––––––––––––––––––––-
1 | 0:00.00 | 2:31.03 | 0 | 11327
2 | 2:31.03 | 2:08.42 | 11328 | 20969
3 | 4:39.45 | 2:16.02 | 20970 | 31171
4 | 6:55.47 | 3:06.10 | 31172 | 45131
5 | 10:01.57 | 2:45.40 | 45132 | 57546
6 | 12:47.22 | 2:53.45 | 57547 | 70566
7 | 15:40.67 | 2:23.01 | 70567 | 81292
8 | 18:03.68 | 3:56.53 | 81293 | 99045
9 | 22:00.46 | 2:06.30 | 99046 | 108525
10 | 24:07.01 | 3:56.67 | 108526 | 126292
11 | 28:03.68 | 3:44.10 | 126293 | 143102
12 | 31:48.03 | 3:58.21 | 143103 | 160973
13 | 35:46.24 | 3:46.20 | 160974 | 177943
14 | 39:32.44 | 1:19.55 | 177944 | 183923
15 | 40:52.24 | 3:31.53 | 183924 | 199801
16 | 44:24.02 | 3:32.06 | 199802 | 215707
17 | 47:56.08 | 4:23.06 | 215708 | 235438
18 | 52:19.14 | 4:05.29 | 235439 | 253842
19 | 56:24.43 | 2:06.11 | 253843 | 263303
20 | 58:30.54 | 3:38.59 | 263304 | 279712
21 | 62:09.38 | 3:00.21 | 279713 | 293233
22 | 65:09.59 | 3:00.38 | 293234 | 306771
23 | 68:10.22 | 4:11.34 | 306772 | 325630


Track 1

Filename D:\#cdr\#wav+flac\VA - Top 40 Country Christmas - The Ultimate Top 40 Collection\cd 2\01. Johnny Cash - Hark! The Herald Angels Sing.wav

Pre-gap length 0:00:02.00

Peak level 96.6 %
Extraction speed 3.6 X
Track quality 99.9 %
Test CRC 76D104D0
Copy CRC 76D104D0
Track not present in AccurateRip database
Copy OK

Track 2

Filename D:\#cdr\#wav+flac\VA - Top 40 Country Christmas - The Ultimate Top 40 Collection\cd 2\02. Lynn Anderson - Soon It Will Be Christmas Day.wav

Pre-gap length 0:00:02.00

Peak level 96.6 %
Extraction speed 4.8 X
Track quality 100.0 %
Test CRC FF42826B
Copy CRC FF42826B
Track not present in AccurateRip database
Copy OK

Track 3

Filename D:\#cdr\#wav+flac\VA - Top 40 Country Christmas - The Ultimate Top 40 Collection\cd 2\03. Merle Haggard - Santa Claus Is Coming To Town.wav

Pre-gap length 0:00:02.00

Peak level 96.6 %
Extraction speed 5.1 X
Track quality 100.0 %
Test CRC 63BA7A88
Copy CRC 63BA7A88
Track not present in AccurateRip database
Copy OK

Track 4

Filename D:\#cdr\#wav+flac\VA - Top 40 Country Christmas - The Ultimate Top 40 Collection\cd 2\04. Ricky Van Shelton - I'll Be Home For Christmas.wav

Pre-gap length 0:00:02.00

Peak level 96.6 %
Extraction speed 5.8 X
Track quality 100.0 %
Test CRC D934DC15
Copy CRC D934DC15
Track not present in AccurateRip database
Copy OK

Track 5

Filename D:\#cdr\#wav+flac\VA - Top 40 Country Christmas - The Ultimate Top 40 Collection\cd 2\05. Dolly Parton - We Three Kings.wav

Pre-gap length 0:00:02.00

Peak level 96.6 %
Extraction speed 5.9 X
Track quality 100.0 %
Test CRC C772AC32
Copy CRC C772AC32
Track not present in AccurateRip database
Copy OK

Track 6

Filename D:\#cdr\#wav+flac\VA - Top 40 Country Christmas - The Ultimate Top 40 Collection\cd 2\06. Alan Jackson - Honky Tonk Christmas.wav

Pre-gap length 0:00:02.00

Peak level 96.6 %
Extraction speed 4.9 X
Track quality 99.9 %
Test CRC 6409C9BB
Copy CRC 6409C9BB
Track not present in AccurateRip database
Copy OK

Track 7

Filename D:\#cdr\#wav+flac\VA - Top 40 Country Christmas - The Ultimate Top 40 Collection\cd 2\07. George Jones & Tammy Wynette - The Greatest Christmas Gift.wav

Pre-gap length 0:00:02.00

Peak level 82.2 %
Extraction speed 6.2 X
Track quality 100.0 %
Test CRC 3FA339FF
Copy CRC 3FA339FF
Track not present in AccurateRip database
Copy OK

Track 8

Filename D:\#cdr\#wav+flac\VA - Top 40 Country Christmas - The Ultimate Top 40 Collection\cd 2\08. Ray Price - Little Drummer Boy.wav

Pre-gap length 0:00:02.00

Peak level 95.1 %
Extraction speed 5.9 X
Track quality 99.9 %
Test CRC ABF5BA04
Copy CRC ABF5BA04
Track not present in AccurateRip database
Copy OK

Track 9

Filename D:\#cdr\#wav+flac\VA - Top 40 Country Christmas - The Ultimate Top 40 Collection\cd 2\09. Charley Pride - Christmas In My Home Town.wav

Pre-gap length 0:00:02.00

Peak level 96.6 %
Extraction speed 6.6 X
Track quality 100.0 %
Test CRC 0793A301
Copy CRC 0793A301
Track not present in AccurateRip database
Copy OK

Track 10

Filename D:\#cdr\#wav+flac\VA - Top 40 Country Christmas - The Ultimate Top 40 Collection\cd 2\10. Rosanne Cash - It Came Upon A Midnight Clear.wav

Pre-gap length 0:00:02.00

Peak level 96.6 %
Extraction speed 7.6 X
Track quality 100.0 %
Test CRC AB7B42CB
Copy CRC AB7B42CB
Track not present in AccurateRip database
Copy OK

Track 11

Filename D:\#cdr\#wav+flac\VA - Top 40 Country Christmas - The Ultimate Top 40 Collection\cd 2\11. Brooks & Dunn - It Won't Be Christmas Without You.wav

Pre-gap length 0:00:02.00

Peak level 95.3 %
Extraction speed 7.7 X
Track quality 100.0 %
Test CRC C0F54E3C
Copy CRC C0F54E3C
Track not present in AccurateRip database
Copy OK

Track 12

Filename D:\#cdr\#wav+flac\VA - Top 40 Country Christmas - The Ultimate Top 40 Collection\cd 2\12. Martina McBride - Do You Hear What I Hear.wav

Pre-gap length 0:00:02.00

Peak level 96.6 %
Extraction speed 8.2 X
Track quality 100.0 %
Test CRC FEA312A2
Copy CRC FEA312A2
Track not present in AccurateRip database
Copy OK

Track 13

Filename D:\#cdr\#wav+flac\VA - Top 40 Country Christmas - The Ultimate Top 40 Collection\cd 2\13. Shawn Colvin - I Don't Need Anything This Christmas.wav

Pre-gap length 0:00:02.00

Peak level 96.6 %
Extraction speed 8.3 X
Track quality 100.0 %
Test CRC 31740F2A
Copy CRC 31740F2A
Track not present in AccurateRip database
Copy OK

Track 14

Filename D:\#cdr\#wav+flac\VA - Top 40 Country Christmas - The Ultimate Top 40 Collection\cd 2\14. Marty Robbins - Christmas Time Is Here Again.wav

Pre-gap length 0:00:02.00

Peak level 96.6 %
Extraction speed 6.9 X
Track quality 100.0 %
Test CRC 3A557FD8
Copy CRC 3A557FD8
Track not present in AccurateRip database
Copy OK

Track 15

Filename D:\#cdr\#wav+flac\VA - Top 40 Country Christmas - The Ultimate Top 40 Collection\cd 2\15. Ricky Skaggs - New Star Shining.wav

Pre-gap length 0:00:02.00

Peak level 96.6 %
Extraction speed 8.6 X
Track quality 100.0 %
Test CRC F468EF07
Copy CRC F468EF07
Track not present in AccurateRip database
Copy OK

Track 16

Filename D:\#cdr\#wav+flac\VA - Top 40 Country Christmas - The Ultimate Top 40 Collection\cd 2\16. Mary Chapin Carpenter - Bells Are Ringing.wav

Pre-gap length 0:00:02.00

Peak level 89.0 %
Extraction speed 8.8 X
Track quality 100.0 %
Test CRC E965AC9D
Copy CRC E965AC9D
Track not present in AccurateRip database
Copy OK

Track 17

Filename D:\#cdr\#wav+flac\VA - Top 40 Country Christmas - The Ultimate Top 40 Collection\cd 2\17. Lonestar - Have Yourself A Merry Little Christmas.wav

Pre-gap length 0:00:02.00

Peak level 96.5 %
Extraction speed 9.3 X
Track quality 100.0 %
Test CRC 844A04E0
Copy CRC 844A04E0
Track not present in AccurateRip database
Copy OK

Track 18

Filename D:\#cdr\#wav+flac\VA - Top 40 Country Christmas - The Ultimate Top 40 Collection\cd 2\18. Kenny Chesney - Silver Bells.wav

Pre-gap length 0:00:02.00

Peak level 95.5 %
Extraction speed 9.5 X
Track quality 100.0 %
Test CRC 9CD7ACED
Copy CRC 9CD7ACED
Track not present in AccurateRip database
Copy OK

Track 19

Filename D:\#cdr\#wav+flac\VA - Top 40 Country Christmas - The Ultimate Top 40 Collection\cd 2\19. Hank Snow - Frosty The Snowman.wav

Pre-gap length 0:00:02.00

Peak level 94.8 %
Extraction speed 6.3 X
Track quality 99.9 %
Test CRC 397D1C52
Copy CRC 397D1C52
Track not present in AccurateRip database
Copy OK

Track 20

Filename D:\#cdr\#wav+flac\VA - Top 40 Country Christmas - The Ultimate Top 40 Collection\cd 2\20. Doug Stone - When December Comes Around.wav

Pre-gap length 0:00:02.00

Peak level 88.1 %
Extraction speed 7.9 X
Track quality 99.9 %
Test CRC C61A9BA7
Copy CRC C61A9BA7
Track not present in AccurateRip database
Copy OK

Track 21

Filename D:\#cdr\#wav+flac\VA - Top 40 Country Christmas - The Ultimate Top 40 Collection\cd 2\21. Ronnie Milsap - It's Christmas.wav

Pre-gap length 0:00:02.00

Peak level 96.6 %
Extraction speed 7.4 X
Track quality 99.9 %
Test CRC B3C18C38
Copy CRC B3C18C38
Track not present in AccurateRip database
Copy OK

Track 22

Filename D:\#cdr\#wav+flac\VA - Top 40 Country Christmas - The Ultimate Top 40 Collection\cd 2\22. Patty Loveless - Santa Train.wav

Pre-gap length 0:00:02.00

Peak level 96.6 %
Extraction speed 9.7 X
Track quality 100.0 %
Test CRC F47316FB
Copy CRC F47316FB
Track not present in AccurateRip database
Copy OK

Track 23

Filename D:\#cdr\#wav+flac\VA - Top 40 Country Christmas - The Ultimate Top 40 Collection\cd 2\23. Brad Paisley - Santa Looked A Lot Like Daddy.wav

Pre-gap length 0:00:02.00

Peak level 96.6 %
Extraction speed 10.4 X
Track quality 100.0 %
Test CRC 8A4A8A3C
Copy CRC 8A4A8A3C
Track not present in AccurateRip database
Copy OK


None of the tracks are present in the AccurateRip database

No errors occurred

End of status report

–– CUETools DB Plugin V2.1.6

[CTDB TOCID: PGlT5NOEHSiswiEq9KnETRwmsiU-] disk not present in database
Submit result: PGlT5NOEHSiswiEq9KnETRwmsiU- has been uploaded


==== Log checksum 8D4DBFFF5359CB885F67F1F89FA109F43B5D6BDFD6355E01BE22015AF03B643F ====

––––––––––––––––––––––––––––––

Exact Audio Copy V1.3 from 2. September 2016

EAC extraction logfile from 20. February 2020, 19:14

Various Artists / Top 40 Country Christmas - The Ultimate Top 40 Collection

Used drive : PLEXTOR PX-891SAF Adapter: 1 ID: 0

Read mode : Secure
Utilize accurate stream : Yes
Defeat audio cache : Yes
Make use of C2 pointers : No

Read offset correction : 6
Overread into Lead-In and Lead-Out : No
Fill up missing offset samples with silence : Yes
Delete leading and trailing silent blocks : No
Null samples used in CRC calculations : Yes
Used interface : Native Win32 interface for Win NT & 2000
Gap handling : Appended to previous track

Used output format : User Defined Encoder
Selected bitrate : 1024 kBit/s
Quality : High
Add ID3 tag : No
Command line compressor : C:\Program Files (x86)\Exact Audio Copy\Flac\flac.exe
Additional command line options : -8 -V -T "ARTIST=%artist%" -T "TITLE=%title%" -T "ALBUM=%albumtitle%" -T "DATE=%year%" -T "TRACKNUMBER=%tracknr%" -T "GENRE=%genre%" -T "PERFORMER=%albuminterpret%" -T "COMPOSER=%composer%" %haslyrics%–tag-from-file=LYRICS="%lyricsfile%"%haslyrics% -T "ALBUMARTIST=%albumartist%" -T "DISCNUMBER=%cdnumber%" -T "TOTALDISCS=%totalcds%" -T "TOTALTRACKS=%numtracks%" -T "COMMENT=%comment%" %source% -o %dest%


TOC of the extracted CD

Track | Start | Length | Start sector | End sector
––––––––––––––––––––––––––––-
1 | 0:00.00 | 2:31.03 | 0 | 11327
2 | 2:31.03 | 2:08.42 | 11328 | 20969
3 | 4:39.45 | 2:16.02 | 20970 | 31171
4 | 6:55.47 | 3:06.10 | 31172 | 45131
5 | 10:01.57 | 2:45.40 | 45132 | 57546
6 | 12:47.22 | 2:53.45 | 57547 | 70566
7 | 15:40.67 | 2:23.01 | 70567 | 81292
8 | 18:03.68 | 3:56.53 | 81293 | 99045
9 | 22:00.46 | 2:06.30 | 99046 | 108525
10 | 24:07.01 | 3:56.67 | 108526 | 126292
11 | 28:03.68 | 3:44.10 | 126293 | 143102
12 | 31:48.03 | 3:58.21 | 143103 | 160973
13 | 35:46.24 | 3:46.20 | 160974 | 177943
14 | 39:32.44 | 1:19.55 | 177944 | 183923
15 | 40:52.24 | 3:31.53 | 183924 | 199801
16 | 44:24.02 | 3:32.06 | 199802 | 215707
17 | 47:56.08 | 4:23.06 | 215708 | 235438
18 | 52:19.14 | 4:05.29 | 235439 | 253842
19 | 56:24.43 | 2:06.11 | 253843 | 263303
20 | 58:30.54 | 3:38.59 | 263304 | 279712
21 | 62:09.38 | 3:00.21 | 279713 | 293233
22 | 65:09.59 | 3:00.38 | 293234 | 306771
23 | 68:10.22 | 4:11.34 | 306772 | 325630


Track 1

Filename D:\#cdr\#wav+flac\VA - Top 40 Country Christmas - The Ultimate Top 40 Collection\cd 2\01. Johnny Cash - Hark! The Herald Angels Sing.wav

Pre-gap length 0:00:02.00

Peak level 96.6 %
Extraction speed 3.6 X
Track quality 99.9 %
Test CRC 76D104D0
Copy CRC 76D104D0
Track not present in AccurateRip database
Copy OK

Track 2

Filename D:\#cdr\#wav+flac\VA - Top 40 Country Christmas - The Ultimate Top 40 Collection\cd 2\02. Lynn Anderson - Soon It Will Be Christmas Day.wav

Pre-gap length 0:00:02.00

Peak level 96.6 %
Extraction speed 4.8 X
Track quality 100.0 %
Test CRC FF42826B
Copy CRC FF42826B
Track not present in AccurateRip database
Copy OK

Track 3

Filename D:\#cdr\#wav+flac\VA - Top 40 Country Christmas - The Ultimate Top 40 Collection\cd 2\03. Merle Haggard - Santa Claus Is Coming To Town.wav

Pre-gap length 0:00:02.00

Peak level 96.6 %
Extraction speed 5.1 X
Track quality 100.0 %
Test CRC 63BA7A88
Copy CRC 63BA7A88
Track not present in AccurateRip database
Copy OK

Track 4

Filename D:\#cdr\#wav+flac\VA - Top 40 Country Christmas - The Ultimate Top 40 Collection\cd 2\04. Ricky Van Shelton - I'll Be Home For Christmas.wav

Pre-gap length 0:00:02.00

Peak level 96.6 %
Extraction speed 5.8 X
Track quality 100.0 %
Test CRC D934DC15
Copy CRC D934DC15
Track not present in AccurateRip database
Copy OK

Track 5

Filename D:\#cdr\#wav+flac\VA - Top 40 Country Christmas - The Ultimate Top 40 Collection\cd 2\05. Dolly Parton - We Three Kings.wav

Pre-gap length 0:00:02.00

Peak level 96.6 %
Extraction speed 5.9 X
Track quality 100.0 %
Test CRC C772AC32
Copy CRC C772AC32
Track not present in AccurateRip database
Copy OK

Track 6

Filename D:\#cdr\#wav+flac\VA - Top 40 Country Christmas - The Ultimate Top 40 Collection\cd 2\06. Alan Jackson - Honky Tonk Christmas.wav

Pre-gap length 0:00:02.00

Peak level 96.6 %
Extraction speed 4.9 X
Track quality 99.9 %
Test CRC 6409C9BB
Copy CRC 6409C9BB
Track not present in AccurateRip database
Copy OK

Track 7

Filename D:\#cdr\#wav+flac\VA - Top 40 Country Christmas - The Ultimate Top 40 Collection\cd 2\07. George Jones & Tammy Wynette - The Greatest Christmas Gift.wav

Pre-gap length 0:00:02.00

Peak level 82.2 %
Extraction speed 6.2 X
Track quality 100.0 %
Test CRC 3FA339FF
Copy CRC 3FA339FF
Track not present in AccurateRip database
Copy OK

Track 8

Filename D:\#cdr\#wav+flac\VA - Top 40 Country Christmas - The Ultimate Top 40 Collection\cd 2\08. Ray Price - Little Drummer Boy.wav

Pre-gap length 0:00:02.00

Peak level 95.1 %
Extraction speed 5.9 X
Track quality 99.9 %
Test CRC ABF5BA04
Copy CRC ABF5BA04
Track not present in AccurateRip database
Copy OK

Track 9

Filename D:\#cdr\#wav+flac\VA - Top 40 Country Christmas - The Ultimate Top 40 Collection\cd 2\09. Charley Pride - Christmas In My Home Town.wav

Pre-gap length 0:00:02.00

Peak level 96.6 %
Extraction speed 6.6 X
Track quality 100.0 %
Test CRC 0793A301
Copy CRC 0793A301
Track not present in AccurateRip database
Copy OK

Track 10

Filename D:\#cdr\#wav+flac\VA - Top 40 Country Christmas - The Ultimate Top 40 Collection\cd 2\10. Rosanne Cash - It Came Upon A Midnight Clear.wav

Pre-gap length 0:00:02.00

Peak level 96.6 %
Extraction speed 7.6 X
Track quality 100.0 %
Test CRC AB7B42CB
Copy CRC AB7B42CB
Track not present in AccurateRip database
Copy OK

Track 11

Filename D:\#cdr\#wav+flac\VA - Top 40 Country Christmas - The Ultimate Top 40 Collection\cd 2\11. Brooks & Dunn - It Won't Be Christmas Without You.wav

Pre-gap length 0:00:02.00

Peak level 95.3 %
Extraction speed 7.7 X
Track quality 100.0 %
Test CRC C0F54E3C
Copy CRC C0F54E3C
Track not present in AccurateRip database
Copy OK

Track 12

Filename D:\#cdr\#wav+flac\VA - Top 40 Country Christmas - The Ultimate Top 40 Collection\cd 2\12. Martina McBride - Do You Hear What I Hear.wav

Pre-gap length 0:00:02.00

Peak level 96.6 %
Extraction speed 8.2 X
Track quality 100.0 %
Test CRC FEA312A2
Copy CRC FEA312A2
Track not present in AccurateRip database
Copy OK

Track 13

Filename D:\#cdr\#wav+flac\VA - Top 40 Country Christmas - The Ultimate Top 40 Collection\cd 2\13. Shawn Colvin - I Don't Need Anything This Christmas.wav

Pre-gap length 0:00:02.00

Peak level 96.6 %
Extraction speed 8.3 X
Track quality 100.0 %
Test CRC 31740F2A
Copy CRC 31740F2A
Track not present in AccurateRip database
Copy OK

Track 14

Filename D:\#cdr\#wav+flac\VA - Top 40 Country Christmas - The Ultimate Top 40 Collection\cd 2\14. Marty Robbins - Christmas Time Is Here Again.wav

Pre-gap length 0:00:02.00

Peak level 96.6 %
Extraction speed 6.9 X
Track quality 100.0 %
Test CRC 3A557FD8
Copy CRC 3A557FD8
Track not present in AccurateRip database
Copy OK

Track 15

Filename D:\#cdr\#wav+flac\VA - Top 40 Country Christmas - The Ultimate Top 40 Collection\cd 2\15. Ricky Skaggs - New Star Shining.wav

Pre-gap length 0:00:02.00

Peak level 96.6 %
Extraction speed 8.6 X
Track quality 100.0 %
Test CRC F468EF07
Copy CRC F468EF07
Track not present in AccurateRip database
Copy OK

Track 16

Filename D:\#cdr\#wav+flac\VA - Top 40 Country Christmas - The Ultimate Top 40 Collection\cd 2\16. Mary Chapin Carpenter - Bells Are Ringing.wav

Pre-gap length 0:00:02.00

Peak level 89.0 %
Extraction speed 8.8 X
Track quality 100.0 %
Test CRC E965AC9D
Copy CRC E965AC9D
Track not present in AccurateRip database
Copy OK

Track 17

Filename D:\#cdr\#wav+flac\VA - Top 40 Country Christmas - The Ultimate Top 40 Collection\cd 2\17. Lonestar - Have Yourself A Merry Little Christmas.wav

Pre-gap length 0:00:02.00

Peak level 96.5 %
Extraction speed 9.3 X
Track quality 100.0 %
Test CRC 844A04E0
Copy CRC 844A04E0
Track not present in AccurateRip database
Copy OK

Track 18

Filename D:\#cdr\#wav+flac\VA - Top 40 Country Christmas - The Ultimate Top 40 Collection\cd 2\18. Kenny Chesney - Silver Bells.wav

Pre-gap length 0:00:02.00

Peak level 95.5 %
Extraction speed 9.5 X
Track quality 100.0 %
Test CRC 9CD7ACED
Copy CRC 9CD7ACED
Track not present in AccurateRip database
Copy OK

Track 19

Filename D:\#cdr\#wav+flac\VA - Top 40 Country Christmas - The Ultimate Top 40 Collection\cd 2\19. Hank Snow - Frosty The Snowman.wav

Pre-gap length 0:00:02.00

Peak level 94.8 %
Extraction speed 6.3 X
Track quality 99.9 %
Test CRC 397D1C52
Copy CRC 397D1C52
Track not present in AccurateRip database
Copy OK

Track 20

Filename D:\#cdr\#wav+flac\VA - Top 40 Country Christmas - The Ultimate Top 40 Collection\cd 2\20. Doug Stone - When December Comes Around.wav

Pre-gap length 0:00:02.00

Peak level 88.1 %
Extraction speed 7.9 X
Track quality 99.9 %
Test CRC C61A9BA7
Copy CRC C61A9BA7
Track not present in AccurateRip database
Copy OK

Track 21

Filename D:\#cdr\#wav+flac\VA - Top 40 Country Christmas - The Ultimate Top 40 Collection\cd 2\21. Ronnie Milsap - It's Christmas.wav

Pre-gap length 0:00:02.00

Peak level 96.6 %
Extraction speed 7.4 X
Track quality 99.9 %
Test CRC B3C18C38
Copy CRC B3C18C38
Track not present in AccurateRip database
Copy OK

Track 22

Filename D:\#cdr\#wav+flac\VA - Top 40 Country Christmas - The Ultimate Top 40 Collection\cd 2\22. Patty Loveless - Santa Train.wav

Pre-gap length 0:00:02.00

Peak level 96.6 %
Extraction speed 9.7 X
Track quality 100.0 %
Test CRC F47316FB
Copy CRC F47316FB
Track not present in AccurateRip database
Copy OK

Track 23

Filename D:\#cdr\#wav+flac\VA - Top 40 Country Christmas - The Ultimate Top 40 Collection\cd 2\23. Brad Paisley - Santa Looked A Lot Like Daddy.wav

Pre-gap length 0:00:02.00

Peak level 96.6 %
Extraction speed 10.4 X
Track quality 100.0 %
Test CRC 8A4A8A3C
Copy CRC 8A4A8A3C
Track not present in AccurateRip database
Copy OK


None of the tracks are present in the AccurateRip database

No errors occurred

End of status report

–– CUETools DB Plugin V2.1.6

[CTDB TOCID: PGlT5NOEHSiswiEq9KnETRwmsiU-] disk not present in database
Submit result: PGlT5NOEHSiswiEq9KnETRwmsiU- has been uploaded


==== Log checksum 8D4DBFFF5359CB885F67F1F89FA109F43B5D6BDFD6355E01BE22015AF03B643F ====

Thanks to the Original ripper !