Tags
Language
Tags

Various Artists - Bali: Court Music and Banjar Music (1994)

Posted By: d'Avignon
Various Artists - Bali: Court Music and Banjar Music (1994)

Various Artists - Bali: Court Music and Banjar Music (1994)
World/Ethnic | FLAC lossless | cuesheets+log | covers+booklet | 59m57s | 357mb
Label: Unesco/Auvidis | cat. no. D8059


The Indonesian island of Bali is so small and densely populated that there has long been a complex system of cooperation among banjar, community groups within a village. Every family member shares duties in the household, every community member shares duties in the village, and every musician shares duties in creating a song. In the same way neighboring rice farmers have coordinated alternating watering patterns for maximum production, Balinese courtmusicians have developed interlocking melodies for maximum expression.
The gamelan ensembles heard here—consisting of bronze gongs and metallophones, bamboo flutes, and hand drums—are played in the kebyar (“lightning”) style, at times so fast that it would be physically impossible without cooperation between paired players. The resulting music culls harmony from seeming chaos.

Tracks:

01. Court Music of the Puri of Peliatan – Sekar Jepun [0:06:48.86]
02. Baris [0:05:20.20]
03. Gambang Suling [0:06:53.86]
04. Pendet [0:04:45.90]
05. Tari Terompong [0:06:52.42]
06. Court Music of the Banjar of Belaluan Sadmerta – Palewakia [0:04:03.80]
07. Legong Kraton [0:25:12.66]

Performers:

Various ensembles

Exact Audio Copy V1.0 beta 3 from 29. August 2011

EAC extraction logfile from 11. May 2016, 23:02

Bali / Court Music and Banjar Music

Used drive : TSSTcorpCDDVDW SH-216AB Adapter: 0 ID: 0

Read mode : Secure
Utilize accurate stream : Yes
Defeat audio cache : Yes
Make use of C2 pointers : No

Read offset correction : 6
Overread into Lead-In and Lead-Out : No
Fill up missing offset samples with silence : Yes
Delete leading and trailing silent blocks : No
Null samples used in CRC calculations : Yes
Used interface : Native Win32 interface for Win NT & 2000
Gap handling : Appended to previous track

Used output format : User Defined Encoder
Selected bitrate : 768 kBit/s
Quality : High
Add ID3 tag : No
Command line compressor : C:\Program Files (x86)\FLAC Frontend\tools\flac.exe
Additional command line options : -8 -V -T "ARTIST=%artist%" -T "TITLE=%title%" -T "ALBUM=%albumtitle%" -T "DATE=%year%" -T "TRACKNUMBER=%tracknr%" -T "GENRE=%genre%" -T "PERFORMER=%albuminterpret%" -T "COMPOSER=%composer%" %haslyrics%–tag-from-file=LYRICS="%lyricsfile%"%haslyrics% -T "ALBUMARTIST=%albumartist%" -T "DISCNUMBER=%cdnumber%" -T "TOTALDISCS=%totalcds%" -T "TOTALTRACKS=%numtracks%" -T "COMMENT=%comment%" %source% -o %dest%


TOC of the extracted CD

Track | Start | Length | Start sector | End sector
––––––––––––––––––––––––––––-
1 | 0:00.32 | 6:48.65 | 32 | 30696
2 | 6:49.22 | 5:20.15 | 30697 | 54711
3 | 12:09.37 | 6:53.65 | 54712 | 85751
4 | 19:03.27 | 4:45.68 | 85752 | 107194
5 | 23:49.20 | 6:52.32 | 107195 | 138126
6 | 30:41.52 | 4:03.60 | 138127 | 156411
7 | 34:45.37 | 25:12.50 | 156412 | 269861


Track 1

Filename H:\Users\astarte\03. POST\Various Artists - Bali Court Music and Banjar Music\01 Court Music of the Puri of Peliatan – Sekar Jepun.wav

Pre-gap length 0:00:02.42

Peak level 71.8 %
Extraction speed 0.3 X
Track quality 100.0 %
Copy CRC ED14205F
Accurately ripped (confidence 1) [F64AA0A4] (AR v1)
Copy OK

Track 2

Filename H:\Users\astarte\03. POST\Various Artists - Bali Court Music and Banjar Music\02 Baris.wav

Pre-gap length 0:00:05.20

Peak level 69.7 %
Extraction speed 2.1 X
Track quality 100.0 %
Copy CRC 8298A7EE
Accurately ripped (confidence 1) [071DB506] (AR v1)
Copy OK

Track 3

Filename H:\Users\astarte\03. POST\Various Artists - Bali Court Music and Banjar Music\03 Gambang Suling.wav

Pre-gap length 0:00:04.49

Peak level 64.9 %
Extraction speed 2.5 X
Track quality 100.0 %
Copy CRC DF5C86C4
Accurately ripped (confidence 1) [2BA25506] (AR v1)
Copy OK

Track 4

Filename H:\Users\astarte\03. POST\Various Artists - Bali Court Music and Banjar Music\04 Pendet.wav

Pre-gap length 0:00:03.86

Peak level 62.9 %
Extraction speed 2.6 X
Track quality 100.0 %
Copy CRC 2F13F93D
Accurately ripped (confidence 1) [37016B40] (AR v1)
Copy OK

Track 5

Filename H:\Users\astarte\03. POST\Various Artists - Bali Court Music and Banjar Music\05 Tari Terompong.wav

Pre-gap length 0:00:04.84

Peak level 55.0 %
Extraction speed 2.9 X
Track quality 100.0 %
Copy CRC D10AD4C5
Accurately ripped (confidence 1) [2DC70B9F] (AR v1)
Copy OK

Track 6

Filename H:\Users\astarte\03. POST\Various Artists - Bali Court Music and Banjar Music\06 Court Music of the Banjar of Belaluan Sadmerta – Palewakia.wav

Pre-gap length 0:00:04.62

Peak level 65.3 %
Extraction speed 2.9 X
Track quality 100.0 %
Copy CRC 850B66ED
Accurately ripped (confidence 1) [8CD6BB92] (AR v1)
Copy OK

Track 7

Filename H:\Users\astarte\03. POST\Various Artists - Bali Court Music and Banjar Music\07 Legong Kraton.wav

Pre-gap length 0:00:04.80

Peak level 75.8 %
Extraction speed 3.7 X
Track quality 100.0 %
Copy CRC 9E9D15FC
Accurately ripped (confidence 1) [E9585F80] (AR v1)
Copy OK


All tracks accurately ripped

No errors occurred

End of status report

==== Log checksum C94825914A395C3AF4B6EAF129F4772EF27C05F56BAF3E6847259538D9AC4DC5 ====