Tags
Language
Tags
May 2024
Su Mo Tu We Th Fr Sa
28 29 30 1 2 3 4
5 6 7 8 9 10 11
12 13 14 15 16 17 18
19 20 21 22 23 24 25
26 27 28 29 30 31 1

Various Artists - Bangkok Nites (Original Soundtrack) (2019)

Posted By: aasana
Various Artists - Bangkok Nites (Original Soundtrack) (2019)

Various Artists - Bangkok Nites (Original Soundtrack) (2019)
XLD Rip | FLAC (tracks+.cue) | 01:11:15 | 379,39 MB
pop, world music, thai, jazz, funk | Label: EM Records

These 28 tracks, 72 minutes in total, cover a wide range of musical styles and eras, from the 60s to the present, urban to rural, primarily by Thai vocalists and musicians, with contributions from Japan and the Philippines. 60s-America-style pop by Suri Yamuhi and the Babylon Band as well as contemporary EDM, trap and hip hop sounds are all present, but the core of this soundtrack are luk thung and molam classics from the 70s and 80s by Angkhanang Khunchai, On-uma Singsiri, Dao Bandon, Khwanta Fasawang and “The Countryside is Great” by Rungphet Laemsing, a pivotal song in the film. All tracks are complete versions, some incorporating dialogue from the film. This CD-only OST features English lyrics, and liner notes by the film’s directors Katsuya Tomita and Toranosuke Aizawa, plus Iwao Yamazaki, Young-G and MMM of the Kuzok team, and Soi 48. This is the first soundtrack release by EM Records.

TRACKS:
01. Pai Tuktuk Dwai - DJ Pai Dwai
02. Pai Massage Dwai - Young-G (stillichimiya/ Omiyuki CHANNEL)
03. The Smell of Money - Suri Yamuhi & The Babylon Band
04. You've Left Me Alone - Suri Yamuhi & The Babylon Band
05. Porra - XXXSSS Tokyo
06. Only Som Tam - On-uma Singsiri
07. The Countryside is Great - Rungphet Laemsing
08. Isan Radio
09. Bong Ja Bong (Pipe, oh Pipe!) - Dao Bandon
10. Burn! Burn! Burn! ~ Surfin' Dien Bien Phu - Suri Yamuhi & The Babylon Band
11. I Will Buy You Back - Bar Nong Khai Band
12. Samet Love - DJ Pai Dwai
13. That Goddam Motorsai - Khwanta Fasawang
14. The Stench of Night – from Chit Phumisak's poem - Surachai Jantimathawn
15. Saramanda - DJ Pai Dwai
16. Tamarind Leaf (molam) - Angkhanang Khunchai
17. Bahn Swairon - Khun Narin's Electric Phin Band
18. Khaen Whistle Reprise (JRP Tondo mix) - DJ Kensei feat. Tondo Tribe
19. Vang Vieng Bank (Change Yen to Lao) OST mix - DJ Kensei
20. Xieng Khouang's Daughter - Thong Boonma (lam), Le Boonma (khaen)
21. Get Em - XLII
22. Paun's House - Suri Yamuhi & The Babylon Band
23. Xanadu - Young-G (stillichimiya/ Omiyuki CHANNEL)
24. Kanom Party - Young-G (stillichimiya/ Omiyuki CHANNEL)
25. The Song of an Angel - Suri Yamuhi & The Babylon Band
26. Ying's Story - Subenja Pongkon
27. Isan Lam Phloen - Angkhanang Khunchai & The Ubon Phatthana Band
28. Full Moon (Atsani Phonlachan) - Yuzo Toyoda, Takeshi Yamamura

X Lossless Decoder version 20191004 (152.0)

XLD extraction logfile from 2019-12-10 11:06:32 -0500

Various Artists / バンコクナイツ: Bangkok Nites Original Soundtrack

Used drive : PIONEER BD-RW BDR-XD05 (revision 3.10)
Media type : Pressed CD

Ripper mode : XLD Secure Ripper
Disable audio cache : OK for the drive with a cache less than 1375KiB
Make use of C2 pointers : NO
Read offset correction : 667
Max retry count : 20
Gap status : Analyzed, Appended (except HTOA)

TOC of the extracted CD
Track | Start | Length | Start sector | End sector
––––––––––––––––––––––––––––-
1 | 00:00:00 | 02:29:38 | 0 | 11212
2 | 02:29:38 | 01:56:07 | 11213 | 19919
3 | 04:25:45 | 01:43:08 | 19920 | 27652
4 | 06:08:53 | 01:59:11 | 27653 | 36588
5 | 08:07:64 | 02:15:10 | 36589 | 46723
6 | 10:22:74 | 02:50:27 | 46724 | 59500
7 | 13:13:26 | 03:35:38 | 59501 | 75663
8 | 16:48:64 | 00:49:58 | 75664 | 79396
9 | 17:38:47 | 03:30:59 | 79397 | 95205
10 | 21:09:31 | 02:23:36 | 95206 | 105966
11 | 23:32:67 | 03:41:17 | 105967 | 122558
12 | 27:14:09 | 01:48:35 | 122559 | 130693
13 | 29:02:44 | 04:00:45 | 130694 | 148738
14 | 33:03:14 | 01:15:54 | 148739 | 154417
15 | 34:18:68 | 02:23:71 | 154418 | 165213
16 | 36:42:64 | 01:56:43 | 165214 | 173956
17 | 38:39:32 | 04:28:74 | 173957 | 194130
18 | 43:08:31 | 01:22:10 | 194131 | 200290
19 | 44:30:41 | 01:59:25 | 200291 | 209240
20 | 46:29:66 | 03:59:06 | 209241 | 227171
21 | 50:28:72 | 02:39:38 | 227172 | 239134
22 | 53:08:35 | 02:30:66 | 239135 | 250450
23 | 55:39:26 | 03:02:34 | 250451 | 264134
24 | 58:41:60 | 02:11:35 | 264135 | 273994
25 | 60:53:20 | 02:09:34 | 273995 | 283703
26 | 63:02:54 | 01:02:70 | 283704 | 288423
27 | 64:05:49 | 03:36:45 | 288424 | 304668
28 | 67:42:19 | 03:32:70 | 304669 | 320638

AccurateRip Summary (DiscID: 0044ceda-056ea7d8-7210b31c)
Track 01 : OK (v2, confidence 3/3)
Track 02 : OK (v2, confidence 3/3)
Track 03 : OK (v2, confidence 3/3)
Track 04 : OK (v2, confidence 3/3)
Track 05 : OK (v2, confidence 3/3)
Track 06 : OK (v2, confidence 3/3)
Track 07 : OK (v2, confidence 3/3)
Track 08 : OK (v2, confidence 3/3)
Track 09 : OK (v2, confidence 3/3)
Track 10 : OK (v2, confidence 3/3)
Track 11 : OK (v2, confidence 3/3)
Track 12 : OK (v2, confidence 3/3)
Track 13 : OK (v2, confidence 3/3)
Track 14 : OK (v2, confidence 3/3)
Track 15 : OK (v2, confidence 3/3)
Track 16 : OK (v2, confidence 3/3)
Track 17 : OK (v2, confidence 3/3)
Track 18 : OK (v2, confidence 3/3)
Track 19 : OK (v2, confidence 3/3)
Track 20 : OK (v2, confidence 3/3)
Track 21 : OK (v2, confidence 3/3)
Track 22 : OK (v2, confidence 3/3)
Track 23 : OK (v2, confidence 3/3)
Track 24 : OK (v2, confidence 3/3)
Track 25 : OK (v2, confidence 3/3)
Track 26 : OK (v2, confidence 3/3)
Track 27 : OK (v2, confidence 3/3)
Track 28 : OK (v2, confidence 3/3)
->All tracks accurately ripped.

All Tracks
Album gain : -4.93 dB
Peak : 0.952362
Statistics
Read error : 0
Jitter error (maybe fixed) : 0
Retry sector count : 0
Damaged sector count : 0

Track 01
Filename : /Users/jhmac/Music/XLD rips/Compilations - バンコクナイツ: Bangkok Nites Original Soundtrack (2017) [FLAC]/01 Pai Tuktuk Dwai.flac
Pre-gap length : 00:02:00

Track gain : -3.65 dB
Peak : 0.952362
CRC32 hash (test run) : 586BD1A8
CRC32 hash : 586BD1A8
CRC32 hash (skip zero) : 4F1AF9EF
AccurateRip v1 signature : 3D602324
AccurateRip v2 signature : 94E9B337
->Accurately ripped (v2, confidence 3/3)
Statistics
Read error : 0
Jitter error (maybe fixed) : 0
Retry sector count : 0
Damaged sector count : 0

Track 02
Filename : /Users/jhmac/Music/XLD rips/Compilations - バンコクナイツ: Bangkok Nites Original Soundtrack (2017) [FLAC]/02 Pai Massage Dwai.flac

Track gain : -2.08 dB
Peak : 0.952362
CRC32 hash (test run) : F5EADFB3
CRC32 hash : F5EADFB3
CRC32 hash (skip zero) : 69D47C16
AccurateRip v1 signature : DD6636C1
AccurateRip v2 signature : 8693151B
->Accurately ripped (v2, confidence 3/3)
Statistics
Read error : 0
Jitter error (maybe fixed) : 0
Retry sector count : 0
Damaged sector count : 0

Track 03
Filename : /Users/jhmac/Music/XLD rips/Compilations - バンコクナイツ: Bangkok Nites Original Soundtrack (2017) [FLAC]/03 金の匂い.flac

Track gain : -4.22 dB
Peak : 0.950409
CRC32 hash (test run) : 1A89969A
CRC32 hash : 1A89969A
CRC32 hash (skip zero) : 4E31B998
AccurateRip v1 signature : 62DAFADE
AccurateRip v2 signature : 3170A6AE
->Accurately ripped (v2, confidence 3/3)
Statistics
Read error : 0
Jitter error (maybe fixed) : 0
Retry sector count : 0
Damaged sector count : 0

Track 04
Filename : /Users/jhmac/Music/XLD rips/Compilations - バンコクナイツ: Bangkok Nites Original Soundtrack (2017) [FLAC]/04 You've Left Me Alone.flac

Track gain : -4.84 dB
Peak : 0.952118
CRC32 hash (test run) : FD6DEF40
CRC32 hash : FD6DEF40
CRC32 hash (skip zero) : D5E076C4
AccurateRip v1 signature : 32F3837B
AccurateRip v2 signature : B4E05B8B
->Accurately ripped (v2, confidence 3/3)
Statistics
Read error : 0
Jitter error (maybe fixed) : 0
Retry sector count : 0
Damaged sector count : 0

Track 05
Filename : /Users/jhmac/Music/XLD rips/Compilations - バンコクナイツ: Bangkok Nites Original Soundtrack (2017) [FLAC]/05 Porra.flac

Track gain : -7.25 dB
Peak : 0.952362
CRC32 hash (test run) : 3F16ADC0
CRC32 hash : 3F16ADC0
CRC32 hash (skip zero) : A21B143B
AccurateRip v1 signature : A3B044BF
AccurateRip v2 signature : 7BE05D86
->Accurately ripped (v2, confidence 3/3)
Statistics
Read error : 0
Jitter error (maybe fixed) : 0
Retry sector count : 0
Damaged sector count : 0

Track 06
Filename : /Users/jhmac/Music/XLD rips/Compilations - バンコクナイツ: Bangkok Nites Original Soundtrack (2017) [FLAC]/06 ソムタムだけ.flac

Track gain : -4.57 dB
Peak : 0.952362
CRC32 hash (test run) : 24C3F79A
CRC32 hash : 24C3F79A
CRC32 hash (skip zero) : 40F05B19
AccurateRip v1 signature : AA7FACEC
AccurateRip v2 signature : DEA0CEF9
->Accurately ripped (v2, confidence 3/3)
Statistics
Read error : 0
Jitter error (maybe fixed) : 0
Retry sector count : 0
Damaged sector count : 0

Track 07
Filename : /Users/jhmac/Music/XLD rips/Compilations - バンコクナイツ: Bangkok Nites Original Soundtrack (2017) [FLAC]/07 田舎はいいね.flac

Track gain : -7.24 dB
Peak : 0.952362
CRC32 hash (test run) : 39A30684
CRC32 hash : 39A30684
CRC32 hash (skip zero) : C9984B4F
AccurateRip v1 signature : 621F5421
AccurateRip v2 signature : 696672C4
->Accurately ripped (v2, confidence 3/3)
Statistics
Read error : 0
Jitter error (maybe fixed) : 0
Retry sector count : 0
Damaged sector count : 0

Track 08
Filename : /Users/jhmac/Music/XLD rips/Compilations - バンコクナイツ: Bangkok Nites Original Soundtrack (2017) [FLAC]/08 イサーン・ラジオ.flac

Track gain : 8.13 dB
Peak : 0.351196
CRC32 hash (test run) : 70C881F6
CRC32 hash : 70C881F6
CRC32 hash (skip zero) : 8C7D24BB
AccurateRip v1 signature : D5CAF1FF
AccurateRip v2 signature : DE759790
->Accurately ripped (v2, confidence 3/3)
Statistics
Read error : 0
Jitter error (maybe fixed) : 0
Retry sector count : 0
Damaged sector count : 0

Track 09
Filename : /Users/jhmac/Music/XLD rips/Compilations - バンコクナイツ: Bangkok Nites Original Soundtrack (2017) [FLAC]/09 パイプよパイプよ.flac

Track gain : -6.32 dB
Peak : 0.952362
CRC32 hash (test run) : 7EB23558
CRC32 hash : 7EB23558
CRC32 hash (skip zero) : F87F8667
AccurateRip v1 signature : AC17D12B
AccurateRip v2 signature : AD3373CD
->Accurately ripped (v2, confidence 3/3)
Statistics
Read error : 0
Jitter error (maybe fixed) : 0
Retry sector count : 0
Damaged sector count : 0

Track 10
Filename : /Users/jhmac/Music/XLD rips/Compilations - バンコクナイツ: Bangkok Nites Original Soundtrack (2017) [FLAC]/10 Burn Burn Burn ~ Surfin' Dien Bien Phu.flac

Track gain : -6.93 dB
Peak : 0.891174
CRC32 hash (test run) : 4B992EAC
CRC32 hash : 4B992EAC
CRC32 hash (skip zero) : 82DA7EF9
AccurateRip v1 signature : A9456A22
AccurateRip v2 signature : F630E74C
->Accurately ripped (v2, confidence 3/3)
Statistics
Read error : 0
Jitter error (maybe fixed) : 0
Retry sector count : 0
Damaged sector count : 0

Track 11
Filename : /Users/jhmac/Music/XLD rips/Compilations - バンコクナイツ: Bangkok Nites Original Soundtrack (2017) [FLAC]/11 君を買い戻す.flac

Track gain : -6.05 dB
Peak : 0.952362
CRC32 hash (test run) : AC3DC9C4
CRC32 hash : AC3DC9C4
CRC32 hash (skip zero) : 6031119C
AccurateRip v1 signature : C561E047
AccurateRip v2 signature : 2E0F013F
->Accurately ripped (v2, confidence 3/3)
Statistics
Read error : 0
Jitter error (maybe fixed) : 0
Retry sector count : 0
Damaged sector count : 0

Track 12
Filename : /Users/jhmac/Music/XLD rips/Compilations - バンコクナイツ: Bangkok Nites Original Soundtrack (2017) [FLAC]/12 Samet Love.flac

Track gain : -3.97 dB
Peak : 0.952362
CRC32 hash (test run) : C6D385F0
CRC32 hash : C6D385F0
CRC32 hash (skip zero) : 28E5B6EB
AccurateRip v1 signature : 5A10D8EB
AccurateRip v2 signature : 0D8450C0
->Accurately ripped (v2, confidence 3/3)
Statistics
Read error : 0
Jitter error (maybe fixed) : 0
Retry sector count : 0
Damaged sector count : 0

Track 13
Filename : /Users/jhmac/Music/XLD rips/Compilations - バンコクナイツ: Bangkok Nites Original Soundtrack (2017) [FLAC]/13 憎っくきモータサイ.flac

Track gain : -5.48 dB
Peak : 0.952362
CRC32 hash (test run) : 79F8FAC0
CRC32 hash : 79F8FAC0
CRC32 hash (skip zero) : D2E8241F
AccurateRip v1 signature : 690660BF
AccurateRip v2 signature : 3455C4A5
->Accurately ripped (v2, confidence 3/3)
Statistics
Read error : 0
Jitter error (maybe fixed) : 0
Retry sector count : 0
Damaged sector count : 0

Track 14
Filename : /Users/jhmac/Music/XLD rips/Compilations - バンコクナイツ: Bangkok Nites Original Soundtrack (2017) [FLAC]/14 夜の臭気~チット・プーミサックの詩より~.flac

Track gain : 4.30 dB
Peak : 0.722260
CRC32 hash (test run) : AC4DFC7E
CRC32 hash : AC4DFC7E
CRC32 hash (skip zero) : 93D824D4
AccurateRip v1 signature : FADECE61
AccurateRip v2 signature : 0C484B05
->Accurately ripped (v2, confidence 3/3)
Statistics
Read error : 0
Jitter error (maybe fixed) : 0
Retry sector count : 0
Damaged sector count : 0

Track 15
Filename : /Users/jhmac/Music/XLD rips/Compilations - バンコクナイツ: Bangkok Nites Original Soundtrack (2017) [FLAC]/15 Saramanda.flac

Track gain : -4.35 dB
Peak : 0.952362
CRC32 hash (test run) : C977FC5F
CRC32 hash : C977FC5F
CRC32 hash (skip zero) : 88B16B84
AccurateRip v1 signature : 293FDA05
AccurateRip v2 signature : 9A30DB2B
->Accurately ripped (v2, confidence 3/3)
Statistics
Read error : 0
Jitter error (maybe fixed) : 0
Retry sector count : 0
Damaged sector count : 0

Track 16
Filename : /Users/jhmac/Music/XLD rips/Compilations - バンコクナイツ: Bangkok Nites Original Soundtrack (2017) [FLAC]/16 タマリンドの葉(モーラム).flac

Track gain : 1.12 dB
Peak : 0.597015
CRC32 hash (test run) : 369B66D7
CRC32 hash : 369B66D7
CRC32 hash (skip zero) : 6F6F8D27
AccurateRip v1 signature : 39EFC5DA
AccurateRip v2 signature : 790D1D75
->Accurately ripped (v2, confidence 3/3)
Statistics
Read error : 0
Jitter error (maybe fixed) : 0
Retry sector count : 0
Damaged sector count : 0

Track 17
Filename : /Users/jhmac/Music/XLD rips/Compilations - バンコクナイツ: Bangkok Nites Original Soundtrack (2017) [FLAC]/17 バーン・スワイロン.flac

Track gain : -3.23 dB
Peak : 0.952362
CRC32 hash (test run) : FDA8FC14
CRC32 hash : FDA8FC14
CRC32 hash (skip zero) : 2B719D8D
AccurateRip v1 signature : 4EAE1397
AccurateRip v2 signature : 0E58C998
->Accurately ripped (v2, confidence 3/3)
Statistics
Read error : 0
Jitter error (maybe fixed) : 0
Retry sector count : 0
Damaged sector count : 0

Track 18
Filename : /Users/jhmac/Music/XLD rips/Compilations - バンコクナイツ: Bangkok Nites Original Soundtrack (2017) [FLAC]/18 Khaen Whistle Reprise (JRP Tond mix).flac

Track gain : -5.11 dB
Peak : 0.952332
CRC32 hash (test run) : 2E3AC08C
CRC32 hash : 2E3AC08C
CRC32 hash (skip zero) : 5582068E
AccurateRip v1 signature : 9990FB3A
AccurateRip v2 signature : FF9D9551
->Accurately ripped (v2, confidence 3/3)
Statistics
Read error : 0
Jitter error (maybe fixed) : 0
Retry sector count : 0
Damaged sector count : 0

Track 19
Filename : /Users/jhmac/Music/XLD rips/Compilations - バンコクナイツ: Bangkok Nites Original Soundtrack (2017) [FLAC]/19 Vang Vieng Bank (Change Yen to Lao) OST mix.flac

Track gain : -3.71 dB
Peak : 0.952362
CRC32 hash (test run) : 94852CEF
CRC32 hash : 94852CEF
CRC32 hash (skip zero) : 100E3436
AccurateRip v1 signature : 68209CDF
AccurateRip v2 signature : F1451596
->Accurately ripped (v2, confidence 3/3)
Statistics
Read error : 0
Jitter error (maybe fixed) : 0
Retry sector count : 0
Damaged sector count : 0

Track 20
Filename : /Users/jhmac/Music/XLD rips/Compilations - バンコクナイツ: Bangkok Nites Original Soundtrack (2017) [FLAC]/20 シェンクワンの娘.flac

Track gain : 0.63 dB
Peak : 0.672333
CRC32 hash (test run) : C7CA5665
CRC32 hash : C7CA5665
CRC32 hash (skip zero) : 29E474A8
AccurateRip v1 signature : 02B61115
AccurateRip v2 signature : 4964F9BE
->Accurately ripped (v2, confidence 3/3)
Statistics
Read error : 0
Jitter error (maybe fixed) : 0
Retry sector count : 0
Damaged sector count : 0

Track 21
Filename : /Users/jhmac/Music/XLD rips/Compilations - バンコクナイツ: Bangkok Nites Original Soundtrack (2017) [FLAC]/21 Get Em.flac

Track gain : -6.85 dB
Peak : 0.926117
CRC32 hash (test run) : 599E09F4
CRC32 hash : 599E09F4
CRC32 hash (skip zero) : 74BFA4AE
AccurateRip v1 signature : 0B620AA9
AccurateRip v2 signature : 78F8DA40
->Accurately ripped (v2, confidence 3/3)
Statistics
Read error : 0
Jitter error (maybe fixed) : 0
Retry sector count : 0
Damaged sector count : 0

Track 22
Filename : /Users/jhmac/Music/XLD rips/Compilations - バンコクナイツ: Bangkok Nites Original Soundtrack (2017) [FLAC]/22 Paun's House.flac

Track gain : -4.81 dB
Peak : 0.952362
CRC32 hash (test run) : 61DB03A8
CRC32 hash : 61DB03A8
CRC32 hash (skip zero) : 0630057B
AccurateRip v1 signature : 6A817D1E
AccurateRip v2 signature : 9873370B
->Accurately ripped (v2, confidence 3/3)
Statistics
Read error : 0
Jitter error (maybe fixed) : 0
Retry sector count : 0
Damaged sector count : 0

Track 23
Filename : /Users/jhmac/Music/XLD rips/Compilations - バンコクナイツ: Bangkok Nites Original Soundtrack (2017) [FLAC]/23 Xanadu.flac

Track gain : -5.35 dB
Peak : 0.952362
CRC32 hash (test run) : E8C7B0E3
CRC32 hash : E8C7B0E3
CRC32 hash (skip zero) : 37519632
AccurateRip v1 signature : B5E545EA
AccurateRip v2 signature : 865B5260
->Accurately ripped (v2, confidence 3/3)
Statistics
Read error : 0
Jitter error (maybe fixed) : 0
Retry sector count : 0
Damaged sector count : 0

Track 24
Filename : /Users/jhmac/Music/XLD rips/Compilations - バンコクナイツ: Bangkok Nites Original Soundtrack (2017) [FLAC]/24 Kanom Party.flac

Track gain : -4.72 dB
Peak : 0.952362
CRC32 hash (test run) : FDC94A09
CRC32 hash : FDC94A09
CRC32 hash (skip zero) : CAD9FA07
AccurateRip v1 signature : F0FB3651
AccurateRip v2 signature : AB730B06
->Accurately ripped (v2, confidence 3/3)
Statistics
Read error : 0
Jitter error (maybe fixed) : 0
Retry sector count : 0
Damaged sector count : 0

Track 25
Filename : /Users/jhmac/Music/XLD rips/Compilations - バンコクナイツ: Bangkok Nites Original Soundtrack (2017) [FLAC]/25 The Song of an Angel.flac

Track gain : -5.93 dB
Peak : 0.952362
CRC32 hash (test run) : 36E43EFE
CRC32 hash : 36E43EFE
CRC32 hash (skip zero) : 03C9195B
AccurateRip v1 signature : 808CC521
AccurateRip v2 signature : B8F19691
->Accurately ripped (v2, confidence 3/3)
Statistics
Read error : 0
Jitter error (maybe fixed) : 0
Retry sector count : 0
Damaged sector count : 0

Track 26
Filename : /Users/jhmac/Music/XLD rips/Compilations - バンコクナイツ: Bangkok Nites Original Soundtrack (2017) [FLAC]/26 インの語り.flac

Track gain : 5.87 dB
Peak : 0.441071
CRC32 hash (test run) : 1EC6BDB9
CRC32 hash : 1EC6BDB9
CRC32 hash (skip zero) : A35774CB
AccurateRip v1 signature : 424882A2
AccurateRip v2 signature : 26044F82
->Accurately ripped (v2, confidence 3/3)
Statistics
Read error : 0
Jitter error (maybe fixed) : 0
Retry sector count : 0
Damaged sector count : 0

Track 27
Filename : /Users/jhmac/Music/XLD rips/Compilations - バンコクナイツ: Bangkok Nites Original Soundtrack (2017) [FLAC]/27 イサーン・ラム・プルーン.flac

Track gain : -6.66 dB
Peak : 0.948090
CRC32 hash (test run) : 122203CE
CRC32 hash : 122203CE
CRC32 hash (skip zero) : B2806346
AccurateRip v1 signature : 1A01DE9A
AccurateRip v2 signature : F40B02C6
->Accurately ripped (v2, confidence 3/3)
Statistics
Read error : 0
Jitter error (maybe fixed) : 0
Retry sector count : 0
Damaged sector count : 0

Track 28
Filename : /Users/jhmac/Music/XLD rips/Compilations - バンコクナイツ: Bangkok Nites Original Soundtrack (2017) [FLAC]/28 満月(アッサニー・ポンラチャン).flac

Track gain : 1.87 dB
Peak : 0.683563
CRC32 hash (test run) : 190E211E
CRC32 hash : 190E211E
CRC32 hash (skip zero) : E8DFF329
AccurateRip v1 signature : 62995686
AccurateRip v2 signature : 2A61BE42
->Accurately ripped (v2, confidence 3/3)
Statistics
Read error : 0
Jitter error (maybe fixed) : 0
Retry sector count : 0
Damaged sector count : 0

No errors occurred

End of status report

––-BEGIN XLD SIGNATURE––-
QSD3MGrX1KhI.eWKJJmmy1qmTLvW2EjLSpaD9RpdzEVFRfCPQFEgWYWwbiolBCzwO95RPa2mcouyQl0n6lYo_1Qfe_IW8eD0koAaqRK
––-END XLD SIGNATURE––-