Tags
Language
Tags

Various Artists – Ivory Coast: Baule Vocal Music (1993)

Posted By: d'Avignon
Various Artists – Ivory Coast: Baule Vocal Music (1993)

Various Artists – Ivory Coast: Baule Vocal Music (1993)
World/Ethnic | FLAC lossless | cuesheets+log | covers+booklet | 47m08s | 273mb
Label: Unesco/Auvidis | cat. no. D 8048


The liner notes relate the legend of Queen Aura Poku, who sacrificed her son to allow her people to cross a river to freedom. After her people were safely across the river, the queen could only repeat the word bauoli, meaning: the child is dead.
Queen Aura Poku and other legends are represented in Baule music, which is well known throughout Côte d’Ivoire. Two or more voices are usually joined by bells, rattles, and a variety of drums. They also use a fiddle and a harp-lute to accompany singers, creating layers of complex sounds. Although many children begin training in vocal polyphony at a young age, the finest musicians, especially singer-instrumentalists, are thought to have been chosen by the spirits. This album was recorded in 1965 and 1966.

Tracks:

01. Kpanda Dance [0:03:32.86]
02. Song To Conclude The Kpanda Dance [0:02:32.40]
03. Dance Of The Queens' Masks [0:06:31.57]
04. Dance Of The Elephant Mask [0:03:41.22]
05. Dance Of The Excised Girls [0:02:57.70]
06. Music Of A Guardian Spirit [0:03:55.29]
07. Little Girls' Sung Games [0:04:29.40]
08. Song With Forked Harp Accompaniment [0:03:14.26]
09. Song Accompanied On The Musical Bow [0:03:27.90]
10. War Song [0:03:24.42]
11. Song With Harp-Lute Accompaniment [0:03:41.33]
12. Song With Sanza Accompaniment [0:03:08.57]
13. Song Of Two Little Girls [0:02:31.26]

Performers:

Various artists

Exact Audio Copy V1.0 beta 3 from 29. August 2011

EAC extraction logfile from 11. May 2016, 22:06

Various / Côte D'Ivoire: Baule Vocal Music

Used drive : TSSTcorpCDDVDW SH-216AB Adapter: 0 ID: 0

Read mode : Secure
Utilize accurate stream : Yes
Defeat audio cache : Yes
Make use of C2 pointers : No

Read offset correction : 6
Overread into Lead-In and Lead-Out : No
Fill up missing offset samples with silence : Yes
Delete leading and trailing silent blocks : No
Null samples used in CRC calculations : Yes
Used interface : Native Win32 interface for Win NT & 2000
Gap handling : Appended to previous track

Used output format : User Defined Encoder
Selected bitrate : 768 kBit/s
Quality : High
Add ID3 tag : No
Command line compressor : C:\Program Files (x86)\FLAC Frontend\tools\flac.exe
Additional command line options : -8 -V -T "ARTIST=%artist%" -T "TITLE=%title%" -T "ALBUM=%albumtitle%" -T "DATE=%year%" -T "TRACKNUMBER=%tracknr%" -T "GENRE=%genre%" -T "PERFORMER=%albuminterpret%" -T "COMPOSER=%composer%" %haslyrics%–tag-from-file=LYRICS="%lyricsfile%"%haslyrics% -T "ALBUMARTIST=%albumartist%" -T "DISCNUMBER=%cdnumber%" -T "TOTALDISCS=%totalcds%" -T "TOTALTRACKS=%numtracks%" -T "COMMENT=%comment%" %source% -o %dest%


TOC of the extracted CD

Track | Start | Length | Start sector | End sector
––––––––––––––––––––––––––––-
1 | 0:00.32 | 3:32.65 | 32 | 15996
2 | 3:33.22 | 2:32.30 | 15997 | 27426
3 | 6:05.52 | 6:31.43 | 27427 | 56794
4 | 12:37.20 | 3:41.17 | 56795 | 73386
5 | 16:18.37 | 2:57.53 | 73387 | 86714
6 | 19:16.15 | 3:55.22 | 86715 | 104361
7 | 23:11.37 | 4:29.30 | 104362 | 124566
8 | 27:40.67 | 3:14.20 | 124567 | 139136
9 | 30:55.12 | 3:27.68 | 139137 | 154729
10 | 34:23.05 | 3:24.32 | 154730 | 170061
11 | 37:47.37 | 3:41.25 | 170062 | 186661
12 | 41:28.62 | 3:08.43 | 186662 | 200804
13 | 44:37.30 | 2:31.20 | 200805 | 212149


Track 1

Filename H:\Users\astarte\03. POST\Various Artists - Baule Vocal Music\01 Kpanda Dance.wav

Pre-gap length 0:00:02.42

Peak level 89.8 %
Extraction speed 1.7 X
Track quality 100.0 %
Copy CRC 6369C8D1
Track not present in AccurateRip database
Copy OK

Track 2

Filename H:\Users\astarte\03. POST\Various Artists - Baule Vocal Music\02 Song To Conclude The Kpanda Dance.wav

Pre-gap length 0:00:05.33

Peak level 86.2 %
Extraction speed 1.4 X
Track quality 99.9 %
Copy CRC BE22B56A
Track not present in AccurateRip database
Copy OK

Track 3

Filename H:\Users\astarte\03. POST\Various Artists - Baule Vocal Music\03 Dance Of The Queens' Masks.wav

Pre-gap length 0:00:04.13

Peak level 72.9 %
Extraction speed 2.2 X
Track quality 100.0 %
Copy CRC 66A5EC45
Track not present in AccurateRip database
Copy OK

Track 4

Filename H:\Users\astarte\03. POST\Various Artists - Baule Vocal Music\04 Dance Of The Elephant Mask.wav

Pre-gap length 0:00:04.57

Peak level 84.0 %
Extraction speed 2.2 X
Track quality 100.0 %
Copy CRC 16F3CE3A
Track not present in AccurateRip database
Copy OK

Track 5

Filename H:\Users\astarte\03. POST\Various Artists - Baule Vocal Music\05 Dance Of The Excised Girls.wav

Pre-gap length 0:00:04.33

Peak level 73.0 %
Extraction speed 2.3 X
Track quality 100.0 %
Copy CRC 245E37B4
Track not present in AccurateRip database
Copy OK

Track 6

Filename H:\Users\astarte\03. POST\Various Artists - Baule Vocal Music\06 Music Of A Guardian Spirit.wav

Pre-gap length 0:00:04.77

Peak level 73.1 %
Extraction speed 2.5 X
Track quality 100.0 %
Copy CRC 2B53A049
Track not present in AccurateRip database
Copy OK

Track 7

Filename H:\Users\astarte\03. POST\Various Artists - Baule Vocal Music\07 Little Girls' Sung Games.wav

Pre-gap length 0:00:02.62

Peak level 76.0 %
Extraction speed 2.7 X
Track quality 100.0 %
Copy CRC 403D4C7D
Track not present in AccurateRip database
Copy OK

Track 8

Filename H:\Users\astarte\03. POST\Various Artists - Baule Vocal Music\08 Song With Forked Harp Accompaniment.wav

Pre-gap length 0:00:04.73

Peak level 59.8 %
Extraction speed 2.7 X
Track quality 100.0 %
Copy CRC 0AE568AB
Track not present in AccurateRip database
Copy OK

Track 9

Filename H:\Users\astarte\03. POST\Various Artists - Baule Vocal Music\09 Song Accompanied On The Musical Bow.wav

Pre-gap length 0:00:04.62

Peak level 45.2 %
Extraction speed 2.8 X
Track quality 100.0 %
Copy CRC CCA98FDD
Track not present in AccurateRip database
Copy OK

Track 10

Filename H:\Users\astarte\03. POST\Various Artists - Baule Vocal Music\10 War Song.wav

Pre-gap length 0:00:04.40

Peak level 75.8 %
Extraction speed 2.9 X
Track quality 100.0 %
Copy CRC 571547D3
Track not present in AccurateRip database
Copy OK

Track 11

Filename H:\Users\astarte\03. POST\Various Artists - Baule Vocal Music\11 Song With Harp-Lute Accompaniment.wav

Pre-gap length 0:00:05.09

Peak level 68.1 %
Extraction speed 3.0 X
Track quality 100.0 %
Copy CRC 40184C2A
Track not present in AccurateRip database
Copy OK

Track 12

Filename H:\Users\astarte\03. POST\Various Artists - Baule Vocal Music\12 Song With Sanza Accompaniment.wav

Pre-gap length 0:00:04.96

Peak level 52.4 %
Extraction speed 2.6 X
Track quality 99.9 %
Copy CRC 7E264D3A
Track not present in AccurateRip database
Copy OK

Track 13

Filename H:\Users\astarte\03. POST\Various Artists - Baule Vocal Music\13 Song Of Two Little Girls.wav

Pre-gap length 0:00:04.66

Peak level 69.4 %
Extraction speed 3.0 X
Track quality 100.0 %
Copy CRC 727394D6
Track not present in AccurateRip database
Copy OK


None of the tracks are present in the AccurateRip database

No errors occurred

End of status report

==== Log checksum EA95B4F3728B3031E338BDE6353A97BC43550D6B90680BF1A8E5D21671D3FBE5 ====