Tags
Language
Tags

Various Artists – Greece: Traditional Music (1990)

Posted By: d'Avignon
Various Artists – Greece: Traditional Music (1990)

Various Artists – Greece: Traditional Music (1990)
World/Folk | FLAC lossless | cuesheets+log | covers+booklet | 47m15s | 294mb
Label: Unesco/Auvidis | cat. no. D 8018


After two millennia under the Roman, Byzantine, and Ottoman empires, not to mention musical invasions from the West, what remains of Greece’s early musical heritage? What can be called “Greek”? Although the origins of musical genres and systems identified with the country are often confused, misunderstood, and mislabeled, this 1970 collection provides fourteen vivid examples of vocal and instrumental music from mountain and island regions that have maintained the closest ties to ancient tradition.

Tracks:

01. Epire - Miroloi [0:05:14.37]
02. Epire - Chanson de mariage du Nord de l'Epire [0:04:34.00]
03. Macédoine - Chant de berger [0:03:03.20]
04. Macédoine - Solo de clarinette [0:01:19.89]
05. Péloponèse - Chanson cleftique [0:05:20.20]
06. Péloponèse - Skaros [0:03:49.10]
07. Thrace - Mélodie de Thrace [0:03:20.06]
08. Thrace - Chant de table [0:02:50.82]
09. Thrace - Solo de ud [0:02:42.80]
10. Asie Mineure - Solo de santouri [0:01:51.64]
11. Pont - Chant de danse de berger [0:03:57.62]
12. Crête - Solo de lyre [0:02:42.84]
13. Crête - Récitatif [0:03:14.29]
14. Crête - Chanson de montagnard suivie d'une Mantinades [0:03:14.86]

Performers:

Various Artists

Exact Audio Copy V1.0 beta 3 from 29. August 2011

EAC extraction logfile from 6. July 2016, 1:42

Grèce - Musique traditionnelle / Musique traditionnelle grecque

Used drive : TSSTcorpCDDVDW SH-216AB Adapter: 0 ID: 0

Read mode : Secure
Utilize accurate stream : Yes
Defeat audio cache : Yes
Make use of C2 pointers : No

Read offset correction : 6
Overread into Lead-In and Lead-Out : No
Fill up missing offset samples with silence : Yes
Delete leading and trailing silent blocks : No
Null samples used in CRC calculations : Yes
Used interface : Native Win32 interface for Win NT & 2000
Gap handling : Appended to previous track

Used output format : User Defined Encoder
Selected bitrate : 768 kBit/s
Quality : High
Add ID3 tag : No
Command line compressor : C:\Program Files (x86)\FLAC Frontend\tools\flac.exe
Additional command line options : -8 -V -T "ARTIST=%artist%" -T "TITLE=%title%" -T "ALBUM=%albumtitle%" -T "DATE=%year%" -T "TRACKNUMBER=%tracknr%" -T "GENRE=%genre%" -T "PERFORMER=%albuminterpret%" -T "COMPOSER=%composer%" %haslyrics%–tag-from-file=LYRICS="%lyricsfile%"%haslyrics% -T "ALBUMARTIST=%albumartist%" -T "DISCNUMBER=%cdnumber%" -T "TOTALDISCS=%totalcds%" -T "TOTALTRACKS=%numtracks%" -T "COMMENT=%comment%" %source% -o %dest%


TOC of the extracted CD

Track | Start | Length | Start sector | End sector
––––––––––––––––––––––––––––-
1 | 0:00.32 | 5:14.28 | 32 | 23609
2 | 5:14.60 | 4:34.00 | 23610 | 44159
3 | 9:48.60 | 3:03.15 | 44160 | 57899
4 | 12:52.00 | 1:19.67 | 57900 | 63891
5 | 14:11.67 | 5:20.15 | 63892 | 87906
6 | 19:32.07 | 3:49.08 | 87907 | 105089
7 | 23:21.15 | 3:20.05 | 105090 | 120094
8 | 26:41.20 | 2:50.62 | 120095 | 132906
9 | 29:32.07 | 2:42.60 | 132907 | 145116
10 | 32:14.67 | 1:51.48 | 145117 | 153489
11 | 34:06.40 | 3:57.47 | 153490 | 171311
12 | 38:04.12 | 2:42.63 | 171312 | 183524
13 | 40:47.00 | 3:14.22 | 183525 | 198096
14 | 44:01.22 | 3:14.65 | 198097 | 212711


Track 1

Filename H:\Users\astarte\03. POST\Various Artists - Greece - Traditional Music\01 Epire - Miroloi.wav

Pre-gap length 0:00:02.42

Peak level 65.1 %
Extraction speed 1.6 X
Track quality 99.9 %
Copy CRC ECD7B61F
Accurately ripped (confidence 2) [048CCAFF] (AR v2)
Copy OK

Track 2

Filename H:\Users\astarte\03. POST\Various Artists - Greece - Traditional Music\02 Epire - Chanson de mariage du Nord de l'Epire.wav

Pre-gap length 0:00:01.97

Peak level 80.9 %
Extraction speed 2.0 X
Track quality 100.0 %
Copy CRC BA0AB836
Accurately ripped (confidence 1) [1A029190] (AR v2)
Copy OK

Track 3

Filename H:\Users\astarte\03. POST\Various Artists - Greece - Traditional Music\03 Macédoine - Chant de berger.wav

Pre-gap length 0:00:01.80

Peak level 53.0 %
Extraction speed 2.0 X
Track quality 100.0 %
Copy CRC 59C59250
Accurately ripped (confidence 2) [E7558693] (AR v2)
Copy OK

Track 4

Filename H:\Users\astarte\03. POST\Various Artists - Greece - Traditional Music\04 Macédoine - Solo de clarinette.wav

Pre-gap length 0:00:02.30

Peak level 53.5 %
Extraction speed 1.8 X
Track quality 100.0 %
Copy CRC 1CA01475
Accurately ripped (confidence 2) [CFD0B74A] (AR v2)
Copy OK

Track 5

Filename H:\Users\astarte\03. POST\Various Artists - Greece - Traditional Music\05 Péloponèse - Chanson cleftique.wav

Pre-gap length 0:00:02.09

Peak level 99.1 %
Extraction speed 2.4 X
Track quality 100.0 %
Copy CRC 0E913483
Accurately ripped (confidence 2) [CF6FECAC] (AR v2)
Copy OK

Track 6

Filename H:\Users\astarte\03. POST\Various Artists - Greece - Traditional Music\06 Péloponèse - Skaros.wav

Pre-gap length 0:00:01.76

Peak level 65.0 %
Extraction speed 2.5 X
Track quality 100.0 %
Copy CRC F8EE33FA
Accurately ripped (confidence 2) [59239448] (AR v2)
Copy OK

Track 7

Filename H:\Users\astarte\03. POST\Various Artists - Greece - Traditional Music\07 Thrace - Mélodie de Thrace.wav

Pre-gap length 0:00:03.66

Peak level 63.4 %
Extraction speed 2.5 X
Track quality 100.0 %
Copy CRC 088A9999
Accurately ripped (confidence 2) [4C5BD13E] (AR v2)
Copy OK

Track 8

Filename H:\Users\astarte\03. POST\Various Artists - Greece - Traditional Music\08 Thrace - Chant de table.wav

Pre-gap length 0:00:02.06

Peak level 40.6 %
Extraction speed 2.6 X
Track quality 100.0 %
Copy CRC ECA56891
Accurately ripped (confidence 2) [F8206FB3] (AR v2)
Copy OK

Track 9

Filename H:\Users\astarte\03. POST\Various Artists - Greece - Traditional Music\09 Thrace - Solo de ud.wav

Pre-gap length 0:00:02.66

Peak level 45.1 %
Extraction speed 2.6 X
Track quality 100.0 %
Copy CRC 40435932
Accurately ripped (confidence 2) [DE01A735] (AR v2)
Copy OK

Track 10

Filename H:\Users\astarte\03. POST\Various Artists - Greece - Traditional Music\10 Asie Mineure - Solo de santouri.wav

Pre-gap length 0:00:03.53

Peak level 69.5 %
Extraction speed 2.5 X
Track quality 100.0 %
Copy CRC 8E7C9C95
Accurately ripped (confidence 2) [33F9406C] (AR v2)
Copy OK

Track 11

Filename H:\Users\astarte\03. POST\Various Artists - Greece - Traditional Music\11 Pont - Chant de danse de berger.wav

Pre-gap length 0:00:01.93

Peak level 62.9 %
Extraction speed 3.0 X
Track quality 100.0 %
Copy CRC EF3E6948
Accurately ripped (confidence 2) [DBC0DA68] (AR v2)
Copy OK

Track 12

Filename H:\Users\astarte\03. POST\Various Artists - Greece - Traditional Music\12 Crête - Solo de lyre.wav

Pre-gap length 0:00:03.36

Peak level 37.1 %
Extraction speed 2.9 X
Track quality 100.0 %
Copy CRC 416122F8
Accurately ripped (confidence 2) [18CE37D1] (AR v2)
Copy OK

Track 13

Filename H:\Users\astarte\03. POST\Various Artists - Greece - Traditional Music\13 Crête - Récitatif.wav

Pre-gap length 0:00:02.04

Peak level 40.8 %
Extraction speed 3.0 X
Track quality 100.0 %
Copy CRC 6BBDECF9
Accurately ripped (confidence 2) [102F0A92] (AR v2)
Copy OK

Track 14

Filename H:\Users\astarte\03. POST\Various Artists - Greece - Traditional Music\14 Crête - Chanson de montagnard suivie d'une Mantinades.wav

Pre-gap length 0:00:01.86

Peak level 63.0 %
Extraction speed 2.7 X
Track quality 99.9 %
Copy CRC 223AE533
Accurately ripped (confidence 2) [15050F7B] (AR v2)
Copy OK


All tracks accurately ripped

No errors occurred

End of status report

==== Log checksum 94987FD0A17CC1A4925B291D8539F194D10DBA01FBE6FD858D9CCCC61C2A49B0 ====