Tags
Language
Tags

Various Artists - Iraq: Iqa’at - Traditional Rhythmic Structures (1992)

Posted By: d'Avignon
Various Artists - Iraq: Iqa’at - Traditional Rhythmic Structures (1992)

Various Artists - Iraq: Iqa’at - Traditional Rhythmic Structures (1992)
World/Ethnic | FLAC lossless | cuesheets+log | covers+booklet | 51m44s | 274mb
Label: Unesco/Auvidis | cat. no. D 8044


In Iraq, maqam—a term referring to any one of the rhythmically complex and improvisational melodic modes of Arabic classical music, which dictate pitches, pattern, and song progression—is performed in three distinct regional styles by vocalists, instrumentalists, and mixed drum groups. This compilation of recordings by ethnomusicologist Habib Hassan Touma features various musical genres from Basra Province and Baghdad that provide a glimpse into the varied iqa’at (rhythmic forms) in traditional Iraqi music.

Tracks:

01. Mukhalif (Maqam Iraqi) [0:14:45.02]
02. Iqa'at (Solo Improvisation) [0:09:52.30]
03. Fann Khammari [0:05:04.62]
04. Iqa'at (Collective Improvisation) [0:08:11.46]
05. Murraba' [0:04:25.66]
06. Abuziyyah / Abuziyya [0:06:48.40]
07. Mawwal [0:03:37.20]

Performers:

Various artists

Exact Audio Copy V1.0 beta 3 from 29. August 2011

EAC extraction logfile from 4. March 2016, 20:48

Various / Iqa'at: Traditional Rhythmic Structures

Used drive : TSSTcorpCDDVDW SH-216AB Adapter: 0 ID: 0

Read mode : Secure
Utilize accurate stream : Yes
Defeat audio cache : Yes
Make use of C2 pointers : No

Read offset correction : 6
Overread into Lead-In and Lead-Out : No
Fill up missing offset samples with silence : Yes
Delete leading and trailing silent blocks : No
Null samples used in CRC calculations : Yes
Used interface : Native Win32 interface for Win NT & 2000
Gap handling : Appended to previous track

Used output format : User Defined Encoder
Selected bitrate : 768 kBit/s
Quality : High
Add ID3 tag : No
Command line compressor : C:\Program Files (x86)\FLAC Frontend\tools\flac.exe
Additional command line options : -8 -V -T "ARTIST=%artist%" -T "TITLE=%title%" -T "ALBUM=%albumtitle%" -T "DATE=%year%" -T "TRACKNUMBER=%tracknr%" -T "GENRE=%genre%" -T "PERFORMER=%albuminterpret%" -T "COMPOSER=%composer%" %haslyrics%–tag-from-file=LYRICS="%lyricsfile%"%haslyrics% -T "ALBUMARTIST=%albumartist%" -T "DISCNUMBER=%cdnumber%" -T "TOTALDISCS=%totalcds%" -T "TOTALTRACKS=%numtracks%" -T "COMMENT=%comment%" %source% -o %dest%


TOC of the extracted CD

Track | Start | Length | Start sector | End sector
––––––––––––––––––––––––––––-
1 | 0:00.33 | 14:45.02 | 33 | 66409
2 | 14:45.35 | 9:52.23 | 66410 | 110832
3 | 24:37.58 | 5:04.47 | 110833 | 133679
4 | 29:42.30 | 8:11.35 | 133680 | 170539
5 | 37:53.65 | 4:25.50 | 170540 | 190464
6 | 42:19.40 | 6:48.30 | 190465 | 221094
7 | 49:07.70 | 3:37.15 | 221095 | 237384


Track 1

Filename H:\Users\astarte\03. POST\Various Artists - Iraq - Traditional Rhythmic Structures\01 Mukhalif (Maqam Iraqi).wav

Pre-gap length 0:00:02.44

Peak level 93.6 %
Extraction speed 0.3 X
Track quality 99.9 %
Copy CRC C5AFBC88
Accurately ripped (confidence 1) [F869B6D8] (AR v1)
Copy OK

Track 2

Filename H:\Users\astarte\03. POST\Various Artists - Iraq - Traditional Rhythmic Structures\02 Iqa'at (Solo Improvisation).wav

Pre-gap length 0:00:09.20

Peak level 99.9 %
Extraction speed 2.7 X
Track quality 100.0 %
Copy CRC 8CD4DDB6
Accurately ripped (confidence 1) [C566F8C2] (AR v1)
Copy OK

Track 3

Filename H:\Users\astarte\03. POST\Various Artists - Iraq - Traditional Rhythmic Structures\03 Fann Khammari.wav

Pre-gap length 0:00:09.70

Peak level 99.8 %
Extraction speed 2.8 X
Track quality 100.0 %
Copy CRC 557DBAEC
Accurately ripped (confidence 1) [DCFDFAD2] (AR v1)
Copy OK

Track 4

Filename H:\Users\astarte\03. POST\Various Artists - Iraq - Traditional Rhythmic Structures\04 Iqa'at (Collective Improvisation).wav

Pre-gap length 0:00:15.40

Peak level 87.5 %
Extraction speed 3.1 X
Track quality 100.0 %
Copy CRC 9CC4AC16
Accurately ripped (confidence 1) [2A24D7BD] (AR v1)
Copy OK

Track 5

Filename H:\Users\astarte\03. POST\Various Artists - Iraq - Traditional Rhythmic Structures\05 Murraba'.wav

Pre-gap length 0:00:09.49

Peak level 75.6 %
Extraction speed 3.1 X
Track quality 100.0 %
Copy CRC EEB8C03A
Accurately ripped (confidence 1) [D020D08E] (AR v1)
Copy OK

Track 6

Filename H:\Users\astarte\03. POST\Various Artists - Iraq - Traditional Rhythmic Structures\06 Abuziyya.wav

Pre-gap length 0:00:06.86

Peak level 55.4 %
Extraction speed 3.4 X
Track quality 100.0 %
Copy CRC 31E4808A
Accurately ripped (confidence 1) [38B39BCC] (AR v1)
Copy OK

Track 7

Filename H:\Users\astarte\03. POST\Various Artists - Iraq - Traditional Rhythmic Structures\07 Mawwal.wav

Pre-gap length 0:00:08.89

Peak level 61.5 %
Extraction speed 3.3 X
Track quality 100.0 %
Copy CRC A477B9D8
Accurately ripped (confidence 1) [26DA9D21] (AR v1)
Copy OK


All tracks accurately ripped

No errors occurred

End of status report

==== Log checksum 86BD967EB5FC895105143C90A980AE9D2ABE0D33A39CCFFD307B6DBDD628D030 ====