Tags
Language
Tags

Various Artists – Laos: Traditional Music of the South (1992)

Posted By: d'Avignon
Various Artists – Laos: Traditional Music of the South (1992)

Various Artists – Laos: Traditional Music of the South (1992)
World/Ethnic | FLAC lossless | cuesheets+log | covers+booklet | 52m09s | 295mb
Label: Unesco/Auvidis | cat. no. D 8042


The Laotian national instrument is the khène, typically an eighty centimeter (roughly a two and a half foot) long mouth organ constructed of seven or eight pairs of bamboo pipes that are connected with a small, hollowed-out hardwood reservoir into which air is blown. Its sound is similar to that of a violin, and it may be played as a solo instrument or to accompany singers and instrumental ensembles. The khène also occurs in a two meter (approximately six and a half foot) version, which few musicians have powerful enough lungs to master.
The khène can be heard on most of the tracks in this recording, which includes ritual music, wedding music, and songs such as "Lam Sithandone" sung by professional singers Thao and Nang Sikhone.
This collection of traditional Laotian music was compiled by Jacques Brunet, a musicologist who studied the music of Southeast Asia and Indonesia.

Tracks:

01. Pheng Phi Fa [0:05:27.73]
02. Lam Sithandone [0:07:25.82]
03. Pheng Kom [0:06:32.33]
04. Music for the ceremony of the buffalo sacrifice [0:06:28.64]
05. Sut Sa Men, Ma It Thiet Lo Hat & Tit Sut Noi [0:08:24.16]
06. Pheng Soysonthat [0:06:10.17]
07. Lam of Savannakhet [0:08:32.53]
08. Lot Fay Tay Lang (the train goes down the track) [0:03:08.20]

Performers:

Various Artists

Exact Audio Copy V1.0 beta 3 from 29. August 2011

EAC extraction logfile from 6. July 2016, 20:20

Jacques Brunet rec / Laos: Traditional Music of the South

Used drive : TSSTcorpCDDVDW SH-216AB Adapter: 0 ID: 0

Read mode : Secure
Utilize accurate stream : Yes
Defeat audio cache : Yes
Make use of C2 pointers : No

Read offset correction : 6
Overread into Lead-In and Lead-Out : No
Fill up missing offset samples with silence : Yes
Delete leading and trailing silent blocks : No
Null samples used in CRC calculations : Yes
Used interface : Native Win32 interface for Win NT & 2000
Gap handling : Appended to previous track

Used output format : User Defined Encoder
Selected bitrate : 768 kBit/s
Quality : High
Add ID3 tag : No
Command line compressor : C:\Program Files (x86)\FLAC Frontend\tools\flac.exe
Additional command line options : -8 -V -T "ARTIST=%artist%" -T "TITLE=%title%" -T "ALBUM=%albumtitle%" -T "DATE=%year%" -T "TRACKNUMBER=%tracknr%" -T "GENRE=%genre%" -T "PERFORMER=%albuminterpret%" -T "COMPOSER=%composer%" %haslyrics%–tag-from-file=LYRICS="%lyricsfile%"%haslyrics% -T "ALBUMARTIST=%albumartist%" -T "DISCNUMBER=%cdnumber%" -T "TOTALDISCS=%totalcds%" -T "TOTALTRACKS=%numtracks%" -T "COMMENT=%comment%" %source% -o %dest%


TOC of the extracted CD

Track | Start | Length | Start sector | End sector
––––––––––––––––––––––––––––-
1 | 0:00.33 | 5:27.55 | 33 | 24612
2 | 5:28.13 | 7:25.62 | 24613 | 58049
3 | 12:54.00 | 6:32.25 | 58050 | 87474
4 | 19:26.25 | 6:28.48 | 87475 | 116622
5 | 25:54.73 | 8:24.12 | 116623 | 154434
6 | 34:19.10 | 6:10.13 | 154435 | 182197
7 | 40:29.23 | 8:32.40 | 182198 | 220637
8 | 49:01.63 | 3:08.15 | 220638 | 234752


Track 1

Filename H:\Users\astarte\03. POST\Various Artists - Laos - Traditional Music of the South\01 Pheng Phi Fa.wav

Pre-gap length 0:00:02.44

Peak level 85.2 %
Extraction speed 0.3 X
Track quality 100.0 %
Copy CRC 742459BD
Accurately ripped (confidence 2) [F5E7CEF2] (AR v1)
Copy OK

Track 2

Filename H:\Users\astarte\03. POST\Various Artists - Laos - Traditional Music of the South\02 Lam Sithandone.wav

Pre-gap length 0:00:09.53

Peak level 86.7 %
Extraction speed 2.0 X
Track quality 99.9 %
Copy CRC A8CA203D
Accurately ripped (confidence 2) [784F1B3E] (AR v1)
Copy OK

Track 3

Filename H:\Users\astarte\03. POST\Various Artists - Laos - Traditional Music of the South\03 Pheng Kom.wav

Pre-gap length 0:00:08.96

Peak level 89.0 %
Extraction speed 2.5 X
Track quality 100.0 %
Copy CRC D64D4865
Accurately ripped (confidence 2) [30C38F22] (AR v1)
Copy OK

Track 4

Filename H:\Users\astarte\03. POST\Various Artists - Laos - Traditional Music of the South\04 Music for the ceremony of the buffalo sacrifice.wav

Pre-gap length 0:00:07.29

Peak level 94.6 %
Extraction speed 2.7 X
Track quality 100.0 %
Copy CRC 7B16A7DF
Accurately ripped (confidence 2) [7917B167] (AR v1)
Copy OK

Track 5

Filename H:\Users\astarte\03. POST\Various Artists - Laos - Traditional Music of the South\05 Sut Sa Men, Ma It Thiet Lo Hat & Tit Sut Noi.wav

Pre-gap length 0:00:09.60

Peak level 79.4 %
Extraction speed 3.0 X
Track quality 100.0 %
Copy CRC A20D5C18
Accurately ripped (confidence 2) [B946F497] (AR v1)
Copy OK

Track 6

Filename H:\Users\astarte\03. POST\Various Artists - Laos - Traditional Music of the South\06 Pheng Soysonthat.wav

Pre-gap length 0:00:08.89

Peak level 92.3 %
Extraction speed 2.9 X
Track quality 99.9 %
Copy CRC 5C61C7DF
Accurately ripped (confidence 2) [31ECF803] (AR v1)
Copy OK

Track 7

Filename H:\Users\astarte\03. POST\Various Artists - Laos - Traditional Music of the South\07 Lam of Savannakhet.wav

Pre-gap length 0:00:08.50

Peak level 81.3 %
Extraction speed 3.5 X
Track quality 100.0 %
Copy CRC 2D2F50A6
Accurately ripped (confidence 1) [65B72290] (AR v2)
Copy OK

Track 8

Filename H:\Users\astarte\03. POST\Various Artists - Laos - Traditional Music of the South\08 Lot Fay Tay Lang (the train goes down the track).wav

Pre-gap length 0:00:09.50

Peak level 83.4 %
Extraction speed 3.2 X
Track quality 100.0 %
Copy CRC A9FD4841
Accurately ripped (confidence 2) [908684E9] (AR v1)
Copy OK


All tracks accurately ripped

No errors occurred

End of status report

==== Log checksum 15517F8DBFB1D838BF3CA3D6230E847E8FBB135D3609B78A469F40B486B24ADD ====