Tags
Language
Tags

Various Artists – Switzerland: Zäuerli, Yodel of Appenzell (1990)

Posted By: d'Avignon
Various Artists – Switzerland: Zäuerli, Yodel of Appenzell (1990)

Various Artists – Switzerland: Zäuerli, Yodel of Appenzell (1990)
World/Folk | FLAC lossless | cuesheets+log | covers+booklet | 45m30s | 265mb
Label: Unesco/Auvidis | cat. no. D 8026


This collection of traditional zäuerli (wordless yodels) was recorded by ethnomusicologist Hugo Zemp in the Appenzell region of northeastern Switzerland, an area known for its dairy farms. Zäuerli are among the most celebrated yodels in the world and have a very distinct sound. Contrasted with the yodeling of central Switzerland, which is high and fast-paced, Appenzell zäuerli are sung in the lower register of the vocal range and feature a relaxed voice, slow tempo, and an elongation of the tones. The yodels compiled here are songs of work—sung while milking cows or herding cattle—social life, and celebration.

Tracks:

01. Zäuerli sung by the Silvesterkläuse [0:09:01.22]
02. Zäuerli sung during milking the cows [0:05:46.66]
03. Zäuerli sung while going up to the Alpine pasture [0:02:35.97]
04. Zäuerli with Schelleschötte [0:06:13.13]
05. Zäuerli sung in the inn [0:02:20.33]
06. Zäuerli sung in the inn [0:03:49.29]
07. Zäuerli sung in the inn [0:02:56.73]
08. Zäuerli sung in the inn [0:02:01.73]
09. Zäuerli sung in the inn [0:02:01.46]
10. Zäuerli sung in the inn [0:03:06.10]
11. Zäuerli sung in the inn [0:02:49.80]
12. Zäuerli sung in the inn [0:02:48.13]

Performers:

Various Artists

Exact Audio Copy V1.0 beta 3 from 29. August 2011

EAC extraction logfile from 6. July 2016, 19:43

Various / Zäuerli, Yodel of Appenzell

Used drive : TSSTcorpCDDVDW SH-216AB Adapter: 0 ID: 0

Read mode : Secure
Utilize accurate stream : Yes
Defeat audio cache : Yes
Make use of C2 pointers : No

Read offset correction : 6
Overread into Lead-In and Lead-Out : No
Fill up missing offset samples with silence : Yes
Delete leading and trailing silent blocks : No
Null samples used in CRC calculations : Yes
Used interface : Native Win32 interface for Win NT & 2000
Gap handling : Appended to previous track

Used output format : User Defined Encoder
Selected bitrate : 768 kBit/s
Quality : High
Add ID3 tag : No
Command line compressor : C:\Program Files (x86)\FLAC Frontend\tools\flac.exe
Additional command line options : -8 -V -T "ARTIST=%artist%" -T "TITLE=%title%" -T "ALBUM=%albumtitle%" -T "DATE=%year%" -T "TRACKNUMBER=%tracknr%" -T "GENRE=%genre%" -T "PERFORMER=%albuminterpret%" -T "COMPOSER=%composer%" %haslyrics%–tag-from-file=LYRICS="%lyricsfile%"%haslyrics% -T "ALBUMARTIST=%albumartist%" -T "DISCNUMBER=%cdnumber%" -T "TOTALDISCS=%totalcds%" -T "TOTALTRACKS=%numtracks%" -T "COMMENT=%comment%" %source% -o %dest%


TOC of the extracted CD

Track | Start | Length | Start sector | End sector
––––––––––––––––––––––––––––-
1 | 0:00.33 | 9:01.17 | 33 | 40624
2 | 9:01.50 | 5:46.50 | 40625 | 66624
3 | 14:48.25 | 2:35.73 | 66625 | 78322
4 | 17:24.23 | 6:13.10 | 78323 | 106307
5 | 23:37.33 | 2:20.25 | 106308 | 116832
6 | 25:57.58 | 3:49.22 | 116833 | 134029
7 | 29:47.05 | 2:56.55 | 134030 | 147284
8 | 32:43.60 | 2:01.55 | 147285 | 156414
9 | 34:45.40 | 2:01.35 | 156415 | 165524
10 | 36:47.00 | 3:06.08 | 165525 | 179482
11 | 39:53.08 | 2:49.60 | 179483 | 192217
12 | 42:42.68 | 2:48.10 | 192218 | 204827


Track 1

Filename H:\Users\astarte\03. POST\Various Artists - Switzerland - Zäuerli, Yodel of Appenzell\01 Zäuerli sung by the Silvesterkläuse.wav

Pre-gap length 0:00:02.44

Peak level 87.4 %
Extraction speed 2.0 X
Track quality 100.0 %
Copy CRC 5FFBB93F
Accurately ripped (confidence 1) [C26B0379] (AR v2)
Copy OK

Track 2

Filename H:\Users\astarte\03. POST\Various Artists - Switzerland - Zäuerli, Yodel of Appenzell\02 Zäuerli sung during milking the cows.wav

Pre-gap length 0:00:05.76

Peak level 73.9 %
Extraction speed 2.2 X
Track quality 100.0 %
Copy CRC 8CEFA02A
Accurately ripped (confidence 1) [5B25332D] (AR v2)
Copy OK

Track 3

Filename H:\Users\astarte\03. POST\Various Artists - Switzerland - Zäuerli, Yodel of Appenzell\03 Zäuerli sung while going up to the Alpine pasture.wav

Pre-gap length 0:00:04.69

Peak level 79.4 %
Extraction speed 2.1 X
Track quality 100.0 %
Copy CRC 73311E9A
Accurately ripped (confidence 1) [5F74786D] (AR v2)
Copy OK

Track 4

Filename H:\Users\astarte\03. POST\Various Artists - Switzerland - Zäuerli, Yodel of Appenzell\04 Zäuerli with Schelleschötte.wav

Pre-gap length 0:00:04.84

Peak level 68.7 %
Extraction speed 2.4 X
Track quality 99.9 %
Copy CRC CE54237E
Accurately ripped (confidence 1) [8ABB6C42] (AR v2)
Copy OK

Track 5

Filename H:\Users\astarte\03. POST\Various Artists - Switzerland - Zäuerli, Yodel of Appenzell\05 Zäuerli sung in the inn.wav

Pre-gap length 0:00:04.90

Peak level 86.1 %
Extraction speed 2.4 X
Track quality 100.0 %
Copy CRC 133731BC
Accurately ripped (confidence 1) [02CF36AB] (AR v2)
Copy OK

Track 6

Filename H:\Users\astarte\03. POST\Various Artists - Switzerland - Zäuerli, Yodel of Appenzell\06 Zäuerli sung in the inn.wav

Pre-gap length 0:00:04.13

Peak level 84.2 %
Extraction speed 2.7 X
Track quality 100.0 %
Copy CRC FFE9DA30
Accurately ripped (confidence 1) [9A424C1B] (AR v2)
Copy OK

Track 7

Filename H:\Users\astarte\03. POST\Various Artists - Switzerland - Zäuerli, Yodel of Appenzell\07 Zäuerli sung in the inn.wav

Pre-gap length 0:00:04.33

Peak level 68.1 %
Extraction speed 2.7 X
Track quality 100.0 %
Copy CRC 5618B3FA
Accurately ripped (confidence 1) [33E6B72D] (AR v2)
Copy OK

Track 8

Filename H:\Users\astarte\03. POST\Various Artists - Switzerland - Zäuerli, Yodel of Appenzell\08 Zäuerli sung in the inn.wav

Pre-gap length 0:00:03.73

Peak level 68.7 %
Extraction speed 2.5 X
Track quality 100.0 %
Copy CRC B9801A6D
Accurately ripped (confidence 1) [BC91D1A4] (AR v2)
Copy OK

Track 9

Filename H:\Users\astarte\03. POST\Various Artists - Switzerland - Zäuerli, Yodel of Appenzell\09 Zäuerli sung in the inn.wav

Pre-gap length 0:00:04.53

Peak level 73.6 %
Extraction speed 2.1 X
Track quality 99.9 %
Copy CRC CD71CB70
Accurately ripped (confidence 1) [5137C8E5] (AR v2)
Copy OK

Track 10

Filename H:\Users\astarte\03. POST\Various Artists - Switzerland - Zäuerli, Yodel of Appenzell\10 Zäuerli sung in the inn.wav

Pre-gap length 0:00:03.33

Peak level 97.3 %
Extraction speed 2.9 X
Track quality 100.0 %
Copy CRC C70A45AD
Accurately ripped (confidence 1) [DFB3C7B0] (AR v2)
Copy OK

Track 11

Filename H:\Users\astarte\03. POST\Various Artists - Switzerland - Zäuerli, Yodel of Appenzell\11 Zäuerli sung in the inn.wav

Pre-gap length 0:00:03.40

Peak level 63.3 %
Extraction speed 2.9 X
Track quality 100.0 %
Copy CRC 4BD85C4D
Accurately ripped (confidence 1) [6EBA094D] (AR v2)
Copy OK

Track 12

Filename H:\Users\astarte\03. POST\Various Artists - Switzerland - Zäuerli, Yodel of Appenzell\12 Zäuerli sung in the inn.wav

Pre-gap length 0:00:04.17

Peak level 64.8 %
Extraction speed 3.0 X
Track quality 100.0 %
Copy CRC 6E1337EA
Accurately ripped (confidence 1) [05010B76] (AR v2)
Copy OK


All tracks accurately ripped

No errors occurred

End of status report

==== Log checksum 6099F61D4FCEB21367163A6F176F20BA367650A7CB9F0FC93A2005B75BACFD7B ====