Tags
Language
Tags

Various Artists - Viet Nam: Ca Tru & Quan Ho - Traditional Music (1991)

Posted By: d'Avignon
Various Artists - Viet Nam: Ca Tru & Quan Ho - Traditional Music (1991)

Various Artists - Viet Nam: Ca Tru & Quan Ho - Traditional Music (1991)
World/Ethnic | FLAC lossless | cuesheets+log | covers+booklet | 46m47s | 245mb
Label: Unesco/Auvidis | cat. no. D 8035


The northern Vietnamese vocal song traditions of ca trù and quan họ are the focus of this recording. Ca trù, literally translated as “song with little tokens,” is a genre of Vietnamese chamber music sung only by female vocalists with instrumental accompaniment. Ca trù singing was inscribed on the UNESCO List of Intangible Cultural Heritage in Need of Urgent Safeguarding in 2009.
This 1976 recording was made in the Socialist Republic of Vietnam by noted musicologist Trần Văn Khê. The ca trù songs, including classics in the repertoire, are sung by Quach Thi Hô, one of only a small number of ca trù singers at the time.
Additional tracks are examples of quan họ songs. Quan họ is a genre that originated in Bac Ninh province (now called Ha Bac), about 30 kilometers from Hanoi. Sung by both men and women with instrumental accompaniment, the songs are passed orally from generation to generation.

Tracks:

01. Bac Phan [0:03:09.60]
02. Muou & Hat Noi [0:07:11.76]
03. Ty Ba Hanh [0:13:17.30]
04. Goi Do [0:03:50.49]
05. Coi-Giau [0:01:26.17]
06. Duong Ban Kim Loan [0:03:09.80]
07. So Cau Nhu Y [0:03:06.53]
08. Dem Qua Nho Ban [0:04:39.89]
09. Nguoi Oi Nguoi O Dung Ve [0:03:42.20]
10. Ke Bac Nguoi Nam [0:03:11.66]

Performers:

Quach Thi Hô
Various artists

Exact Audio Copy V1.0 beta 3 from 29. August 2011

EAC extraction logfile from 5. March 2016, 0:09

Tran van khé / Viet Nam - Ca Tru & Quan Ho Traditional Music

Used drive : TSSTcorpCDDVDW SH-216AB Adapter: 0 ID: 0

Read mode : Secure
Utilize accurate stream : Yes
Defeat audio cache : Yes
Make use of C2 pointers : No

Read offset correction : 6
Overread into Lead-In and Lead-Out : No
Fill up missing offset samples with silence : Yes
Delete leading and trailing silent blocks : No
Null samples used in CRC calculations : Yes
Used interface : Native Win32 interface for Win NT & 2000
Gap handling : Appended to previous track

Used output format : User Defined Encoder
Selected bitrate : 768 kBit/s
Quality : High
Add ID3 tag : No
Command line compressor : C:\Program Files (x86)\FLAC Frontend\tools\flac.exe
Additional command line options : -8 -V -T "ARTIST=%artist%" -T "TITLE=%title%" -T "ALBUM=%albumtitle%" -T "DATE=%year%" -T "TRACKNUMBER=%tracknr%" -T "GENRE=%genre%" -T "PERFORMER=%albuminterpret%" -T "COMPOSER=%composer%" %haslyrics%–tag-from-file=LYRICS="%lyricsfile%"%haslyrics% -T "ALBUMARTIST=%albumartist%" -T "DISCNUMBER=%cdnumber%" -T "TOTALDISCS=%totalcds%" -T "TOTALTRACKS=%numtracks%" -T "COMMENT=%comment%" %source% -o %dest%


TOC of the extracted CD

Track | Start | Length | Start sector | End sector
––––––––––––––––––––––––––––-
1 | 0:00.33 | 3:09.45 | 33 | 14252
2 | 3:10.03 | 7:11.57 | 14253 | 46634
3 | 10:21.60 | 13:17.23 | 46635 | 106432
4 | 23:39.08 | 3:50.37 | 106433 | 123719
5 | 27:29.45 | 1:26.13 | 123720 | 130182
6 | 28:55.58 | 3:09.60 | 130183 | 144417
7 | 32:05.43 | 3:06.40 | 144418 | 158407
8 | 35:12.08 | 4:39.67 | 158408 | 179399
9 | 39:52.00 | 3:42.15 | 179400 | 196064
10 | 43:34.15 | 3:11.50 | 196065 | 210439


Track 1

Filename H:\Users\astarte\03. POST\Various Artists - Vietnam - Traditional Music Ca Tru & Quan Ho\01 Bac Phan.wav

Pre-gap length 0:00:02.44

Peak level 47.6 %
Extraction speed 0.3 X
Track quality 100.0 %
Copy CRC 2A1E04AB
Accurately ripped (confidence 1) [91CA8F1E] (AR v2)
Copy OK

Track 2

Filename H:\Users\astarte\03. POST\Various Artists - Vietnam - Traditional Music Ca Tru & Quan Ho\02 Muou & Hat Noi.wav

Pre-gap length 0:00:02.00

Peak level 51.8 %
Extraction speed 2.1 X
Track quality 100.0 %
Copy CRC 6C82D324
Accurately ripped (confidence 1) [8495A0DE] (AR v2)
Copy OK

Track 3

Filename H:\Users\astarte\03. POST\Various Artists - Vietnam - Traditional Music Ca Tru & Quan Ho\03 Ty Ba Hanh.wav

Pre-gap length 0:00:03.60

Suspicious position 0:08:54
Suspicious position 0:08:58

Peak level 57.9 %
Extraction speed 1.0 X
Track quality 99.6 %
Copy CRC EAAD0E28
Cannot be verified as accurate (confidence 1) [E270036C], AccurateRip returned [141EF0A6] (AR v2)
Copy finished

Track 4

Filename H:\Users\astarte\03. POST\Various Artists - Vietnam - Traditional Music Ca Tru & Quan Ho\04 Goi Do.wav

Pre-gap length 0:00:02.33

Peak level 35.0 %
Extraction speed 2.6 X
Track quality 100.0 %
Copy CRC 3412C47D
Accurately ripped (confidence 1) [0E8A6C5F] (AR v2)
Copy OK

Track 5

Filename H:\Users\astarte\03. POST\Various Artists - Vietnam - Traditional Music Ca Tru & Quan Ho\05 Coi-Giau.wav

Pre-gap length 0:00:01.76

Peak level 38.5 %
Extraction speed 2.2 X
Track quality 100.0 %
Copy CRC AF9F63BE
Accurately ripped (confidence 1) [71822F92] (AR v2)
Copy OK

Track 6

Filename H:\Users\astarte\03. POST\Various Artists - Vietnam - Traditional Music Ca Tru & Quan Ho\06 Duong Ban Kim Loan.wav

Pre-gap length 0:00:02.24

Peak level 36.8 %
Extraction speed 2.7 X
Track quality 100.0 %
Copy CRC DEAF490D
Accurately ripped (confidence 1) [DF4B1986] (AR v2)
Copy OK

Track 7

Filename H:\Users\astarte\03. POST\Various Artists - Vietnam - Traditional Music Ca Tru & Quan Ho\07 So Cau Nhu Y.wav

Pre-gap length 0:00:02.84

Peak level 36.8 %
Extraction speed 2.4 X
Track quality 99.9 %
Copy CRC 83740028
Accurately ripped (confidence 1) [01E2029C] (AR v2)
Copy OK

Track 8

Filename H:\Users\astarte\03. POST\Various Artists - Vietnam - Traditional Music Ca Tru & Quan Ho\08 Dem Qua Nho Ban.wav

Pre-gap length 0:00:03.50

Peak level 40.6 %
Extraction speed 3.0 X
Track quality 100.0 %
Copy CRC 2DFBB4CC
Accurately ripped (confidence 1) [E3CE9428] (AR v2)
Copy OK

Track 9

Filename H:\Users\astarte\03. POST\Various Artists - Vietnam - Traditional Music Ca Tru & Quan Ho\09 Nguoi Oi Nguoi O Dung Ve.wav

Pre-gap length 0:00:01.42

Peak level 40.7 %
Extraction speed 3.1 X
Track quality 100.0 %
Copy CRC 86C0D4CE
Accurately ripped (confidence 1) [DE5507A5] (AR v2)
Copy OK

Track 10

Filename H:\Users\astarte\03. POST\Various Artists - Vietnam - Traditional Music Ca Tru & Quan Ho\10 Ke Bac Nguoi Nam.wav

Pre-gap length 0:00:03.20

Peak level 41.3 %
Extraction speed 3.1 X
Track quality 100.0 %
Copy CRC 7D6A138E
Accurately ripped (confidence 1) [7EE57CCC] (AR v2)
Copy OK


9 track(s) accurately ripped
1 track(s) could not be verified as accurate

Some tracks could not be verified as accurate

There were errors

End of status report

==== Log checksum 99340611D288CC4659110C63E1663B150E655D3F6F4205FCBF9569D524AB8040 ====